#TITLE:FTL;
#SUBTITLE:;
#ARTIST:Big Idea feat. Melissa Petty;
#TITLETRANSLIT:;
#SUBTITLETRANSLIT:;
#ARTISTTRANSLIT:;
#GENRE:;
#CREDIT:;
#MUSIC:FTL.mp3;
#BANNER:;
#BACKGROUND:;
#CDTITLE:;
#SAMPLESTART:47.320;
#SAMPLELENGTH:0.000;
#SELECTABLE:YES;
#OFFSET:1.930;
#BPMS:0.000=120.000;
#STOPS:;
#BGCHANGES:;
#FGCHANGES:;

//--------------- dance-single - OrangeRight ----------------
#NOTES:
     dance-single:
     OrangeRight:
     Beginner:
     1:
     0,0,0,0,0:
0000
0000
0000
0000
,
0000
0000
0000
0000
,
0000
0000
0000
0000
,
0000
0000
0000
0000
,
0000
0000
0000
0000
,
1000
0000
0000
0000
,
1000
0000
0000
0000
,
0001
0000
0000
0000
,
0001
0000
0000
0000
,
1000
0000
1000
0000
,
1000
0000
0000
0000
,
0001
0000
0001
0000
,
0001
0000
0000
0000
,
1000
0000
1000
0000
,
0001
0000
0000
0000
,
0001
0000
0001
0000
,
1000
0000
0000
0000
,
1000
0000
1000
0000
,
0001
0000
0001
0000
,
1000
0000
0100
0000
,
1000
0000
0000
0000
,
0001
0000
0001
0000
,
1000
0000
1000
0000
,
0001
0000
0010
0000
,
0001
0000
0000
0000
,
1000
0000
1000
0000
,
0001
0000
0001
0000
,
1000
0000
0100
0000
,
0100
0000
0000
0000
,
1000
0000
1000
0000
,
0001
0000
0001
0000
,
1000
0000
0010
0000
,
0010
0000
0100
0000
,
0001
0000
0001
0000
,
1000
0000
1000
0000
,
0001
0000
0010
0000
,
0100
0000
0000
0000
,
1000
0000
1000
0000
,
0001
0000
0001
0000
,
0100
0000
0001
0000
,
1001
0000
0000
0000
,
1000
0000
0000
0000
,
0001
0000
0000
0000
,
1000
0000
0100
0000
,
0010
0000
0000
0000
,
0100
0000
0000
0000
,
1000
0000
0000
0000
,
0001
0000
1000
0000
,
0001
0000
0000
0000
;

//--------------- dance-single - OrangeRight ----------------
#NOTES:
     dance-single:
     OrangeRight:
     Easy:
     3:
     0,0,0,0,0:
0000
0000
0000
0000
,
0000
0000
0000
0000
,
0000
0000
0000
0000
,
0000
0000
0000
0000
,
0000
0000
0000
0000
,
1000
0000
1000
0000
,
1000
0000
0000
0000
,
0001
0000
0001
0000
,
0002
0000
0000
0003
,
1000
0000
1000
0000
,
0100
0000
0010
0010
,
0001
0000
0001
0000
,
0100
0000
0001
1000
,
0001
0000
0100
0000
,
0010
0000
0100
0100
,
0001
0000
0100
0000
,
0010
0000
0010
1000
,
0001
0000
0100
0000
,
1000
0000
0100
0001
,
1000
0000
0100
0000
,
0001
0000
0100
1000
,
0001
0000
0010
0000
,
1000
0000
0010
0001
,
1000
0000
0010
0000
,
0100
0001
0010
0100
,
1000
1000
0000
0000
,
0001
0001
0000
0000
,
1000
0001
0000
0000
,
0001
1000
0000
1000
,
0001
0001
0000
0000
,
1000
1000
0000
0000
,
0001
1000
0000
0000
,
2000
0000
3002
0000
,
1003
0100
0000
0000
,
0010
0001
0000
0000
,
0001
0100
0000
0000
,
0100
0010
0000
0010
,
1000
0001
0000
0000
,
0001
1000
0000
0000
,
1000
0100
0000
0000
,
2000
0000
3002
0000
,
1003
0100
1000
0000
,
0001
0100
0001
0000
,
1000
0001
1000
0000
,
0001
1000
0010
0000
,
1000
0100
1000
0000
,
0001
0100
0001
0000
,
1000
0001
1000
0001
,
2000
0000
0002
3003
;

//--------------- dance-single - OrangeRight ----------------
#NOTES:
     dance-single:
     OrangeRight:
     Medium:
     8:
     0,0,0,0,0:
0000
0000
0000
0000
,
0000
0000
0000
0000
,
0000
0000
0000
0000
,
0000
0000
0000
0000
,
0000
0000
0000
0000
,
1000
1000
0001
0001
,
0100
0100
0010
0100
,
0001
0001
1000
1000
,
0002
0100
2003
0100
,
3010
1000
0100
1000
,
0010
0100
0001
0001
,
0010
0001
1000
0001
,
0100
0010
1000
0001
,
1000
0100
0010
0001
,
1000
0010
0100
0001
,
1000
0001
0010
0100
,
2000
0100
3002
0100
,
0003
1000
0100
2000
0000
3001
0100
0002
,
0000
1003
0010
0200
0000
0320
0000
2030
,
0000
3001
0010
0002
0000
2003
0000
3020
,
0000
1030
0001
2000
0000
3002
0000
0203
,
0000
0310
1000
0020
0000
0230
0000
0302
,
0000
0023
0000
0030
0001
1000
1001
0000
,
0000
1000
0100
0020
0000
0031
0100
0000
,
0100
0010
0100
0010
0100
0000
0001
0000
,
1000
0100
1000
0000
0001
0100
0001
0010
,
0001
0100
0001
0000
1000
0010
1000
0100
,
1000
0010
1000
0000
0001
1000
0001
1000
,
0100
0010
0100
0000
1000
0001
1000
0001
,
1000
0010
1000
0000
0001
0010
0001
1000
,
0001
0010
0001
0000
1000
0100
1000
0001
,
1000
0100
1000
0000
0001
1000
0001
1000
,
0020
0000
2030
0000
3001
1000
0001
1000
,
0001
0100
0010
0000
1000
0010
0100
0010
,
1000
0100
0010
0000
0001
0010
0100
0010
,
0001
0100
0010
0000
1000
0001
1000
0100
,
1000
0001
1001
0000
0001
1000
0001
1000
,
0010
0100
0010
0000
1000
0001
1000
0001
,
0010
0100
0010
0000
0001
1000
0001
1000
,
0100
0010
0001
0000
0001
1000
0001
1000
,
2001
0000
3100
0010
0002
0000
0103
0000
,
0002
0100
0000
0010
,
1003
0100
0010
0000
0001
1000
0001
0000
,
2000
0010
0000
0100
,
3001
0000
0100
0010
1000
0001
1000
0000
,
0002
1000
1000
1000
,
1003
0100
0010
0000
0001
1000
0001
0000
,
2000
0001
0001
0001
,
3002
0000
0103
0010
;

//--------------- dance-single - OrangeRight ----------------
#NOTES:
     dance-single:
     OrangeRight:
     Hard:
     11:
     0,0,0,0,0:
0000
0000
0000
0000
,
0000
0000
0000
0000
,
0000
0000
0000
0000
,
0000
0000
0000
0000
,
0000
0000
0000
0000
,
1000
0000
0010
0000
1000
0000
0001
0000
0100
0000
0000
0010
0000
0000
1000
0000
,
0100
0000
0000
0000
1100
0000
0000
1000
0001
0000
0000
0100
0000
0000
0010
0000
,
1000
0000
0100
0000
1000
0000
0001
0000
0100
0000
0000
0010
0000
0000
1000
0000
,
0002
0203
0320
2030
,
3001
0000
0100
0000
0010
0000
0100
0001
0100
0000
0001
0000
1000
0000
0000
0000
,
1000
0100
0000
0100
0010
0000
0001
0000
0100
0000
1000
0000
0100
0000
0001
0000
,
1000
0000
0100
0000
0010
0000
0100
1000
0100
0000
1000
0000
0001
0000
0000
0000
,
1000
0100
0010
0001
0010
1000
0010
0001
,
0100
0000
0010
0000
0100
0000
0001
0000
1000
0100
1000
0000
0010
0000
0000
0000
,
1000
0000
0010
0100
0000
0001
0000
0010
0000
0100
0000
1000
0000
0000
0001
0000
,
1000
0010
1000
0000
0100
0000
1000
0000
0010
0000
0100
0000
0001
0000
0000
0000
,
0002
0023
0230
2300
,
3000
1000
0100
1100
0000
1001
0000
0101
,
0000
0001
0100
0110
0000
1010
0000
1100
,
0000
1000
0010
1010
0000
0110
0000
0101
,
0000
1000
0100
1100
0000
0110
0000
0011
,
0000
0010
0001
0201
0000
0310
0000
2010
,
0000
3100
1000
0000
0001
1000
1001
0000
,
1000
0001
0100
0110
0000
1000
0001
0000
,
1000
0100
0010
0001
0100
0010
1000
0001
,
1000
0000
0010
0000
1010
0000
0000
1000
0010
0000
0100
0000
0001
0000
0010
0000
,
0001
0000
0100
0000
0101
0000
0000
0100
0001
0000
1000
0000
0100
0000
0010
0000
,
0001
0000
1000
0000
1001
0000
0000
1000
0010
0000
1000
0000
0100
0000
0001
0000
,
0100
0000
0010
0000
1001
0000
0000
0001
1000
0000
0001
0000
0100
0000
0010
0000
,
1000
0000
0010
0000
1010
0000
0000
1000
0100
0000
0010
0000
0001
0000
0100
0000
,
0001
0000
0010
0000
0011
0000
0000
0001
0100
0000
0010
0000
1000
0000
0001
0000
,
0010
0000
0100
0000
0110
0000
0000
0010
0001
0000
0100
0000
1000
0000
0100
0000
,
0102
0000
0013
0100
1000
0100
0010
0001
,
1000
0000
0001
0000
1001
0000
0000
1000
0010
0000
0100
0000
0001
0000
0100
0000
,
1000
0000
0100
0000
0110
0000
0000
0010
1000
0000
0010
0000
0001
0000
0010
0000
,
1000
0000
0001
0000
0110
0000
0000
0010
0100
0000
1000
0000
0001
0000
0010
0000
,
1000
0000
0010
0000
1001
0000
0000
1000
0001
0000
0100
0000
0010
0000
1000
0000
,
0001
0000
1000
0000
1001
0000
0000
1000
0010
0000
0001
0000
0010
0000
0100
0000
,
0010
0000
1000
0000
1010
0000
0000
1000
0001
0000
0010
0000
1000
0000
0010
0000
,
0001
0000
1000
0000
0110
0000
0000
0010
0100
0000
0001
0000
1000
0000
0010
0000
,
2010
0000
3100
0010
0012
0000
0103
0000
,
1020
0000
0100
0000
1030
0001
1000
0100
,
1200
0000
0010
0000
1300
0001
0100
0010
,
1020
0000
0001
0000
0130
0001
0010
1000
,
1020
0000
0031
0100
1000
0100
0001
0000
,
0010
0000
0001
0000
0010
0000
0001
0000
1000
0000
0000
1000
0100
0000
0010
0000
,
0001
0000
0100
0000
0001
0000
0100
0000
0010
0000
0000
1000
0001
0000
0000
0000
,
0010
0001
1000
0100
0001
0100
1000
0001
,
2002
0000
3003
0001
0100
0010
1000
0000
;

//--------------- dance-double - OrangeRight ----------------
#NOTES:
     dance-double:
     OrangeRight:
     Easy:
     2:
     0,0,0,0,0:
00000000
00000000
00000000
00000000
,
00000000
00000000
00000000
00000000
,
00000000
00000000
00000000
00000000
,
00000000
00000000
00000000
00000000
,
00000000
00000000
00000000
00000000
,
10000000
00000000
00010000
00000000
,
01000000
00000000
01000000
00000000
,
00010000
00000000
01000000
00000000
,
00002000
00000000
00000000
00003000
,
00010000
00000000
00010000
00000000
,
00001000
00000000
01000000
00000000
,
00001000
00000000
00001000
00000000
,
00010000
00000000
00000100
00010000
,
00001000
00000000
01000000
00000000
,
00010000
00000000
00100000
00001000
,
00010000
00000000
00000100
00000000
,
00002000
00000000
00000000
00003000
,
00000001
00000000
00000100
00000000
,
00000010
00000000
00001000
00001000
,
00000010
00000000
00010000
00000000
,
00001000
00000000
01000000
01000000
,
00010000
00000000
01000000
00000000
,
00100000
00000000
10000000
00010000
,
10000000
00000000
01000000
00000000
,
00200000
00000000
00000000
00300000
,
00010000
10000000
00000000
00000000
,
10000000
00010000
00000000
00000000
,
01000000
01000000
00000000
00000000
,
00010000
00100000
00000000
00100000
,
00001000
00010000
00000000
00000000
,
00010000
00001000
00000000
00000000
,
01000000
01000000
00000000
00000000
,
00001000
00000000
00010000
00000100
,
00001000
00000001
00000000
00000000
,
00000001
00001000
00000000
00000000
,
00000100
00000100
00000000
00000000
,
00001000
00000010
00000000
00000010
,
00010000
00001000
00000000
00000000
,
00001000
00010000
00000000
00000000
,
00000100
00000100
00000000
00000000
,
00010000
00000000
00001000
00000000
,
02000000
00000000
00010000
00000000
,
03010000
00000000
00100000
00000000
,
00002000
00000000
00010000
00000000
,
00013000
00000000
00001000
00010000
,
00000200
00000000
00001000
00000000
,
00001300
00000000
00000010
00000000
,
00001000
00000000
00000001
00000000
,
00002000
00000000
00000002
00003003
;

//--------------- dance-double - OrangeRight ----------------
#NOTES:
     dance-double:
     OrangeRight:
     Medium:
     7:
     0,0,0,0,0:
00000000
00000000
00000000
00000000
,
00000000
00000000
00000000
00000000
,
00000000
00000000
00000000
00000000
,
00000000
00000000
00000000
00000000
,
00000000
00000000
00000000
00000000
,
10000000
00100000
10000000
00100000
,
01000000
00000000
01000000
00000000
,
00010000
00100000
00010000
00100000
,
00002000
00000000
00023000
00000000
,
00031000
00000000
01000000
00000000
00001000
00010000
00001000
00000000
,
00010000
00000100
00001000
00000010
,
00010000
00000000
00000100
00000000
00010000
00001000
00010000
00000000
,
00001000
00100000
00010000
01000000
,
00001000
00000000
00100000
00000000
00001000
00010000
00001000
00000000
,
01000000
00010000
01000000
00001000
,
00010000
00000000
00000010
00000000
00010000
00001000
00010000
00000000
,
00002000
00000000
00023000
00000000
,
00030000
00001000
00010000
00001000
00000000
00100000
00001000
00100000
,
00000000
00001000
01000000
00001000
00000000
00020000
00000000
00030200
,
00000000
00010300
00001000
00010000
00000000
00000100
00010000
00000100
,
00000000
00001000
00000100
00000020
00000000
00000032
00000000
00002003
,
00000000
00003001
00001000
00000002
00000000
00000203
00000000
00000320
,
00000000
00002030
00000000
00003000
00000001
00001000
00001001
00000000
,
00000000
00000001
00001000
00000200
00000000
00010300
00001000
00000000
,
01000000
00010000
01000000
00010000
00100000
00000000
00010000
00000000
,
10000000
00010000
10000000
00000000
00010000
01000000
00010000
00000000
,
00010000
10000000
00010000
00000000
00100000
00001000
00010000
00000000
,
00001000
00010000
00001000
00000000
00010000
00000100
00010000
00000100
,
00001000
00000001
00001000
00000000
00000001
00001000
00000001
00001000
,
00000001
00000100
00000001
00000000
00001000
00000100
00001000
00000000
,
00000010
00001000
00000010
00000000
00001000
00000100
00010000
00000000
,
00001000
00010000
00001000
00000000
00010000
00000100
00010000
00000100
,
00002000
00003020
00001030
00001001
,
00001000
00000100
00001000
00000000
00000001
00000100
00000001
00000100
,
00000010
00000100
00000010
00000000
00001000
00000001
00001000
00000001
,
00001000
00000100
00001000
00000000
00000100
00010000
00000100
00010000
,
00001000
00010000
00001000
00000000
00010000
00001000
00010000
00001000
,
00100000
00010000
00100000
00000000
01000000
10000000
01000000
10000000
,
00100000
01000000
00100000
00000000
01000000
00010000
01000000
00010000
,
00100000
00001000
00100000
00000000
00010000
00100000
01000000
10000000
,
00020000
00000000
01030000
00100000
20000000
00000000
30010000
00000000
,
20000000
00100000
00000000
00010000
,
31000000
00000000
00100000
00000000
00010000
00100000
00001000
00000000
,
00002000
00010000
00000000
00100000
,
00013000
00000000
00000100
00001000
00000100
00001000
00000010
00000000
,
00002000
00000010
00000000
00000001
,
00003100
00000000
00000010
00000000
00000001
00000100
00000010
00000000
,
00000020
00001000
00000000
00010030
,
00002000
00000000
00013000
00001000
;

//--------------- dance-double - OrangeRight ----------------
#NOTES:
     dance-double:
     OrangeRight:
     Hard:
     11:
     0,0,0,0,0:
00000000
00000000
00000000
00000000
,
00000000
00000000
00000000
00000000
,
00000000
00000000
00000000
00000000
,
00000000
00000000
00000000
00000000
,
00000000
00000000
00000000
00000000
,
10000000
00000000
01000000
00000000
00100000
00000000
01000000
00000000
10000000
00000000
00000000
00010000
00000000
00000000
01000000
00000000
,
00002000
00000000
00013000
00000000
00010000
00000100
00010000
00000000
,
00000100
00000000
00001000
00000000
00000010
00000000
00000100
00000000
00000001
00000000
00000000
00001000
00000000
00000000
00000001
00000000
,
00000020
00000100
00000100
00000100
,
00000031
00000000
00000100
00000000
00000010
00000000
00001000
00000001
00001000
00000000
00000100
00000000
00000010
00000000
00000000
00000000
,
00000001
00000100
00001000
00000100
00000001
00001000
00000001
00000000
,
00001000
00000000
00000100
00000000
00010000
00000000
00001000
00000000
00100000
00001000
00100000
00000000
00010000
00000000
00000000
00000000
,
01000000
00100000
10000000
01000000
00010000
01000000
10000000
00100000
,
01000000
00000000
00010000
00000000
10000000
00000000
01000000
00000000
00100000
01000000
00100000
00000000
01000000
00000000
00000000
00000000
,
10000000
00010000
01000000
00001000
00010000
00001000
00100000
00000000
,
00001000
00100000
00001000
00000000
00010000
00000000
00000100
00000000
00001000
00000000
00000010
00000000
00000100
00000000
00000000
00000000
,
00000120
00002030
00003200
00020300
,
00030000
00001000
00100000
00101000
00000000
00011000
00000000
00010200
,
00000000
00001300
00000100
00001200
00000000
00000001
00000000
00001300
,
00000000
00000100
00010000
00010100
00000000
00011000
00000000
00201000
,
00000000
00310000
01000000
02010000
00000000
10000000
00000000
03010000
,
00000000
01000000
00001000
01002000
00000000
00023000
00000000
00030020
,
00000000
00000130
00000001
00000000
00001000
00000001
00001001
00000000
,
00000000
00001000
00000100
00020100
00000000
00031000
01001000
00000000
,
00010000
01000000
10000000
01000000
00010000
10000000
00010000
10000000
,
00010000
00000000
01000000
00000000
01001000
00000000
00000000
01000000
00001000
00000000
00010000
00000000
00000100
00000000
00001000
00000000
,
00000010
00000000
00010000
00000000
00011000
00000000
00000000
00001000
00100000
00000000
00010000
00000000
01000000
00000000
00100000
00000000
,
10000000
00000000
00010000
00000000
10010000
00000000
00000000
10000000
00010000
00000000
01000000
00000000
00001000
00000000
00010000
00000000
,
00000100
00000000
00010000
00000000
00010100
00000000
00000000
00000100
00001000
00000000
00000001
00000000
00000010
00000000
00000001
00000000
,
00001000
00000000
00000100
00000000
00010100
00000000
00000000
00000100
00010000
00000000
00001000
00000000
01000000
00000000
00010000
00000000
,
00100000
00000000
00001000
00000000
00011000
00000000
00000000
00010000
00000010
00000000
00001000
00000000
00000100
00000000
00000010
00000000
,
00000001
00000000
00001000
00000000
00001001
00000000
00000000
00000001
00001000
00000000
00000100
00000000
00010000
00000000
00001000
00000000
,
00012000
00000000
01003000
00001000
00010000
00000100
00001000
00000010
,
00000100
00000000
00000010
00000000
00000110
00000000
00000000
00000010
00010000
00000000
00001000
00000000
00100000
00000000
00010000
00000000
,
01000000
00000000
00100000
00000000
01100000
00000000
00000000
01000000
00001000
00000000
00010000
00000000
00000100
00000000
00001000
00000000
,
00000001
00000000
00001000
00000000
00001001
00000000
00000000
00001000
00000100
00000000
00010000
00000000
00001000
00000000
00100000
00000000
,
00010000
00000000
10000000
00000000
10010000
00000000
00000000
10000000
00010000
00000000
01000000
00000000
00100000
00000000
10000000
00000000
,
01000000
00000000
00100000
00000000
01100000
00000000
00000000
00100000
00001000
00000000
00010000
00000000
00000010
00000000
00001000
00000000
,
00000100
00000000
00000010
00000000
00000110
00000000
00000000
00000100
00010000
00000000
00001000
00000000
01000000
00000000
00010000
00000000
,
10000000
00000000
00010000
00000000
10010000
00000000
00000000
00010000
01000000
00000000
00001000
00000000
00010000
00000000
00000010
00000000
,
00002010
00000000
00003100
00010000
00012000
00000000
00203000
00000000
,
00320000
00000000
01000000
00000000
10030000
00100000
01000000
00010000
,
00200000
00000000
00001000
00000000
00310000
00100000
00001000
00010000
,
00002000
00000000
00010000
00000000
01003000
00001000
00010000
00000100
,
00002000
00000000
00003001
00001000
00000010
00000100
00000001
00000000
,
00002000
00000000
00000100
00000000
00003001
00000100
00000010
00001000
,
00000200
00000000
00010000
00000000
00001300
00000100
00010000
00001000
,
00100000
00010000
10000000
01000000
00010000
01000000
10000000
00010000
,
20020000
00000000
30030000
10000000
00100000
01000000
00010000
00000000
;
