#TITLE:FIRE;
#SUBTITLE:;
#ARTIST:泉 陸奥彦;
#TITLETRANSLIT:;
#SUBTITLETRANSLIT:;
#ARTISTTRANSLIT:Mutsuhiko Isumi;
#GENRE:;
#CREDIT:;
#MUSIC:FIRE.ogg;
#BANNER:FIRE.png;
#BACKGROUND:FIRE-bg.png;
#CDTITLE:./CDTITLES/GUITARFREAKS & drummania.png;
#SAMPLESTART:56.080;
#SAMPLELENGTH:15.000;
#SELECTABLE:YES;
#OFFSET:0.000;
#BPMS:0.000=184.615
,4.000=184.014
;
#STOPS:;
#DISPLAYBPM:184.000;
#BGCHANGES:;
#FGCHANGES:;

//--------------- dance-single - KONAMI ----------------
#NOTES:
     dance-single:
     KONAMI:
     Beginner:
     4:
     0.138,0.218,0.011,0,0:
0000
0000
0000
0000
,
0000
0000
0000
0000
,
0000
0000
0000
0000
,
0010
0000
0000
0000
,
0000
0000
0000
0000
,
0100
0000
0000
0000
,
0000
0000
0000
0000
,
0001
0000
0000
0000
,
0000
0000
0000
0000
,
1000
0000
0000
0000
,
0000
0000
0000
0000
,
0010
0000
0000
0000
,
0010
0000
0010
0000
,
0100
0000
0000
0000
,
0100
0000
0100
0000
,
0001
0000
0000
0000
,
0001
0000
0001
0000
,
1000
0000
0000
0000
,
0001
0000
1000
0000
,
0010
0000
0000
0000
,
0100
0000
0100
0000
,
0010
0000
0000
0000
,
1000
0000
0000
0000
,
0001
0000
0000
0000
,
1000
0000
1000
0000
,
0100
0000
0000
0000
,
0010
0000
0000
0000
,
0100
0000
0000
0000
,
0100
0000
0010
0000
,
0001
0000
0000
0000
,
1000
0000
0000
0000
,
0010
0000
0000
0000
,
0010
0000
0100
0000
,
1000
0000
0000
0000
,
0001
0000
1000
0000
,
0010
0010
0010
0000
,
0100
0000
0100
0000
,
0001
0001
0001
0000
,
1000
0000
1000
0000
,
0100
0100
0100
0000
,
1000
0000
1000
0000
,
0010
0000
0000
0000
,
0100
0000
0000
0000
,
0001
0000
0000
0000
,
0100
0000
0000
0000
,
1000
0000
0100
0000
,
0010
0000
0001
0000
,
1000
0000
0000
0000
,
0001
0000
1000
0000
,
0010
0000
0100
0000
,
0001
0000
1000
0000
,
0010
0000
0000
0000
,
0100
0000
0000
0000
,
0010
0000
0000
0000
,
0001
0000
0000
0000
,
1000
0000
0000
0000
,
0001
0000
0000
0000
,
0100
0000
0000
0000
,
0010
0000
0000
0000
,
1000
0000
0100
0000
,
0010
0000
0000
0000
,
0001
0000
1000
0000
,
0010
0000
0000
0000
,
0100
0000
0100
0000
,
0010
0000
0000
0000
,
0001
0000
0001
0000
,
1000
0000
0000
0000
,
1001
0000
0000
0000
;

//--------------- dance-single - KONAMI ----------------
#NOTES:
     dance-single:
     KONAMI:
     Easy:
     5:
     0.29,0.329,0.065,0.206,0:
0000
0000
0000
0000
,
0000
0000
0000
0000
,
0000
0000
0000
0000
,
0001
1000
0100
0001
,
0000
0010
0000
0000
,
1000
0001
0010
1000
,
0000
0100
0000
0000
,
2000
3000
0002
0003
,
1000
0100
0010
0001
,
2000
3000
0002
0003
,
0010
0001
0100
0010
,
1000
0010
0000
0100
,
0000
1000
0000
0001
,
1000
0001
0000
0010
,
0000
0100
0000
1000
,
0001
0010
0000
0100
,
0000
0001
0000
1000
,
0010
0100
0000
0001
,
0000
2000
0000
3000
,
1000
0100
0001
1000
,
0020
0000
0130
0100
,
0002
0000
0003
0001
,
0020
0000
0030
0000
,
0001
0010
1000
0001
,
0100
0020
0000
0000
,
1030
0000
0000
1000
,
0100
0010
0001
0000
,
0010
1000
0001
0100
,
2000
0000
3100
0100
,
0020
0000
0000
0000
0000
0030
0010
0000
,
0002
0000
0003
0000
,
0001
1000
0001
0010
,
0100
2000
0000
3000
,
0020
0000
0030
0100
,
0001
0100
1000
0001
,
1001
0000
0000
0000
,
0110
0000
0000
0000
,
1001
0000
0000
0000
,
0110
0000
0000
0000
,
1000
0010
0001
0100
,
1000
0000
0001
0100
,
0010
0000
0100
0000
,
0002
0000
0003
0000
,
1000
0010
0100
0001
,
0010
0000
0100
0000
,
0010
0001
0100
0001
,
2000
0000
3010
0000
,
0010
1000
0001
0100
,
1000
0000
0001
0000
,
0010
0000
0100
0000
,
1000
1000
0100
0010
,
0001
1000
0010
0001
,
1000
0100
0010
1000
,
0020
0000
0030
0010
,
0200
0000
0300
0100
,
0001
1000
0001
0010
,
0000
0000
1000
0000
,
0010
0000
0100
0000
,
0110
0000
0000
0000
,
1000
0001
0000
0100
,
0000
0010
0000
0100
,
0001
0010
0000
1000
,
0000
0010
0000
0001
,
1000
0000
1001
0000
0000
1000
0000
0000
,
0001
0000
0000
0100
0000
0100
0000
0000
,
0020
0000
0000
0000
,
0030
0000
0000
0010
0000
0000
0000
0000
,
1000
0001
0000
0000
;

//--------------- dance-single - KONAMI ----------------
#NOTES:
     dance-single:
     KONAMI:
     Medium:
     8:
     0.438,0.439,0.141,0.141,0:
0000
0000
0000
0000
,
0000
0000
0000
0000
,
0000
0000
0000
0000
,
0001
0100
0010
1000
,
0001
0000
1000
0000
0010
0001
0100
0000
,
0010
1000
0001
0100
,
0010
0000
1000
0000
0100
0001
0010
0000
,
0100
1000
0100
0010
,
0001
0000
0100
0000
0010
1000
0001
0000
,
0010
0001
1000
0000
0100
1000
0010
0000
,
0100
0000
0001
0000
1000
0100
0010
0000
,
0001
0100
0001
0000
0000
1000
0000
0000
,
0100
0000
0000
0001
0000
0100
0000
1000
,
0000
0000
1010
0000
0000
1001
0000
0000
,
0011
0000
0000
1000
0000
0010
0000
0001
,
0000
0100
0010
0000
0000
1000
0000
0000
,
0001
0000
0000
0010
0000
0001
0000
0100
,
0000
0000
0110
0000
0000
1010
0000
0000
,
1001
0000
0000
0101
0000
0000
0000
0000
,
1000
0100
0001
0000
0100
0000
1000
0000
,
0010
0100
0001
0100
,
0010
0010
0010
0000
0000
0000
0100
0000
,
0001
1000
0001
1000
,
0100
0010
0001
0000
0100
0000
0010
0000
,
1000
0001
0100
1000
,
0100
0100
0100
0000
0000
0000
0010
0000
,
1000
0100
1000
0000
0001
0000
0010
0000
,
0001
0100
0010
0000
1000
0000
0001
0000
,
0100
0010
0001
1000
,
0010
0010
0010
0000
0000
0000
0100
0000
,
0001
0010
1000
0001
,
0100
0010
1000
0000
0001
0000
0100
0000
,
0010
0001
0100
0010
,
1000
0100
1000
0000
1000
0010
1000
0000
,
0001
0100
0010
0000
1000
0000
0001
0000
,
0020
0000
0000
0001
0000
0000
0130
0000
,
1000
0001
0100
0000
0010
0000
1000
0000
,
0002
0000
0000
0100
0000
0000
1003
0000
,
0010
1000
0001
0000
0100
0000
0010
1000
,
0100
1000
0010
0001
,
1000
0000
0000
0010
0000
0000
0100
0000
,
0001
0000
0000
0010
0000
0000
0100
0000
,
0220
0000
0330
0000
,
0001
0100
1000
0000
0100
0000
0010
0000
,
1000
0100
0010
0000
1000
0100
0010
0000
,
0001
0001
0100
0010
,
1000
0000
1000
0000
0001
0000
0010
0001
,
0100
1000
0010
1000
,
0001
0100
1000
0000
0001
0100
1000
0000
,
0010
0100
0001
0010
,
0220
0000
0000
0000
0330
0000
1000
0001
,
0200
0000
0000
0000
0300
0000
0001
1000
,
0020
0000
0000
0000
0030
0000
0100
0001
,
1000
0000
0100
0000
0100
0000
1000
0010
,
0100
0001
1000
0100
,
0020
0000
0000
0032
,
0000
0000
0103
0000
,
0001
0100
0010
1000
0100
0010
1000
0001
,
0200
0000
0300
0000
,
0010
0001
0010
0000
0000
1000
0000
0000
,
0010
0000
0000
0100
0000
0001
0000
0100
,
0000
0000
0010
0000
0000
1000
0000
0000
,
0001
0000
0000
0010
0000
0100
0000
1000
,
0000
0010
0100
0000
0000
0001
0000
0000
,
1000
0000
0000
0010
0000
0001
0000
0100
,
0000
0000
0101
0000
0000
0110
0000
0000
,
1010
0000
0000
2002
0000
0000
3003
0000
,
1000
0010
0100
0001
0000
0000
0000
0000
;

//--------------- dance-single - KONAMI ----------------
#NOTES:
     dance-single:
     KONAMI:
     Hard:
     11:
     0.577,0.732,0.206,0.087,0.065:
0000
0000
0000
0000
,
0000
0000
0000
0000
,
0000
0000
0000
0000
,
1000
0010
1000
0100
0010
0000
0001
1000
,
0001
0100
0010
0000
1000
0000
0100
0000
,
0001
0000
0010
0000
1000
0100
0010
0000
,
0001
0100
0010
1000
0100
0000
0010
0000
,
0001
0100
0010
1000
0001
0000
1000
0000
,
0001
0100
1000
0010
,
1000
0100
0010
0001
1000
0000
0010
0000
,
0001
1000
0010
0100
,
0001
0100
0010
0000
1000
0100
0000
0010
,
0001
0000
0100
0010
0000
0001
0000
1000
,
0010
1000
0100
0000
0010
0001
0000
1000
,
0100
0000
1000
0010
0000
0100
0000
0001
,
1000
0100
0010
0001
1000
0100
0010
0001
,
1000
0000
0010
0100
0000
0001
0000
1000
,
0001
0100
0010
1000
0001
0100
0010
1000
,
0001
0000
0000
0020
0000
0000
0030
0000
,
0100
1000
0100
0020
0000
0000
0001
0000
,
0100
0000
0031
0000
0100
0000
0010
0001
,
1000
0001
0100
0010
,
0001
0000
1000
0000
0100
0010
0001
0001
,
0100
0001
0100
0020
0000
0000
1000
0000
,
0100
0000
1030
0000
0001
0100
1000
0000
,
1000
0100
0001
0000
0001
0010
0100
0000
,
1000
0000
0001
0100
0001
0100
0001
0000
,
1000
0100
0010
0001
0100
0010
1000
0001
,
0010
0100
1000
0000
0001
0100
0010
0000
,
1000
0001
0100
0010
,
1000
0000
0100
0000
1000
0010
0100
0000
,
0001
0100
0010
1000
0100
0010
0001
1000
,
0010
0100
0001
0000
1000
0001
0100
0000
,
0010
1000
0001
0010
,
0100
0000
0001
0000
1000
0100
0010
0100
,
1100
0000
0000
0011
0000
0000
1001
0000
,
0001
0100
0010
1000
0001
0100
0010
0000
,
1010
0000
0000
0101
0000
0000
1001
0000
,
1000
0100
0010
0001
1000
0100
0010
0001
,
0100
0010
0100
0001
,
0101
0000
0000
1100
0000
0000
1010
0000
,
0011
0000
0000
0101
0000
0000
1001
0000
,
0220
0000
0000
0330
,
1000
0010
0001
1000
,
0001
0100
1000
0000
0001
1000
0100
0000
,
0010
1000
0100
0000
0020
0000
0000
0000
,
0031
0100
0010
0000
0100
0000
0001
1000
,
0100
0010
0001
1000
,
0001
0010
0100
0000
1000
0010
0100
0000
,
1000
0100
0010
0001
1000
0010
0100
0001
,
0020
0000
0000
0000
0030
0000
0001
1000
,
0010
0000
0100
0000
0001
0000
1000
0010
,
0001
0000
0100
0000
0010
0000
1000
0010
,
0100
0000
1000
0000
0001
0000
0100
1000
,
0001
0000
0010
0000
0001
0100
0010
1000
,
0100
1000
0100
0010
0100
0010
0110
0000
,
0010
0001
0010
0001
0011
0000
0000
0000
,
0001
0000
0100
0000
1000
0000
0010
0000
0001
0000
0010
0000
,
2000
0000
0000
3000
,
0001
0010
0100
0000
1000
0010
0000
0100
,
0001
0000
0010
0100
0000
1000
0000
0010
,
1000
0100
0010
0000
0001
0100
0000
1000
,
0100
0000
0010
0001
0000
0010
0000
0100
,
0001
1000
1001
0000
1000
1100
0000
0100
,
0110
0000
0010
0011
0000
0001
0000
0100
,
0010
0100
0010
1000
0010
1000
0100
0010
0100
0010
0001
0010
,
0001
1000
0100
0010
0000
0000
0001
0100
,
0010
1000
0010
0100
0000
0000
0000
0000
;

//--------------- dance-single - OrangeRight ----------------
#NOTES:
     dance-single:
     OrangeRight:
     Challenge:
     14:
     0,0,0,0,0:
0000
0000
0000
0000
,
0000
0000
0000
0000
,
0000
0000
0000
0000
0000
0000
0000
0000
1000
0001
1000
0001
1000
0000
0000
0000
,
2020
0000
3030
0202
0000
0303
2002
0000
,
3003
0220
0000
0330
0010
1000
0100
0010
,
0022
0000
0033
2200
0000
3300
2002
0000
,
3003
0220
0000
0330
0100
0010
1000
0100
,
2200
0000
3300
2002
0000
3003
0102
0000
,
1003
0100
0010
0100
1000
0010
0100
0001
,
0022
0000
0033
2020
0000
3030
1002
0000
,
0013
0000
0100
0000
1000
0000
0010
0000
0100
0000
0001
0000
1000
0001
1000
0001
,
1000
0001
0010
0001
1000
0010
1000
0001
,
0100
0001
1000
0010
0001
0010
1000
0100
,
0010
0001
1000
0010
1000
0001
0100
0001
,
1000
0000
0100
0000
1000
0000
0002
0000
0000
0000
1003
0000
0000
0000
0001
1000
,
0001
1000
0010
1000
0001
0010
0001
1000
,
0100
1000
0001
0010
1000
0010
0001
0100
,
0010
1000
0100
0010
0001
0100
0001
1000
,
1001
0000
1000
0000
0010
0000
0210
0000
0000
0000
0301
0000
1000
0010
1000
0010
,
1000
0100
0010
0002
0100
0000
0010
0000
,
1000
0000
0000
0000
0203
0000
0000
0000
1000
0000
0000
0000
0310
0000
1000
0001
,
2000
0010
0100
3020
,
0230
0000
0000
0301
0000
0000
0001
1000
0001
0100
0010
0100
,
0001
0010
0100
2000
0010
0000
0100
0000
,
0001
3020
0100
0001
,
2030
0000
0000
0000
0100
0000
0000
0000
0001
0000
0000
0000
3010
0000
1000
0001
,
2000
0000
3001
0000
0001
1000
0001
0100
,
0001
1000
0010
2000
0100
0000
0010
0000
,
0001
0000
0000
0000
3200
0000
0000
0000
0001
0000
0000
0000
0310
0000
0100
1000
,
0002
0010
0100
0023
,
0230
0000
0000
1300
0000
0000
1000
0010
0100
0001
0010
0100
,
1000
0001
0100
0002
0010
0000
0100
0000
,
1000
0023
0100
1000
,
0032
0000
0000
0000
0100
0000
0000
0000
1000
0000
0000
0000
0013
0000
0100
0010
,
0200
0000
1300
0000
1000
0010
0100
0001
,
0201
0000
0310
2010
0000
3100
1001
0000
,
1200
0000
0310
0012
0000
0103
0110
0000
,
2010
0000
3100
0120
0000
0031
1001
0000
,
0201
0000
0310
2010
0000
3100
0110
0000
,
0010
0001
0100
1000
0100
0001
0010
0100
,
2100
0000
3001
0102
0000
1003
1001
0000
,
0012
0000
0103
2010
0000
3100
0110
0000
,
2002
0000
0000
3003
,
2010
0001
0100
3010
,
0010
0100
0001
1000
0000
0000
1000
0001
0010
0100
1000
0010
,
1000
0001
1000
0100
0010
0100
1000
0010
,
0100
0000
0001
0000
0100
0000
0010
0000
1000
0000
0010
0000
0100
0000
0001
1000
,
0002
0010
1000
0100
,
0013
0100
1000
0001
0000
0000
0100
0010
1000
0001
0000
0000
,
1000
0010
1000
0001
0010
0100
1000
0100
1000
0001
0100
0010
,
2000
0000
0000
0001
0000
0000
3001
0000
0000
1000
0001
1000
,
0020
0000
0000
0100
0000
0000
1000
0000
0000
0130
0010
1000
,
0200
0000
0000
0010
0000
0000
1000
0000
0000
0310
0001
0100
,
0020
0000
0000
0001
0000
0000
1000
0000
0000
0130
0001
0010
,
0200
0000
0000
1000
0000
0000
0310
0001
1000
0001
0100
0010
,
2000
0000
3010
0100
0001
0010
0012
0000
,
1003
0010
0100
0001
2002
0000
3003
0000
,
1001
0000
0101
0000
0011
0000
1010
0000
1100
0000
0110
0000
,
1002
0000
0000
0100
0000
0000
1003
0001
0010
0001
1000
0010
,
1000
0001
0100
0001
1000
0100
1000
0001
,
0010
0001
1000
0010
0001
0020
0000
1030
,
0001
1000
0010
1000
0001
0010
0001
1000
,
0100
1000
0010
0110
0000
1001
0000
0000
,
0001
0100
0101
1000
0100
1100
0001
0010
,
0011
1000
0010
1010
0001
0101
0000
1100
,
1000
0100
0001
0100
1000
0010
0100
1000
0100
0001
0010
0100
,
1000
0000
0010
0000
0100
0000
2002
0000
0000
0000
3003
0000
0001
1000
0001
1000
,
0001
0100
0010
1010
0000
0000
0000
0000
;

//--------------- dance-double - KONAMI ----------------
#NOTES:
     dance-double:
     KONAMI:
     Easy:
     4:
     0.192,0.291,0.065,0,0:
00000000
00000000
00000000
00000000
,
00000000
00000000
00000000
00000000
,
00000000
00000000
00000000
00000000
,
00010000
00000000
01000000
00000000
,
00100000
00000000
00010000
00000000
,
00001000
00000000
00000100
00000000
,
00000010
00000000
00001000
00000000
,
00000010
00000000
00001000
00000000
,
00010000
00000000
01000000
00000000
,
00100000
00000000
01000000
00000000
,
00010000
00000000
00001000
00000000
,
00000000
00010000
00000000
00100000
,
00000000
01000000
00000000
00010000
,
00000000
00001000
00000000
00000100
,
00000000
00000001
00000000
00000000
,
00000110
00000000
00000000
00000100
,
00000000
00001000
00000000
00010000
,
00000000
01000000
00000000
10000000
,
00000000
00100000
00000000
00010000
,
00001000
00000000
00001000
00000000
,
00000010
00000000
00000010
00000000
,
00000100
00000000
00000100
00000000
,
00001000
00000000
00001000
00000000
,
00010000
00000000
00010000
00000000
,
01000000
00000000
01000000
00000000
,
00100000
00000000
00100000
00000000
,
00001000
00000000
00001000
00000000
,
00001000
00000000
00000010
00000000
,
00000100
00000000
00000001
00000000
,
00000010
00000000
00001000
00000000
,
00001000
00000000
00001000
00000000
,
00010000
00000000
00100000
00000000
,
01000000
00000000
10000000
00000000
,
00100000
00000000
00010000
00000000
,
00010000
00000000
00010000
00010000
,
00001000
00000000
00000000
00000100
,
00000000
00000000
00000000
00000000
,
00000010
00000000
00000000
00001000
,
00000000
00000000
00000000
00001000
,
00010000
00000000
00000000
00000000
,
00010000
00000000
00000000
01000000
,
00100000
00000000
00000000
00010000
,
00010000
00000000
00000000
00000000
,
00000000
00010000
00000000
00001000
,
00000000
00000100
00000000
00000010
,
00000000
00000100
00000000
00000010
,
00000000
00000100
00000000
00000010
,
00000000
00001000
00000000
00010000
,
00000000
00001000
00000000
00010000
,
00010000
00000000
01000000
00000000
,
10000000
00000000
00100000
00000000
,
00010000
00000000
00001000
00000000
,
00000100
00000000
00000010
00000000
,
00000001
00000000
00000100
00000000
,
00000001
00000000
00000010
00000000
,
00001000
00000000
00010000
00000000
,
00100000
00000000
10000000
00000000
,
10010000
00000000
01100000
00000000
,
10010000
00000000
00000000
00000000
,
01000000
00000000
00000000
00000000
,
10000000
00000000
00000000
00000000
,
00100000
00000000
00000000
00000000
,
01000000
00000000
00000000
00000000
,
00000000
00000000
00100000
00000000
00000000
00010000
00000000
00000000
,
00001000
00000000
00000000
00010000
00000000
00000000
00000000
00000000
,
00000000
00000000
00001000
00000000
00000000
00010000
00000000
00000000
,
00011000
00000000
00000000
00000000
,
00011000
00000000
00000000
00000000
;

//--------------- dance-double - KONAMI ----------------
#NOTES:
     dance-double:
     KONAMI:
     Medium:
     8:
     0.371,0.439,0.272,0.25,0:
00000000
00000000
00000000
00000000
,
00000000
00000000
00000000
00000000
,
00000000
00000000
00000000
00000000
,
00001000
00000000
00000000
00000010
00000000
00000000
00000100
00000000
,
00000000
00000002
00000000
00000000
00000000
00000000
00000003
00000000
,
00000010
00000000
00000000
00000100
00000000
00000000
00010000
00000000
,
00000000
00002000
00000000
00000000
00000000
00003000
00000000
00000000
,
01000000
00000000
00000000
00100000
00000000
00000000
02020000
00000000
,
00000000
00000000
00000000
00000000
00000000
03030000
00000000
00000000
,
01000000
00000000
00000000
00010000
00000000
00000000
00022000
00000000
,
00000000
00000000
00000000
00033000
,
00000000
00000000
00000010
00000000
00000000
00000010
00000000
00000000
,
00001000
00000000
00000000
00000010
00000000
00000001
00000000
00001000
,
00000000
00000000
00000010
00000000
00000000
00001000
00000000
00000000
,
00000100
00000000
00000000
00010000
00000000
00001000
00000000
00100000
,
00000000
00000000
00010000
00000000
00000000
01000000
00000000
00000000
,
00100000
00000000
00000000
10000000
00000000
01000000
00000000
00100000
,
00000000
00000000
01000000
00000000
00000000
00010000
00000000
00000000
,
00001000
00000000
00000000
00011000
00000000
00000000
00000000
00000000
,
00001000
00001000
00010000
00010000
,
00000010
00000010
00001000
00001000
,
00000001
00000001
00001000
00001000
,
00000100
00000000
00000100
00010000
00000000
00001000
00010000
00000000
,
00001000
00001000
01000000
01000000
,
00010000
00010000
10000000
10000000
,
01000000
01000000
00100000
00100000
,
00001000
00000000
00001000
00010000
00000000
00010000
00000010
00000000
,
00001000
00000001
00000100
00001000
,
00000100
00000100
00001000
00001100
,
00010000
00001000
01000000
00010000
,
10000000
10000000
00100000
10100000
,
00010000
00100000
00001000
00010000
,
00000010
00001010
00001000
00001100
,
00001000
00000010
00010000
00001000
,
00100000
00110000
00010000
01000000
,
01010000
00000000
00000000
11000000
00000000
00000000
00200000
00000000
,
10000000
00000000
00000000
01000000
00000000
00000000
10000000
00000000
,
01300000
00000000
00000000
00001000
00000000
00000000
00020000
00000000
,
00001000
00000000
00000000
00000100
00000000
00000000
00030010
00000000
,
00002000
00000000
00000000
00000100
00000000
00000000
00000010
00000000
,
00003001
00000000
00000000
00000010
00000000
00000000
00000001
00000000
,
00000011
00000000
00000000
00000100
00000000
00000000
00000010
00000000
,
00001010
00000000
00000000
00000000
,
00020000
00000000
00000000
00030000
,
00001000
00010000
01000000
00010000
,
00001000
00000010
00001000
00010000
,
00100000
00010000
00001000
00000100
,
00002000
00010000
00100000
00013000
,
00001000
00010000
00000010
00001000
,
00000100
00001000
00000001
00000010
,
00000002
00000000
00000000
00001003
,
00000020
00000000
00000000
00010030
,
00022000
00000000
00033000
00100000
,
00220000
00000000
00330000
10000000
,
20200000
30300000
01000000
00010000
,
02000000
00000000
00000000
03020000
,
00000000
00000000
00000000
00030000
00100000
00000000
00000000
00000000
,
00011000
00000000
00000110
00000000
,
00000022
00000000
00000000
00000000
,
00000033
00000000
00001000
00000000
00000000
00000100
00000000
00000000
,
00010000
00000000
00000000
00000100
00000000
00000000
00001000
00000000
,
00000010
00000000
00001000
00000000
00000000
00000100
00000000
00000000
,
00010000
00000000
00000000
00001000
00000000
00010000
00000000
00000000
,
00000100
00000000
00000110
00000000
00000000
00001000
00000000
00000000
,
00011000
00000000
00000000
00100000
00000000
00010000
00000000
01100000
,
00000000
00000000
10010000
00000000
00000000
00110000
00000000
00000000
,
00011000
00000000
00000000
00000000
,
00001000
00000100
00001000
00001100
00000000
00000000
00000000
00000000
;

//--------------- dance-double - KONAMI ----------------
#NOTES:
     dance-double:
     KONAMI:
     Hard:
     12:
     0.661,0.768,0.511,0.293,0.065:
00000000
00000000
00000000
00000000
,
00000000
00000000
00000000
00000000
,
00000000
00000000
00000000
00000000
,
00010000
00000000
00000010
00001000
00000001
00000000
00000010
00000000
,
00000001
00001000
00000100
00000000
00001100
00000000
00010100
00000000
,
00001000
00000000
00100000
00010000
01000000
00000000
10000000
00000000
,
01000000
00010000
00100000
00000000
00101000
00000000
00011000
00000000
,
00010100
00000000
00000010
00001000
00000100
00000000
00000001
00000000
,
00000100
00001000
00000010
00000000
00001010
00000000
00001100
00000000
,
00000001
00000000
00000100
00001000
00010000
00000000
01000000
00000000
,
10000000
01000000
00100000
00000000
00110000
00000000
01010000
00000000
,
10000000
01000000
01000000
10000000
00010000
00010000
10000000
00100000
,
00100000
10000000
00010000
00010000
00100000
00001000
00010000
00000010
,
00001000
00000100
00000100
00001000
00000001
00000001
00001000
00000010
,
00000010
00000100
00000001
00000020
00000000
00001000
00000000
00000000
,
00000031
00000100
00000100
00000001
00001000
00001000
00000001
00000010
,
00000010
00000001
00001000
00001000
00000010
00010000
00001000
00100000
,
00010000
01000000
01000000
00010000
10000000
10000000
00010000
00100000
,
11000000
00000000
00000000
01010000
00000000
00000000
10010000
00000000
,
10000000
01000000
00100000
00020000
10000000
00000000
00100000
00000000
,
10000000
01030000
01100000
01010000
,
00100000
00010000
01000000
00010000
00100000
00000000
00011000
00000000
,
00000100
00001000
00000010
00001000
00000100
00000000
00000011
00000000
,
00000001
00000100
00000010
00002000
00000001
00000000
00000010
00000000
,
00000001
00003100
00001100
00010100
,
00001000
00010000
00000010
00010000
00001000
00000000
00011000
00000000
,
00010000
00001000
00100000
00000000
00010000
10000000
01000000
00000000
,
00010000
01000000
10000000
00200000
01000000
00000000
10000000
00000000
,
01000000
00310000
00110000
00011000
,
00001000
00000100
00000010
00000100
00001000
00000000
00011000
00000000
,
00010000
00100000
01000000
00100000
00010000
00000000
00011000
00000000
,
00001000
00000100
00000001
00000020
00000100
00000000
00000001
00000000
,
00000100
00001030
00001010
00011000
,
00100000
00001000
00010000
00000000
00000010
00010000
00001000
00000000
,
00100000
00010000
01000000
00001000
00010000
00000010
00001000
00000100
,
00020000
00000000
00000000
02030000
00000000
00000000
23000000
00000000
,
30100000
01000000
00010000
00000000
00100000
00010000
01000000
00000000
,
20000000
00000000
00000000
32000000
00000000
00000000
03020000
00000000
,
00130000
00001000
00010000
00000000
00000010
00001000
00001100
00000000
,
00000102
00001000
00000100
00001003
,
00001001
00000000
00000000
00000110
00000000
00000000
00001100
00000000
,
00011000
01001000
00011000
00010100
,
00022000
00000000
00000000
00033000
,
00100000
00010000
01000000
00100000
,
10000000
01000000
00010000
00000000
10000000
00100000
00010000
00000000
,
01010000
00000000
00000000
00022000
00000000
00000000
00033000
00000000
,
00001100
00000000
00000000
00022000
00000000
00000000
00033000
00000000
,
00000100
00001000
00000010
00000100
,
00000001
00000010
00001000
00000000
00000010
00000001
00000100
00000000
,
00001000
00000100
00000001
00000010
00000100
00001000
00000001
00000100
,
00002000
00000000
00000000
00000000
00003000
00000000
00010000
01000000
,
20000000
00000000
00100000
00000000
30100000
00000000
10000000
01000000
,
00020000
00000000
00001000
00000000
00031000
00000000
00001000
00000010
,
00000002
00000000
00000100
00000000
00000103
00000000
00000001
00000010
,
00002000
00000000
00010000
00000000
00013000
01000000
00100000
00010000
,
01000000
01010000
01010000
10100000
,
11000000
11000000
00110000
10010000
,
10000000
00000000
01000000
00000000
00010000
00000000
00001000
00000000
00000010
00000000
00000001
00000000
,
00002000
00000000
00000000
00003000
,
00000100
00001000
00001000
00000010
00010000
00010000
00001000
00100000
,
00100000
00010000
10000000
10000000
00100000
00010000
00001000
00000010
,
00000001
00000100
00000100
00000001
00001000
00001000
00000001
00000010
,
00000010
00000100
00001000
00000020
00000000
00000230
00000000
00000300
,
00001000
00100000
00100000
00010000
01000000
01000000
00001000
00010000
,
00010000
00000010
00000100
00000100
00000001
00001000
00000001
00000010
,
00000001
00001000
00000001
00001000
00000001
00001000
00000010
00000100
00000010
00000100
00000010
00000100
,
00001000
00000100
00000001
00000020
00000000
00000000
00000030
00000000
,
00001000
00010000
00001000
00011000
00000000
00000000
00000000
00000000
;

//--------------- dance-double - OrangeRight ----------------
#NOTES:
     dance-double:
     OrangeRight:
     Challenge:
     14:
     0,0,0,0,0:
00000000
00000000
00000000
00000000
,
00000000
00000000
00000000
00000000
,
00000000
00000000
00000000
00000000
00000000
00000000
00000000
00000000
00010000
00001000
00010000
00001000
00010000
00000000
00000000
00000000
,
00001000
00100000
00010000
01000000
00100000
00000000
10000000
00100000
,
01000000
00010000
00100000
00000000
00001000
00010000
00001000
00000000
,
00010000
00000100
00001000
00000010
00000100
00000000
00000001
00000010
,
00000100
00001000
00000010
00000000
00000100
00000001
00000100
00000000
,
00000202
00000000
00000303
00002020
00000000
00003030
00001002
00000000
,
00001003
00000100
00010000
00001000
01000000
00010000
10000000
00000000
,
22000000
00000000
33000000
20020000
00000000
30030000
00210000
00000000
,
01300000
00000000
10000000
00000000
00100000
00000000
01000000
00000000
00010000
00000000
10000000
00000000
00010000
10000000
00010000
10000000
,
00010000
00010000
00100000
00001000
00001000
00010000
00000100
00000100
,
00001000
00000010
00000010
00000100
00000001
00001000
00000001
00000010
,
00000100
00000100
00001000
00000010
00000010
00000100
00000001
00000001
,
00001000
00000100
00010000
00002000
00000000
00023000
00000000
00030100
,
00001000
00001000
00000010
00010000
00010000
00001000
01000000
01000000
,
00010000
00100000
00100000
01000000
10000000
00010000
10000000
00100000
,
01000000
01000000
00010000
00100000
00100000
01000000
10000000
10000000
,
00010000
00000000
01000000
00000000
00001000
00000000
00022000
00000000
00000000
00000000
00033000
00000000
00010000
00001000
00010000
00001000
,
00010000
00001000
00100000
00020000
01000000
00000000
00100000
00000000
,
10000000
00000000
02030000
00000000
10000000
00000000
03010000
01000000
,
00200000
10000000
00010000
20300000
,
31000000
00000000
10010000
00000000
00010000
01000000
00010000
00100000
,
00001000
00010000
00000010
00002000
00000100
00000000
00000010
00000000
,
00000001
00000000
00003020
00000000
00000001
00000000
00001030
00000010
,
00000200
00000000
00000000
00000000
00000001
00000000
00000000
00000000
00001000
00000000
00000000
00000000
00000301
00000000
00001000
00000001
,
00001000
00000000
00000010
00000100
00000001
00001000
00000100
00000010
,
00000001
00000100
00000010
00002000
00000100
00000000
00000010
00000000
,
00000001
00000000
00000000
00000000
00003200
00000000
00000000
00000000
00010000
00000000
00000000
00000000
00001300
00000000
00010000
00001000
,
00020000
00001000
00000100
00032000
,
00103000
00000000
00110000
00000000
00100000
00010000
01000000
00100000
,
10000000
01000000
00100000
00020000
00100000
00000000
01000000
00000000
,
10000000
00000000
00000000
00000000
00230000
00000000
00000000
00000000
00001000
00000000
00000000
00000000
00310000
00000000
00001000
00010000
,
00002000
00010000
00100000
00023000
,
00030100
00001000
00000010
00000001
00000010
00001000
00000100
00000010
,
00000022
00000000
00000033
00000220
00000000
00000330
00001100
00000000
,
00000100
00010000
00001000
01000000
00001000
00010000
00000100
00000000
,
00020200
00000000
00030300
00022000
00000000
00033000
01001000
00000000
,
01000000
00010000
00100000
01000000
10000000
00100000
10100000
00000000
,
21000000
00100000
00010000
31000000
,
21000000
00000000
30010000
02010000
00000000
03001000
00011000
00000000
,
00010200
00000000
00001300
00001002
00000000
00000103
00000110
00000000
,
00002002
00000000
00000000
00003003
,
00001002
00000010
00000100
00001003
,
00001000
00000100
00001000
00000100
00000000
00000000
00010000
00001000
00010000
00001000
00000000
00000000
,
00100000
00010000
01000000
00001000
00010000
00000100
00001000
00000000
,
00000010
00000000
00001000
00000000
00000100
00000000
00010000
00000000
00001000
00000000
01000000
00000000
00010000
00000000
10000000
00010000
,
20000000
01000000
00100000
30010000
,
00010000
01000000
00010000
01000000
00000000
00000000
00001000
00010000
00001000
00010000
00000000
00000000
,
00000100
00001000
00000100
00000010
00000100
00000010
00000001
00000010
00000001
00000100
00000010
00001000
,
00000002
00000000
00000000
00000010
00000000
00000000
00000100
00000000
00000000
00001003
00000001
00001000
,
00000200
00000000
00000000
00010000
00000000
00000000
00010300
00000000
00000000
00010000
00000100
00010000
,
00002000
00000000
00000000
00100000
00000000
00000000
00103000
00000000
00000000
00100000
00001000
00100000
,
00020000
00000000
00000000
10000000
00000000
00000000
10030000
00000000
00000000
10000000
00010000
01000000
,
00200000
00000000
00000000
10000000
00000000
00000000
10300000
01000000
00100000
00010000
00000000
00000000
,
20000000
00000000
31000000
00100000
00010000
01000000
00002000
00000000
,
00013000
00001000
00100000
00010000
02000000
00000000
03010000
00000000
,
01010000
00000000
01001000
00000000
00011000
00000000
00010100
00000000
00001100
00000000
00001001
00000000
,
00000220
00000000
00000000
00000000
00000330
00000000
00001000
00000010
00001000
00000001
00000010
00000001
,
00001000
00001000
00000010
00000100
00000100
00000001
00000010
00000010
,
00000100
00001000
00001000
00000100
00010000
00002000
00000000
00013000
,
00001000
00001000
00100000
00010000
00010000
01000000
00100000
00100000
,
10000000
00010000
00010000
10010000
00000000
01100000
00000000
00000000
,
10000000
00100000
10100000
00010000
00100000
00110000
00001000
00010000
,
00011000
00000010
00001000
00001010
00000010
00000210
00000000
00000301
,
00001000
00000001
00001000
00000100
00010000
00000100
00010000
00001000
00100000
00010000
01000000
00100000
,
10000000
00000000
00010000
00000000
10000000
00000000
20020000
00000000
00000000
00000000
30030000
00000000
10000000
00010000
10000000
00010000
,
10000000
01000000
00100000
00110000
00000000
00000000
00000000
00000000
;
