#TITLE:Everybody (NuFoundation Remix) ;
#SUBTITLE:;
#ARTIST:Carl Q. feat. Fraz ;
#TITLETRANSLIT:;
#SUBTITLETRANSLIT:;
#ARTISTTRANSLIT:;
#GENRE:;
#CREDIT:;
#MUSIC:Everybody (NuFoundation Remix).mp3;
#BANNER:Everybody (NuFoundation Remix) banner.png;
#BACKGROUND:;
#CDTITLE:;
#SAMPLESTART:46.525;
#SAMPLELENGTH:15.484;
#SELECTABLE:YES;
#OFFSET:-0.073;
#BPMS:0.000=124.000;
#STOPS:;
#BGCHANGES:;
#FGCHANGES:;

//--------------- dance-single - SomethingRandom ----------------
#NOTES:
     dance-single:
     SomethingRandom:
     Beginner:
     2:
     0,0,0,0,0:
0000
0000
0000
0000
,
0000
0000
0000
0000
,
0000
0000
0000
0000
,
0000
0000
0000
0000
,
0000
1000
0000
0000
,
0000
0001
0000
0000
,
0000
0100
0000
0100
,
0000
0010
0000
0010
,
1000
0000
0000
0000
,
0000
0001
0000
0000
,
0000
0000
0000
0000
,
1000
0000
0000
0000
,
0100
0000
0000
0000
,
0000
0010
0000
0000
,
0001
0000
0000
0000
,
0100
0000
0000
0000
,
0010
0000
0000
0000
,
1000
0000
1000
0000
,
0100
0000
0100
0000
,
1000
0000
1000
0000
,
0001
0000
0000
0000
,
0100
0000
0000
0000
,
0010
0000
0010
0000
,
0100
0000
0100
0000
,
0000
0010
0000
0000
,
0000
1000
0000
0000
,
0000
0100
0000
0000
,
0000
0000
0010
0000
,
0000
0001
0000
0000
,
0000
0010
0000
0000
,
0000
0100
0000
0000
,
0000
0000
1000
0000
,
0000
0010
0000
0000
,
0000
0100
0000
0100
,
0000
0001
0000
0001
,
0000
0000
0100
0000
,
0000
0010
0000
0000
,
0000
1000
0000
0000
,
0000
0100
0000
1000
,
0000
1000
0000
1000
,
0000
1000
0000
0000
,
0000
0001
0000
0000
,
0000
0100
0000
0000
,
0000
0010
0000
0000
,
0000
0100
0000
0000
,
0000
0001
0000
0000
,
0000
1000
0000
0000
,
0000
0100
0000
0000
,
1001
0000
1000
0000
,
0110
0000
0001
0000
,
0110
0000
0100
0000
,
0010
0000
0000
0000
,
1001
0000
0000
0000
;

//--------------- dance-single - SomethingRandom ----------------
#NOTES:
     dance-single:
     SomethingRandom:
     Easy:
     4:
     0,0,0,0,0:
0000
0000
0000
0000
,
0000
0000
0000
0000
,
0000
0000
0000
0000
,
0000
0000
0000
0000
,
0000
1000
1000
0000
,
0000
0010
0010
0000
,
0000
0100
0200
0000
,
0000
0010
0310
1001
,
1000
0000
0001
0000
,
1000
0000
0100
0000
,
1000
0000
0100
0000
,
0010
0000
0001
0000
,
0100
0000
0010
0000
,
1000
0000
0100
0000
,
1000
0000
0010
0000
,
0100
0000
0010
0000
,
1000
0000
0001
0000
,
0100
0000
0010
0000
,
1000
0000
0100
0000
,
1000
0000
0010
0000
,
1000
0000
0100
0000
,
0010
0000
0001
0000
,
0200
0000
0010
0320
,
0000
0000
0000
0000
0000
0000
0000
0000
0000
0000
0000
0000
0000
0000
0000
0000
0000
0000
0000
0000
0000
0000
0000
0000
0000
0000
0000
0000
0000
0000
0000
0000
0000
0000
0000
0000
0000
0000
0000
0000
0000
0000
0000
0000
0000
0000
0000
0000
0000
0000
0000
0000
0000
0000
0000
0000
0000
0000
0000
0000
0000
0000
0000
0000
0000
0000
0000
0000
0000
0000
0000
0000
0000
0000
0000
0000
0000
0000
0000
0000
0000
0000
0000
0000
0000
0000
0000
0000
0000
0000
0000
0000
0000
0000
0000
0000
0100
0000
0000
0000
0000
0000
0000
0000
0000
0000
0000
0000
0000
0000
0000
0000
0000
0000
0000
0000
0000
0000
0000
0000
0000
0000
0000
0000
0000
0000
0000
0000
0000
0000
0000
0000
0000
0000
0000
0000
0000
0000
0000
0000
0000
0000
0000
0000
0100
0030
0000
0000
0000
0000
0000
0000
0000
0000
0000
0000
0000
0000
0000
0000
0000
0000
0000
0000
0000
0000
0000
0000
0000
0000
0000
0000
0000
0000
0000
0000
0000
0000
0000
0000
0000
0000
0000
0000
0000
0000
0000
0000
0000
0000
0000
0000
,
0110
0010
0010
0000
,
0000
1000
1000
0000
,
0000
0100
0100
0000
,
0010
0000
0010
0000
,
0010
0001
0001
0000
,
0000
0100
0100
0002
,
0000
0000
0000
0000
0000
0000
0000
0000
0000
0000
0000
0000
0000
0000
0000
0000
0000
0000
0000
0000
0000
0000
0000
0003
0000
0000
0000
0000
0000
0000
0000
0000
0000
0000
0000
0000
0000
0000
0000
0000
0000
0000
0000
0000
0000
0000
0000
0000
,
1000
0000
0001
0000
,
1000
0000
0100
0000
,
1000
0000
0100
0000
,
0010
0000
0100
0000
,
1000
0000
0100
0000
,
1000
0000
0100
0000
,
0010
0000
0001
0000
,
0100
0000
0001
0000
,
2000
0000
0000
0000
0000
0000
0000
0000
0000
0000
0000
0000
0000
0000
0000
0000
0000
0000
0000
0000
0000
0000
0000
0000
0000
0000
0000
0000
0000
0000
0000
0000
0000
0000
0000
0000
0000
0000
0000
0000
0000
0000
0000
0000
0000
0000
0000
0000
0001
0000
0000
0000
0000
0000
0000
0000
0000
0000
0000
0000
0000
0000
0000
0000
0000
0000
0000
0000
0000
0000
0000
0000
0000
0000
0000
0000
0000
0000
0000
0000
0000
0000
0000
0000
0000
0000
0000
0000
0000
0000
0000
0000
0000
0000
0000
0000
0001
3000
0000
0000
0000
0000
0000
0000
0000
0000
0000
0000
0000
0000
0000
0000
0000
0000
0000
0000
0000
0000
0000
0000
0000
0000
0000
0000
0000
0000
0000
0000
0000
0000
0000
0000
0000
0000
0000
0000
0000
0000
0000
0000
0000
0000
0000
0000
0000
0000
0000
0000
0000
0000
0000
0000
0000
0000
0000
0000
0000
0000
0000
0000
0000
0000
0000
0000
0000
0000
0000
0000
0000
0000
0000
0000
0000
0000
0000
0000
0000
0000
0000
0000
0000
0000
0000
0000
0000
0000
0000
0000
0000
0000
0000
0000
,
1001
0010
0100
0000
,
0000
0010
0001
0000
,
0000
0100
0010
0000
,
1000
0000
0001
0000
,
1000
0100
0100
0000
,
0000
1000
0010
0010
,
1000
0000
0000
0001
,
1000
0000
0000
1000
,
0002
1000
1003
0000
,
0020
0100
0130
0000
,
2000
0001
3001
0000
,
0002
0000
0000
0000
,
1003
0000
0000
0000
;

//--------------- dance-single - SomethingRandom ----------------
#NOTES:
     dance-single:
     SomethingRandom:
     Medium:
     6:
     0,0,0,0,0:
0000
0000
0000
0000
,
0000
0000
0000
0000
,
0000
0000
0000
0000
,
0000
0000
0000
0000
,
0000
0000
1000
0100
0010
0000
0001
0000
,
0000
0000
0100
0010
0100
0000
0001
0000
,
0000
0000
0010
0001
1000
0000
1000
0000
,
0001
0001
0100
0110
,
0020
0000
2030
0000
,
3100
0000
1000
0001
1000
0000
0010
0000
,
0100
0002
1000
0103
,
2000
0001
3100
0010
,
0200
0000
0310
1000
,
0001
1000
0001
0000
0010
0000
0001
0000
,
0200
0010
0310
0020
,
0100
0000
0130
0000
0001
0100
0010
0000
,
0100
0010
1000
0100
,
0010
0100
1000
0000
0001
0000
0100
0000
,
0010
0100
0001
0010
,
0001
0000
1000
0000
0100
1000
0100
0000
,
1000
0001
0100
0001
,
0100
0001
0100
0000
0010
0000
1000
0000
,
0020
1000
0001
1000
,
0100
1000
0130
0110
,
0110
0000
0010
1000
0100
0000
1000
0000
,
0001
0000
0010
0001
0100
0000
0001
0000
,
1000
0000
0100
0010
0100
0000
1000
0000
,
0020
2030
3002
2003
,
3100
0000
0010
0001
0010
0000
0001
0000
,
0100
0000
0010
1000
0010
0000
1000
0000
,
0200
0320
0032
2003
,
3001
0000
1000
0000
0010
1000
0010
0000
,
1000
0100
0010
0100
,
0010
0001
0100
0000
0010
0000
1000
0000
,
0100
1000
0010
0100
,
0001
0000
0010
0001
0010
0000
0001
0000
,
0100
0000
0010
0000
0100
0000
0001
1000
,
0010
1000
0100
0010
,
0100
1000
0001
0000
1000
0000
0100
0000
,
0020
1000
0001
1000
,
0001
0030
0000
0000
0000
0000
0000
0000
0000
0000
0000
0000
0000
0000
0000
0000
1000
0000
0000
0000
0000
0000
0000
0000
0001
0000
0000
0000
0000
0000
0000
0000
1000
0000
0000
0000
0000
0000
0000
0000
0000
0000
0000
0000
0000
0000
0000
0000
1100
0000
0000
0000
0000
0000
0000
0000
0000
0000
0000
0000
0000
0000
0000
0000
,
0001
0000
1000
0010
0100
0000
0110
0000
,
0010
0000
0100
0010
1000
0000
1100
0000
,
0020
2030
3200
2300
,
3010
0000
0100
0010
0100
0000
0101
0000
,
0001
0000
0100
0010
1000
0000
1010
0000
,
0200
2300
3200
2300
,
3002
0203
0320
2030
,
3100
1100
0010
0110
,
1000
1001
0001
0101
,
0100
0110
0010
1010
,
2000
0001
0001
3001
,
1001
0000
0000
0000
;

//--------------- dance-single - SomethingRandom ----------------
#NOTES:
     dance-single:
     SomethingRandom:
     Hard:
     10:
     0,0,0,0,0:
0000
0000
0000
0000
,
0000
0000
0000
0000
,
0000
0000
0000
0000
,
0000
0000
0000
0000
,
0000
0000
1000
0100
0001
0100
1000
0000
,
0010
0000
1000
0100
0010
0001
0100
0001
,
0101
0000
0100
0010
1000
0100
1000
0000
,
0020
0000
0000
0000
1000
0000
0000
0000
0001
0000
0000
0000
0130
0000
0000
0001
,
1000
0000
0001
0100
0001
0000
0010
0001
,
0100
0010
1000
0100
1000
0100
0010
0100
,
0010
0000
0001
0010
0001
0000
0100
0010
,
1000
0000
0001
0100
0001
0000
0100
0010
,
1000
0000
1010
0000
0100
0010
0100
0000
,
0010
0001
1000
0010
1000
0010
0100
0001
,
0010
0000
0001
0100
0010
0000
0100
0001
,
1000
0000
0100
0010
0001
0000
1000
0010
,
0100
0000
0001
1000
0100
0000
1000
0100
,
0000
0110
0000
1001
0000
0011
0000
1100
,
0000
1001
0000
1010
0000
0101
0000
1000
,
0010
0100
0001
0000
0010
0100
1000
0000
,
0010
1000
0010
0000
0100
0010
0100
0000
,
0001
0010
0100
0000
0010
0001
0100
0000
,
0020
1000
0001
0100
,
0001
0130
0110
0110
,
1000
0000
1001
0100
0001
0100
1000
0000
,
0110
0000
0010
0100
1000
0100
0001
0000
,
0101
0000
0100
0010
0001
0010
1000
0200
,
0000
0320
0000
0032
0000
2000
0000
3003
,
0110
0000
1001
0100
1000
0100
0001
0000
,
0101
0000
0010
0100
0001
0100
1000
0010
,
1000
0100
0001
0000
0001
0100
1000
0000
,
0001
0010
1000
0000
1000
0010
0001
1000
,
0001
0000
1000
0001
1000
0000
0010
1000
,
0000
1100
0000
1010
0000
1001
0000
0101
,
0000
0011
0000
0110
0000
1000
0100
0010
,
0001
0000
0100
0010
1000
0000
0100
0001
,
0100
0000
1000
0010
0001
0000
0010
1000
,
0001
0000
0100
1000
0100
0000
0001
0010
,
1000
0000
0010
0001
1000
0000
0001
0010
,
0200
0001
1000
0010
,
1300
0000
1001
0100
1000
0100
0001
0000
,
0011
0000
0100
0010
0001
0010
1000
0000
,
1010
0000
1001
0010
0001
0010
1000
0002
,
0000
0023
0000
0230
0000
2300
0000
3001
,
1000
0000
1001
0010
1000
0010
0001
0000
,
0110
0000
0010
0100
0001
0100
1000
0010
,
0100
0000
0001
0100
1000
0000
1000
0100
,
0001
0000
1000
0010
0001
0000
0001
0010
,
1000
0000
1000
0100
0002
0000
0013
1000
,
0020
0000
0031
0100
1000
0100
0001
0100
,
1000
0000
0001
0100
1000
0000
1000
0010
,
0002
0000
0000
0000
1000
0000
0000
0000
0100
0000
0000
0000
1003
0000
0000
0010
,
0200
0000
0000
0000
,
0300
0000
0000
0000
;
