#TITLE:Encore!;
#SUBTITLE:;
#ARTIST:oo39.com;
#TITLETRANSLIT:;
#SUBTITLETRANSLIT:;
#ARTISTTRANSLIT:;
#GENRE:;
#CREDIT:;
#MUSIC:28. Encore!.mp3;
#BANNER:;
#BACKGROUND:;
#CDTITLE:;
#SAMPLESTART:9.685;
#SAMPLELENGTH:15.000;
#SELECTABLE:YES;
#OFFSET:-0.085;
#BPMS:0.000=125.000;
#STOPS:;
#BGCHANGES:;
#FGCHANGES:;

//--------------- dance-single - eataninja ----------------
#NOTES:
     dance-single:
     eataninja:
     Beginner:
     2:
     0,0,0,0,0:
0000
0000
0000
0000
,
0000
0000
0000
0000
,
0000
0000
0000
0000
,
0000
0000
0000
0000
,
0000
0000
0000
0000
,
1000
0000
0010
0000
,
0100
0000
0000
0000
,
0100
0000
0001
0000
,
0010
0000
0000
0000
,
0010
0010
0010
0000
,
0100
0000
0000
0000
,
1000
0000
0001
0000
,
0100
0000
0000
0000
,
0010
0000
0000
0000
,
0100
0100
0000
0000
,
0001
0000
0000
0000
,
1000
1000
0000
0000
,
0100
0000
0000
0000
,
0010
0010
0000
0000
,
0001
0000
0000
0000
,
2000
0000
3000
0000
,
0010
0000
0100
0000
,
0001
0001
0000
0000
,
1000
0000
0001
0000
,
0010
0010
0000
0000
,
0100
0000
0010
0000
,
0001
0001
0000
0000
,
1000
0000
0000
0000
,
0002
0000
0003
0000
,
0100
0000
1000
0000
,
0100
0000
0000
0000
,
0001
0000
0001
0000
,
1000
0000
0000
0000
,
0100
0000
0001
0000
,
0100
0000
0000
0000
,
0200
0000
0300
0000
,
0000
0000
1001
0000
,
1000
0000
0010
0000
,
0100
0100
0000
0000
,
0001
0000
1000
0000
,
0001
0001
0000
0000
,
0010
0000
0100
0000
,
1000
1000
0000
0000
,
0001
0000
1000
0000
,
0010
0000
0000
0000
,
0100
0100
0100
0000
,
0001
0000
0000
0000
,
1000
1000
1000
0000
,
0001
0000
0000
0000
,
0010
0010
0010
0000
,
0100
0000
0000
0000
,
1000
1000
1000
0000
,
0001
0000
0000
0000
,
1000
0000
0010
0000
,
1000
0000
0000
0000
,
0001
0000
0010
0000
,
1000
0000
0000
0000
,
0010
0000
0100
0000
,
0010
0000
0000
0000
,
0020
0000
0030
0000
,
0000
0000
1001
0000
,
0020
0000
0000
0000
,
0000
0000
0000
0000
,
0030
0000
0000
0000
;

//--------------- dance-single - eataninja ----------------
#NOTES:
     dance-single:
     eataninja:
     Easy:
     5:
     0,0,0,0,0:
0000
0000
0000
0000
,
0000
0000
0000
0000
,
0000
0000
0000
0000
,
0000
0000
0000
0000
,
0000
0000
0000
0000
,
1000
0010
0010
0100
,
0001
0000
0000
0000
,
0001
0010
0100
1000
,
0002
0000
0003
0000
,
0100
0100
0010
0100
,
0001
0000
0000
0000
,
1000
0001
0010
0100
,
0020
0000
0030
0000
,
0001
1000
0010
0100
,
0010
0010
0000
0000
,
1000
0001
0010
0100
,
0010
0001
0000
0000
,
1000
0010
0100
0001
,
0010
0100
0000
0000
,
1000
0001
0001
0100
,
0002
0000
0003
0000
,
1000
0100
0001
0100
,
0010
0000
0110
0000
,
0001
1000
0010
0100
,
0001
0000
0001
0000
,
1000
0100
0010
0001
,
0100
0000
0110
0000
,
1000
0001
0001
1000
,
0200
0000
0300
0000
,
1100
0000
1001
0000
,
0001
0100
1000
0000
,
0100
0100
0010
0010
,
1000
0001
0010
0000
,
0011
0000
1001
0000
,
1000
0010
0001
0000
,
0020
0000
0000
0000
,
0030
0000
0110
0100
,
0001
1000
0100
0010
,
0001
0001
1000
1000
,
0010
0100
0010
1000
,
0001
0010
0001
0010
,
0100
0100
1000
0001
,
0100
0100
0010
0010
,
1000
0001
0010
0001
,
2000
0000
3000
0000
,
1000
0010
0001
0010
,
0100
0001
1000
0000
,
0001
0010
0010
0100
,
1000
0000
0010
0100
,
0001
0100
1000
0100
,
0001
1000
0100
0000
,
0010
0100
0100
0010
,
0200
0000
0300
0000
,
1000
1000
0010
0110
,
0100
0001
1000
0000
,
0001
0001
1000
1000
,
0100
0100
0010
0000
,
0001
0001
0100
0110
,
0010
1000
0001
0000
,
0020
0000
0000
0000
,
0030
0000
0110
0100
,
2000
0000
0000
0000
,
0000
0000
0000
0000
,
3000
0000
0000
0000
;

//--------------- dance-single - eataninja ----------------
#NOTES:
     dance-single:
     eataninja:
     Medium:
     8:
     0,0,0,0,0:
0000
0000
0000
0000
,
0000
0000
0000
0000
,
0000
0000
0000
0000
,
0000
0000
0000
0000
,
0000
0000
0000
0000
,
1000
0000
1100
0000
0001
1000
0010
0200
,
0000
0320
0000
0000
0030
0000
1000
0000
,
0001
0000
0100
0000
0100
0001
1000
0200
,
0000
0000
0300
0010
,
0011
0000
0011
0000
1000
0001
0100
0020
,
0000
0230
0000
0000
0300
0000
0001
0000
,
1000
0000
0010
0000
0010
1000
0001
0020
,
0000
0000
0000
0000
0100
0100
0130
0000
,
1000
0000
1002
0000
0103
0010
1000
0100
,
0000
0100
0000
0000
0010
0000
0011
0000
,
1000
0000
0010
0010
0010
0000
1000
0001
,
0000
0001
0000
0000
0010
0100
1000
0000
,
0001
0000
1002
0000
1003
0010
0001
0010
,
0000
0100
0000
0000
0001
0000
0101
0000
,
1000
0000
0001
0001
0001
0010
0100
0020
,
0000
0001
1000
0130
,
0010
0000
0011
0000
0000
1010
0000
0001
,
0000
0001
0000
0010
0000
2100
0000
3001
,
0100
0000
0010
0010
0010
0000
1000
0001
,
0000
0001
0000
0010
1000
0010
0001
0000
,
1000
0000
1010
0000
0000
0011
0000
1000
,
0000
0010
0000
1001
0000
0001
0010
0000
,
0100
0000
0010
0010
0010
0100
0010
0200
,
0000
0000
0001
0000
1000
1000
1300
0000
,
0001
0000
0100
0010
0000
0110
0000
1000
,
0001
0000
0010
0200
0000
0000
1300
0000
,
0001
0001
0001
1000
0000
1000
0000
0010
,
0100
0000
0100
0002
0000
0000
1003
0000
,
1000
0000
0010
0100
0000
0110
0000
0001
,
1000
0000
0100
0020
0000
0001
0000
0100
,
0230
0000
2300
0000
,
3002
0000
0000
0000
1003
0000
0010
0100
,
0001
0000
1100
0000
1000
0010
0100
2000
,
0000
3200
0000
0301
0000
1000
0100
0000
,
0010
0000
0011
0000
1000
0001
1000
0020
,
0000
0000
0100
0000
1000
1000
1030
0000
,
1100
0000
0101
0000
1000
0001
0010
2000
,
0000
3020
0000
0130
1000
0001
0000
0100
,
0010
0000
0110
0000
0001
1000
0100
0020
,
0000
0000
0001
0000
0100
0100
0130
0000
,
1000
0000
1010
0000
0000
0101
0000
0001
,
0000
0001
0000
2100
0000
0001
3001
0000
,
0100
0000
0010
0010
0010
1000
0001
0010
,
0000
0010
0000
0100
0001
0100
1000
0000
,
0001
0000
0101
0000
0000
1010
0000
1000
,
0000
0100
0000
0011
0000
0011
0000
1000
,
0001
0000
0100
0100
0100
0010
0100
0020
,
0000
0000
0000
0001
0000
0100
0130
0000
,
0101
0000
1000
0001
0000
0010
1000
0000
,
0020
0000
0130
2000
0000
0001
3001
0000
,
1000
1000
1000
0010
0000
0010
0000
0100
,
0001
0000
0001
2000
0000
0000
3100
0000
,
1100
0000
0001
1000
0000
1000
0000
0010
,
0100
0000
0001
1000
0000
1000
1000
0100
,
0200
0001
0010
0010
,
1000
0000
1300
0000
1001
0000
0001
0100
,
0020
0000
0000
0000
,
0000
0000
0000
0000
,
0030
0000
0000
0000
;

//--------------- dance-single - eataninja ----------------
#NOTES:
     dance-single:
     eataninja:
     Hard:
     11:
     0,0,0,0,0:
0000
0000
0000
0000
,
0000
0000
0000
0000
,
0000
0000
0000
0000
,
0000
0000
0000
0000
,
0000
0000
0000
0000
,
1000
0000
0101
0000
0001
0010
0100
0002
,
0000
0203
0000
1300
0001
0001
1000
0000
,
0001
0000
0101
0000
0100
0001
0010
2000
,
0000
0000
3010
0000
0100
0000
0000
1000
0000
1000
0000
0001
0100
0000
0000
0000
,
0101
0000
1100
0000
1000
0010
0100
2000
,
0000
3200
0000
0301
1000
1000
0001
0000
,
1000
0000
1100
0000
0100
1000
0010
0002
,
0000
0000
0013
0000
0100
0000
0000
0001
0000
0001
0000
1000
0100
0000
0010
0000
,
0001
0000
1001
0000
1000
0010
0002
0010
,
0000
0000
0013
0000
0100
0000
0000
0001
0000
0001
0000
1000
0100
0000
0000
0000
,
0010
0000
0100
0100
1000
0001
0200
1000
,
0000
0000
1300
0000
0100
0000
0000
0001
0000
0001
0000
0010
0100
0000
1000
0000
,
0001
0000
0101
0000
1000
0100
0020
0001
,
0000
0000
0130
0000
1000
0000
0000
0001
0000
0001
0000
0100
0010
0000
0000
0000
,
0100
0000
0001
0001
1000
0100
0001
0200
,
0000
0000
0010
0000
0310
0000
0000
0001
0000
0001
0000
1000
0010
0000
0100
0000
,
0001
0000
2000
0100
3100
0002
0100
0103
,
1000
0000
0001
0000
0100
0000
0010
1000
0000
1000
0000
0001
0010
0000
0000
0000
,
0001
0000
1000
1000
0010
0100
1000
0100
,
0000
0001
0010
0100
1000
0010
0100
0000
,
0001
0000
2000
0010
3010
0002
0010
0013
,
1000
0000
0001
0000
0010
0000
0100
1000
0000
1000
0000
0001
0100
0000
0000
0000
,
0001
0000
1000
1000
0100
0001
0100
2000
,
0000
0000
3010
0000
0100
0000
0001
1000
0000
1000
0000
0100
0010
0000
0001
0000
,
1000
0010
0100
0002
0000
1003
0000
0001
,
1000
0100
0001
0200
0000
0010
1300
0000
,
0001
0001
0001
0200
0000
0301
0000
1000
,
0100
0010
0100
2000
0000
0001
3100
0000
,
1000
0001
0010
0200
0000
1300
0001
1000
,
0010
0001
0010
2000
0000
0001
0000
3010
,
0010
0100
0001
2000
0000
0001
3001
0000
,
0010
0100
1000
0001
1001
0000
0110
0100
,
0001
1000
0100
0010
0001
1000
0001
0100
,
0010
0000
1000
0000
0001
0000
0010
0100
0000
0100
0000
1000
0001
0000
0000
0000
,
1000
0010
0001
0010
0100
0001
0010
0100
,
1000
0000
0001
0000
0100
0000
0010
1000
0000
1000
0000
0001
0010
0000
0000
0000
,
0100
0010
0100
0010
0001
1000
0010
0100
,
0001
0000
1000
0000
0100
0000
0010
0001
0000
0001
0000
1000
0010
0000
0000
0000
,
0100
0001
1000
1000
0100
0001
0100
1000
,
0010
0000
0100
0000
0001
0000
1000
0100
0000
0100
0000
0010
0001
0000
1000
0000
,
0010
0100
0210
0000
0310
2000
0001
3001
,
0010
0000
0100
0000
1000
0000
0001
1000
0000
1000
0000
0010
0100
0000
0001
0000
,
1000
1000
0100
0100
0010
0001
0100
2000
,
0000
0100
3100
0001
1000
0100
0010
0001
,
1000
0010
0120
0000
1030
0002
0010
0013
,
0100
0000
1000
0000
0001
0000
1000
0010
0000
0010
0000
0100
0001
0000
1000
0000
,
0100
0100
0010
0010
0001
1000
0010
0100
,
0010
0000
1000
0000
0001
0000
0010
0100
0000
0100
0000
1000
0001
0000
0001
0000
,
1000
0010
0100
0102
0000
1003
1001
0000
,
1000
0100
0001
0200
0000
0010
0310
0000
,
0001
0001
0001
1000
1000
1000
0010
0100
,
0001
1000
0100
1000
0010
0100
0101
0000
,
1000
0100
0010
0012
0000
1003
0010
0100
,
0001
0000
1000
0000
0100
0000
0010
0001
0000
0001
0000
1000
0010
0000
0100
0000
,
0010
0000
1000
0000
0001
0000
1000
0000
0100
0010
0100
0000
1000
0000
0000
0000
,
0001
0000
1000
0000
0010
0000
0100
0000
0010
1000
0010
0000
1000
0000
0001
0000
,
0020
0000
0000
0100
,
1000
0000
0000
0000
,
0030
0000
0000
0000
;
