#TITLE:Einherjar;
#SUBTITLE:;
#ARTIST:植松伸夫とわんにゃん☆パニックス;
#TITLETRANSLIT:;
#SUBTITLETRANSLIT:;
#ARTISTTRANSLIT:Nobuo Uematsu / WANNYAN*PANICS;
#GENRE:;
#CREDIT:;
#MUSIC:Einherjar.ogg;
#BANNER:Einherjar.png;
#BACKGROUND:;
#CDTITLE:;
#SAMPLESTART:73.935;
#SAMPLELENGTH:15.000;
#SELECTABLE:YES;
#OFFSET:0.918;
#BPMS:0.000=230.000;
#STOPS:;
#ORIGIN:;
#PREVIEWVID:;
#JACKET:Einherjar-jacket.png;
#CDIMAGE:;
#DISCIMAGE:;
#BGCHANGES:;
#FGCHANGES:;

//--------------- dance-single - forcednature ----------------
#NOTES:
     dance-single:
     forcednature:
     Beginner:
     5:
     0.175027,0.278495,0.065972,0.047123,0,130,123,7,5,0,0,0,0,0,0.175027,0.278495,0.065972,0.047123,0,130,123,7,5,0,0,0,0,0:
0000
0000
0000
0000
,
0000
0000
0000
0000
,
0000
0000
0000
0000
,
0000
0000
0000
0000
,
0000
0000
0000
0000
,
1001
0000
0000
0000
,
0000
0000
0000
0000
,
0010
0000
0000
0000
,
0100
0000
0100
0000
,
0100
0000
0010
0000
,
0100
0000
0000
0000
,
0000
0000
0000
0000
,
0001
0000
0000
0000
,
1000
0000
0000
0000
,
0100
0000
0000
0000
,
0010
0000
0000
0000
,
0100
0000
0000
0000
,
1000
0000
0000
0000
,
0001
0000
0000
0000
,
0100
0000
0000
0000
,
1001
0000
0000
0000
,
0001
0000
0000
0000
,
1000
0000
0000
0000
,
0010
0000
0000
0000
,
0100
0000
0000
0000
,
0001
0000
0000
0000
,
0010
0000
0000
0000
,
0100
0000
0000
0000
,
1001
0000
0000
0000
,
1000
0000
0000
0000
,
0010
0000
0000
0000
,
0100
0000
0000
0000
,
0001
0000
0000
0000
,
0010
0000
0000
0000
,
0100
0000
0000
0000
,
0010
0000
0000
0000
,
1001
0000
0000
0000
,
1000
0000
1000
0000
,
1000
0000
0000
0000
,
0001
0000
0001
0000
,
0001
0000
0000
0000
,
0100
0000
0010
0000
,
0100
0000
0000
0000
,
0010
0000
0100
0000
,
0010
0000
0000
0000
,
1000
0000
1000
0000
,
1000
0000
0000
0000
,
0001
0000
0001
0000
,
0001
0000
0000
0000
,
0010
0000
0100
0000
,
0010
0000
0000
0000
,
0100
0000
0010
0000
,
0100
0000
0000
0000
,
0000
0000
0010
0000
,
0001
1000
0000
0000
,
0010
0000
0100
0000
,
1001
0000
0000
1000
,
0000
0000
0000
0000
,
0001
0000
0001
0000
,
0001
0000
0001
0000
,
0100
0000
0000
0100
,
0000
0000
0000
0000
,
0010
0000
0010
0000
,
0010
0000
0010
0000
,
1000
0000
0000
1000
0000
0000
1000
0000
,
0000
1000
0000
0000
0000
0000
0000
0000
,
0001
0000
0000
0001
0000
0000
0001
0000
,
0000
0001
0000
0000
0000
0000
0000
0000
,
0020
0000
0000
0000
,
0000
0000
0000
0030
,
0100
0000
1000
0000
,
0001
0000
0000
0001
0000
0000
0000
0000
,
0100
0000
0001
0000
,
1000
0000
0000
0000
,
0010
0000
1000
0000
,
0001
0000
0000
0000
,
1000
0000
0100
0000
,
0010
0000
0000
0000
,
0001
0000
0010
0000
,
0100
0000
0000
0000
,
1000
0000
0010
0000
,
1000
0000
0000
0000
,
0001
0000
0100
0000
,
0001
0000
0000
0000
,
1000
0000
0100
0000
,
1000
0000
0000
0000
,
0001
0000
0010
0000
,
0001
0000
0000
0000
,
2002
0000
0000
0000
,
0000
0000
0000
0000
,
3003
0000
0000
0000
,
0100
0010
0100
0010
,
0200
0000
0000
0000
,
0000
0000
0300
0000
,
1001
0000
0000
0000
,
1000
0000
0001
0000
,
0100
0000
0000
0100
0000
0010
0000
0000
,
0020
0000
0000
0000
,
0000
0000
0030
0000
;

//--------------- dance-single - forcednature ----------------
#NOTES:
     dance-single:
     forcednature:
     Easy:
     10:
     0.395831,0.55699,0.122519,0.075396,0.028274,294,281,13,8,0,0,0,0,0,0.395831,0.55699,0.122519,0.075396,0.028274,294,281,13,8,0,0,0,0,0:
0000
0000
0000
0000
,
0000
0000
0000
0000
,
0000
0000
0000
0000
,
0000
0000
0000
0000
,
0000
0000
0000
0000
,
1000
0000
0000
0001
0000
0000
0100
0000
,
0010
0000
0000
1000
0000
0000
0001
0000
,
0020
0000
0000
0000
,
0130
1000
0001
0100
,
1001
0000
0110
0000
,
2002
0000
0000
0000
,
0000
0000
0000
3003
,
0001
0000
0000
0001
0000
0000
0000
0000
,
1000
0000
0000
1000
0000
0000
0000
0000
,
0100
0000
0000
0100
0000
0000
0000
0000
,
0010
0000
0000
0010
0000
0000
0000
0000
,
0001
0000
0000
1000
0000
0000
0000
0000
,
0010
0000
0000
0100
0000
0000
0000
0000
,
0001
0000
0000
1000
0000
0000
0000
0000
,
0100
0000
0000
0010
0000
0000
0000
0000
,
0100
0000
1000
0000
,
0001
0000
0000
0100
0000
0000
0000
0000
,
0001
0000
0000
1000
0000
0000
0000
0000
,
0010
1000
0010
1000
,
0001
0000
0000
1000
0000
0000
0000
0000
,
0100
0010
0100
0010
,
0001
0000
0000
0100
0000
0000
0000
0000
,
0010
0000
0000
1000
0000
0000
0000
0000
,
1001
0000
1000
0100
,
1000
0000
0000
0010
0000
0000
0000
0000
,
0100
0000
0000
0001
0000
0000
0000
0000
,
0010
0100
0010
0100
,
1000
0000
0000
0010
0000
0000
0000
0000
,
1000
0000
0000
0001
0000
0000
0000
0000
,
0010
0000
0000
0001
0000
0000
0000
0000
,
0010
0100
0010
0100
,
1000
0000
0001
1000
,
0010
0000
0100
0001
,
0010
0000
0100
1000
,
0001
1000
0010
0100
,
0001
0000
0010
0001
,
0100
0000
0010
1000
,
0001
0000
1000
0100
,
0010
0001
0100
0010
,
1000
0000
0001
0010
,
0001
0000
0100
0010
,
0100
0000
0001
1000
,
0100
1000
0001
0100
,
0020
0000
0000
0000
,
0000
1030
0000
0000
0001
0000
0010
0000
,
0100
0001
0100
1000
,
1001
0000
0000
0110
0000
0000
1001
0000
,
2000
0000
0000
0000
,
0000
0000
0000
0000
3010
1000
0010
0000
,
0100
0001
0100
0001
0000
0000
0000
0010
,
0100
0000
1001
0000
,
1000
0000
0000
0010
0000
0000
1000
0000
,
0000
0010
0000
0000
0100
0000
0100
0000
,
0001
0000
0000
0010
0000
0000
0001
0000
,
0000
0010
0000
0000
0100
0000
0100
0000
,
1000
0000
0000
0100
0000
0000
0001
0000
,
0000
0100
0000
0000
1000
0000
0001
0000
,
0100
0000
0000
1000
0000
0000
0100
0000
,
0000
0001
0000
0000
0010
0000
0100
0000
,
0010
0001
0010
0001
,
1000
0010
1010
1010
,
0001
0100
0001
0100
,
0001
1000
0100
0100
,
2002
0000
0000
0000
,
0000
0000
0000
3003
,
1000
0000
0000
0100
0000
0000
0010
0000
,
0011
0000
0000
0101
0000
0000
0000
0000
,
1000
0010
1000
0001
,
0100
1000
0100
0001
,
0010
0100
0010
0000
0001
0000
1000
0000
,
0010
0100
0001
0000
,
1000
0100
0001
0100
,
0010
0001
1000
0010
,
0100
0001
0100
0000
0010
0000
1000
0000
,
0100
0010
0000
0000
0100
0000
0010
0000
,
0001
0100
0010
0001
,
0010
1000
0010
0000
0100
0000
0001
0000
,
1000
0100
0010
0001
,
0100
0010
0100
0000
0001
0000
1000
0000
,
0100
1000
0001
0100
,
0010
1000
0010
0000
0100
0000
0001
0000
,
0010
0000
0000
0000
0100
0000
0000
0000
1000
0000
0000
0000
,
0010
0000
0100
0000
0010
0000
1000
0000
0001
0000
0010
0000
,
0100
0000
0000
1000
0000
0000
0010
0000
,
0100
0000
0000
0001
0000
0000
0010
0000
,
0100
0000
0000
1000
0000
0000
0001
0000
,
0100
0001
1000
0010
,
1000
0000
0000
0100
0000
0000
0010
0000
,
0001
0000
0000
0100
0000
0000
0010
0000
,
1000
0000
0000
0100
0000
0000
0010
0000
,
0001
0100
0010
1000
,
0001
0100
0001
0100
0000
0010
1000
0010
,
2000
0000
0000
0000
,
0000
0000
3000
0000
;

//--------------- dance-single - forcednature ----------------
#NOTES:
     dance-single:
     forcednature:
     Medium:
     14:
     0.648947,0.974733,0.292161,0.075396,0.094245,482,451,31,8,0,0,0,0,0,0.648947,0.974733,0.292161,0.075396,0.094245,482,451,31,8,0,0,0,0,0:
0000
0000
0000
0000
,
0000
0000
0000
0000
,
0000
0000
0000
0000
,
0000
0000
0000
0000
,
0000
0000
0000
0000
,
1100
0000
0000
0010
0000
0000
0001
0000
,
0100
0001
0000
0000
0000
0000
0000
0000
,
2000
0000
0000
0000
,
3100
1000
0100
1000
0100
1000
0001
0100
0001
0100
0001
0100
,
0010
0000
0000
1000
0001
1000
0001
0000
0000
1000
0001
1000
,
0002
0000
0000
0000
,
0000
0000
0000
0003
,
1001
0000
0000
1000
0000
0000
0100
0000
,
0010
0000
0000
0001
0000
0000
0100
0000
,
0010
1000
0000
0001
0000
0000
0010
0000
,
0100
0010
0001
0100
,
0010
0000
0000
1000
0000
0000
0001
0000
,
1000
0000
0000
0100
0000
0000
0110
0000
,
0010
0001
0000
1000
0000
0000
0001
0000
,
0100
0100
0010
0010
,
1000
0001
1000
0000
0100
0000
0010
0000
,
0100
0000
1000
0010
0000
0100
0010
0000
,
1000
0000
0000
0001
0000
0000
0101
0000
,
0001
0000
1000
0000
0100
0010
0100
0000
,
1000
0000
1000
0010
0000
0100
0001
0000
,
0010
0010
0100
0100
,
1000
0001
0000
1000
0000
0100
0010
0000
,
0001
0100
0010
1000
0010
0100
0001
0000
,
1000
0000
0100
0010
0001
0100
0010
0100
,
0001
0000
0000
1000
0000
0000
0100
0000
,
0110
0000
0000
0001
0000
0000
1000
0010
,
1000
0001
0100
1000
,
0100
0000
0000
0010
0000
0000
1000
0000
,
1001
0000
0000
1001
0000
0000
0001
0000
,
0010
0001
0100
0010
0000
1000
0100
0000
,
0110
0000
0001
0000
0100
0010
1000
0000
,
0001
0100
0001
0000
1000
0100
1000
0000
,
0010
0000
0100
0010
0000
0100
0010
0000
,
1000
0000
0001
0010
0000
0001
0010
0000
,
0001
1000
0010
0100
,
0001
0000
1000
0100
0000
1000
0100
0000
,
0010
0001
0100
0010
,
1000
0000
0001
0010
0000
0100
1000
0000
,
0010
1000
0010
0000
0100
0001
0100
0000
,
1001
0000
1000
0010
0000
1000
0100
0000
,
0010
0000
0100
1000
0000
0001
0100
0000
,
0010
0010
1000
1000
,
0001
0010
0001
0000
0100
0010
0100
0000
,
0002
0000
0000
1000
0000
0000
0100
0000
,
0000
1000
0000
0000
0013
0000
0100
0000
,
1000
0010
1000
0000
0001
0100
0001
0000
,
1000
0100
0010
0001
0010
0100
1000
0000
,
2002
0000
0000
0000
,
3003
0000
0000
0000
1000
0001
1000
0000
,
0001
0001
0100
0001
0000
0010
0000
0100
,
1000
0010
1000
0100
0010
0010
0000
0000
,
0110
0000
0001
1000
0000
0001
0100
0000
,
0010
1000
0010
0100
0001
1000
0100
0000
,
0010
0000
0001
0010
0000
0100
1000
0000
,
0010
1000
0001
1000
0100
0010
0001
0000
,
0100
0000
0010
1000
0000
0001
0010
0000
,
0100
0010
0001
0100
0010
1000
0100
0000
,
1001
0000
0000
1000
0000
0000
0001
0000
,
0100
0010
0100
0010
0100
0010
0100
0000
,
1001
0000
0000
1100
0000
0000
1001
0000
,
0000
0110
0000
0000
1000
0001
1000
0000
,
1010
0000
0000
0011
0000
0000
0101
0000
,
0000
0011
0000
0000
0100
1000
0100
0000
,
2020
0000
0000
0000
,
0000
0000
0000
3030
,
1000
0100
0010
0000
0001
0100
0010
0000
,
1000
0001
1000
0100
0010
0001
1000
0001
,
0100
0001
1000
0010
1000
0001
1000
0000
,
0100
0010
0001
0100
0010
1000
0001
0000
,
0010
0100
1000
0010
0100
0001
1000
0000
,
0100
1000
0100
0000
0010
0001
0010
0000
,
0001
0100
0001
1000
0010
1000
0001
0000
,
1000
0100
0010
0001
0100
0010
1000
0000
,
0001
0010
0001
0100
0010
1000
0100
0000
,
1000
0100
0010
0001
0100
0000
0101
0000
,
0001
1000
0010
1000
0001
0010
0001
0100
,
0010
1000
0100
0010
0100
1000
0010
0000
,
0100
0001
0010
0001
0100
0010
1000
0100
,
0010
0001
1000
0010
1000
0001
0100
0000
,
0001
0010
0001
1000
0100
1000
0010
1000
,
0001
0010
0001
0100
0010
0100
0001
0000
,
1001
0000
0000
0000
0110
0000
0000
0000
1001
0000
0000
0000
,
1000
0001
1000
0100
0010
0000
0001
1000
0001
0100
0010
0000
,
1001
0000
0000
0001
0000
0000
0100
0000
,
0010
0000
0000
1000
0000
0000
0100
0000
,
0010
0010
0000
0100
0000
0000
1000
0000
,
1001
0101
1001
1100
,
1001
0000
0000
1000
0000
0000
0010
0000
,
0100
0000
0000
0001
0000
0000
0010
0000
,
0100
0100
0000
1000
0000
0001
0100
0000
,
0010
1000
0001
1000
0100
0010
0001
0000
,
0100
0010
0100
0010
0000
1000
0001
1000
,
0002
0000
0000
0000
,
0000
0000
0003
0000
;

//--------------- dance-single - forcednature ----------------
#NOTES:
     dance-single:
     forcednature:
     Hard:
     16:
     0.753963,1.021149,0.235613,0.358132,0.221477,560,535,25,38,0,0,0,0,0,0.753963,1.021149,0.235613,0.358132,0.221477,560,535,25,38,0,0,0,0,0:
0000
0000
0000
0000
,
0000
0000
0000
0000
,
0000
0000
0000
0000
,
0000
0000
0000
0000
,
0000
0000
0000
0000
,
1001
0000
0000
0001
0000
0000
0100
0000
,
0010
0000
1000
0000
0000
0000
0000
0000
0000
0000
0000
0000
0000
0000
0001
1000
,
0002
0000
0000
0000
,
0013
0001
0100
0010
1000
0100
0010
0100
1000
0001
0100
0010
,
1000
0000
0000
0001
0010
0100
1000
0000
0000
0001
0100
0010
,
2000
0000
0000
0000
,
0000
0000
0000
3100
,
0110
0000
0000
1000
0000
0000
0001
0000
,
0100
0000
0000
0001
0000
0000
1000
0000
,
1010
0000
0000
1010
0000
0000
1000
0000
,
0001
0000
0000
0010
0000
0000
0100
0000
,
1000
0000
0000
0001
0000
0000
0100
0000
,
0010
0000
0000
1000
0000
0000
0001
0000
,
0011
0000
0000
0011
0000
0000
1000
0000
,
0001
0000
1000
0000
0000
0000
0100
0000
0000
0000
0010
0000
0001
0010
0001
0000
,
1000
0001
1000
0010
0100
0001
0010
0100
,
0020
0000
0000
0032
0000
0103
0001
1000
,
0020
0000
0000
2030
0000
0000
3002
0000
,
0023
0000
0230
0000
0302
0000
0103
1000
,
0020
0000
0000
0230
0000
0000
0302
0000
,
2003
3200
0320
0032
,
0203
0000
0000
0320
0000
0000
1030
0000
,
0010
0000
0100
0000
0001
0000
1000
0000
0100
0000
0010
0001
0010
0000
0000
0000
,
0100
0001
0100
1000
0001
1000
0010
0100
,
0002
0000
0000
0023
0000
0031
0100
0010
,
2000
0000
0000
3002
0000
0000
0023
0000
,
0230
0000
2300
0000
3010
0100
0001
0010
,
0200
0000
0000
2300
0000
0000
3020
0000
,
2030
3200
0302
0203
,
0310
0001
1000
0001
0000
0100
0010
0000
,
0110
0000
1001
0000
1000
0100
0010
0001
,
0100
0010
0100
0001
1000
0010
1000
0100
,
0010
0000
0010
0100
0000
0100
1000
0000
,
0010
0000
0010
0100
0000
0100
0001
0000
,
0010
0000
0010
0100
0000
0100
1000
0000
,
0010
0000
0100
0000
0001
1000
0001
1000
,
0000
0100
1000
0000
0010
0100
0010
0000
,
1000
0000
1000
0100
0000
1000
0010
0000
,
1100
0000
0101
0000
1000
0010
0100
0001
,
0010
0100
0010
0001
0000
0100
0010
0100
,
0010
0000
0010
1000
0000
1000
0001
0000
,
1000
0000
1000
0100
0000
0100
0001
0000
,
0100
0000
0100
1000
0000
1000
0010
0000
,
0100
0000
0001
0100
0000
0100
0010
0000
,
1000
0001
0000
1000
0100
0000
0010
0000
,
0001
0000
0100
0010
0000
1000
0001
0000
,
0010
0100
1000
0010
0100
0001
0010
0000
,
2002
0000
0000
0000
,
3003
0000
0000
0000
0000
0000
0000
0000
0001
0100
0001
0100
0010
0000
0000
0000
,
1000
1000
0001
1000
0000
0100
0000
0100
,
0010
0002
0000
0100
0100
0103
0000
0000
,
1001
0000
1000
0100
0000
0010
0001
0100
,
0010
0001
0010
1000
0100
0010
0100
0010
,
0100
0000
1000
0001
0000
1000
0010
1000
,
0100
0001
0100
0010
0001
0100
0001
0100
,
0010
0000
1000
0001
0000
1000
0100
0010
,
1000
0010
0001
1000
0010
0100
0010
0100
,
0001
0000
0100
1000
0000
0100
0010
0000
,
0100
0000
0001
0000
0000
0000
0010
0000
0100
1000
0100
1000
0001
0100
0001
0100
,
0010
1000
0001
0010
0001
1000
0010
1000
,
0001
0010
0001
0100
0110
0000
1001
0000
,
1000
0100
1000
0010
0100
0001
0010
0001
,
0100
0000
0010
0000
1000
0000
0100
0000
0010
0001
0010
0001
1000
0010
1000
0010
,
0200
0000
0000
0000
,
0000
0000
0000
0000
0000
0301
0100
0000
,
1000
0100
0010
0100
0001
1000
0100
0010
,
0001
0010
0001
0000
1000
0000
0001
0100
0001
0000
0010
0000
0100
1000
0100
1000
,
0100
0010
0001
0100
0010
1000
0001
1000
,
0100
0001
0100
0010
0001
0100
0010
1000
,
0010
0001
0010
0100
0001
1000
0100
0001
,
0100
1000
0010
0100
1000
0100
0001
0000
,
1000
0100
0001
0100
0010
0001
1000
0010
,
0100
1000
0001
0010
0100
0001
1000
0100
,
0010
1000
0001
0100
0010
0001
1000
0010
,
0100
0101
0000
0001
1001
0000
1001
0000
,
1000
0010
0100
1000
0100
0001
1000
0100
,
0010
1000
0010
0001
1000
0001
0100
0010
,
0001
0010
0100
0001
0010
0100
0001
0100
,
1000
0010
1000
0001
0100
1000
0100
0000
,
0010
1000
0001
1000
0100
0001
0100
0010
,
0001
1000
0010
0001
1000
0100
0001
1000
,
1100
0000
0000
0000
1001
0000
0000
0000
0101
0000
0000
0000
,
0001
0010
0100
1000
0010
0100
0001
0010
0100
1000
0010
0100
,
0001
0000
0100
0001
0000
0100
0001
0000
,
1000
0000
0100
1000
0000
0100
1000
0000
,
0010
0010
1000
0001
0000
1000
0001
0000
,
0011
0101
1010
1100
,
1001
0000
0000
0001
0000
0000
0100
0000
,
0010
0000
0000
1000
0000
0000
0001
0000
,
0010
0100
1000
0010
1000
0100
0010
0001
,
0100
0001
1000
0010
1000
0100
0010
0001
1000
0010
1000
0001
,
0010
0010
0100
0010
0000
0001
0001
1000
,
0002
0000
0000
0000
,
0000
0000
0003
0000
;
