#TITLE:Eastern Philosophy;
#SUBTITLE:;
#ARTIST:Momori;
#TITLETRANSLIT:;
#SUBTITLETRANSLIT:;
#ARTISTTRANSLIT:;
#GENRE:;
#CREDIT:;
#MUSIC:Eastern Philosophy.mp3;
#BANNER:;
#BACKGROUND:;
#CDTITLE:;
#SAMPLESTART:63.034;
#SAMPLELENGTH:17.518;
#SELECTABLE:YES;
#OFFSET:1.784;
#BPMS:0.000=137.000;
#STOPS:;
#BGCHANGES:;
#FGCHANGES:;

//--------------- dance-single - OrangeRight ----------------
#NOTES:
     dance-single:
     OrangeRight:
     Beginner:
     3:
     0,0,0,0,0:
0000
0000
0000
0000
,
0000
0000
0000
0000
,
0000
0000
0000
0000
,
0000
0000
0000
0000
,
0000
0000
0000
0000
,
0100
0000
0100
0000
,
0010
0000
0010
0000
,
0100
0000
0100
0000
,
0010
0000
0001
0000
,
1000
0000
1000
0000
,
0000
0000
0001
0000
,
0001
0000
0100
0000
,
0010
0000
1000
0000
,
0001
0000
0001
0000
,
0000
0000
1000
0000
,
1000
0000
0100
0000
,
0010
0000
0001
1000
,
0001
0000
0100
0000
,
0100
0100
0001
0000
,
1000
0000
0100
0000
,
0100
0100
1000
0000
,
1000
0000
0001
0000
,
0100
0010
0100
0000
,
0001
0000
1000
0000
,
0100
0010
0100
0000
,
1000
0000
0100
0000
,
0010
0000
0001
1000
,
0001
0000
0100
0000
,
0010
0000
1000
0001
,
1000
0000
1000
0000
,
1000
0000
1001
0000
,
0001
0000
0001
0000
,
0001
0000
1001
0000
,
1000
0000
1000
0000
,
0010
0100
0010
0000
,
1000
0000
0001
0000
,
0010
0100
1000
0000
,
0001
0000
0001
0000
,
0100
0000
0010
0100
,
0010
0000
1000
0000
,
0100
0000
1000
0001
,
1000
0000
1000
0000
,
0100
0000
0010
0100
,
0010
0000
0001
0000
,
0100
0000
0010
0000
,
1000
0000
1000
0000
,
0001
0000
0100
0010
,
0100
0000
0001
0000
,
0010
0000
0100
1000
,
0002
0000
0003
0000
,
2000
0000
3000
0000
,
0020
0000
0030
0000
,
0200
0000
0300
0000
,
0100
0000
0000
0000
;

//--------------- dance-single - OrangeRight ----------------
#NOTES:
     dance-single:
     OrangeRight:
     Easy:
     5:
     0,0,0,0,0:
0000
0000
0000
0000
,
0000
0000
0000
0000
,
0000
0000
0000
0000
,
0000
0000
0000
0000
,
0000
0000
0000
0000
,
1000
0001
1000
0100
,
0010
0001
0100
0010
,
1000
0001
1000
0010
,
0200
0300
0020
0030
,
1000
0001
2000
0000
,
3001
0100
0010
1000
,
0001
0001
1000
1000
,
0010
0100
0100
0000
,
0001
1000
0002
0000
,
1003
0100
0010
0001
,
1000
0000
0100
0000
,
0110
0000
0010
0001
,
1000
1000
0001
0000
,
0100
0100
0001
0000
,
1000
0001
0100
0000
,
0010
1000
0001
0000
,
1000
0100
0010
0000
,
0001
0100
0010
1000
,
0001
0010
0100
0000
,
1000
0010
0100
0001
,
2000
0000
0001
0000
,
3100
1000
0010
0100
,
0002
0000
1000
0000
,
0013
0100
1000
1001
,
1000
0000
0000
0000
1000
0000
0000
0001
,
0000
0001
0000
0001
0000
0000
0000
0000
,
0001
0000
0000
0000
0001
0000
0000
1000
,
0000
1000
0000
1000
0000
0000
0000
0000
,
1000
0000
0000
0000
0100
0000
0000
0010
,
0000
0001
0000
0100
0000
0000
0000
0000
,
0001
0000
0000
0000
0100
0000
0000
0010
,
0000
1000
0000
0100
0000
0000
1000
0000
,
0001
0100
0020
0000
,
0130
0010
1000
0001
,
0001
1000
0100
1000
,
0010
0100
0001
0001
,
1000
0100
0020
0000
,
0130
1000
0001
0100
,
0010
0000
1000
0000
,
0001
1000
1000
0001
,
1000
0010
0100
0001
,
1000
0100
0010
0001
,
0001
0100
0010
1000
,
0100
0010
0001
1000
,
2001
0000
0000
0000
,
3200
0000
0310
0001
,
2000
0000
3002
0000
,
0103
0000
0010
0000
,
2002
0000
0000
0000
,
3003
0000
0000
0000
;

//--------------- dance-single - OrangeRight ----------------
#NOTES:
     dance-single:
     OrangeRight:
     Medium:
     8:
     0,0,0,0,0:
0000
0000
0000
0000
,
0000
0000
0000
0000
,
0000
0000
0000
0000
,
0000
0000
0000
0000
,
0000
0000
0000
0000
,
1000
0000
1000
0100
1000
0000
1000
0000
,
0001
0000
0100
0000
0010
1000
0100
0010
,
0001
0000
0001
1000
0001
0000
0001
0000
,
0100
0000
0100
0000
0010
0000
0100
0010
,
1000
0000
0000
0100
0000
0000
0010
0000
0002
0000
0000
0000
0100
0000
0000
0000
,
0000
0000
1000
0000
0013
0100
1000
0000
,
0001
0000
0100
0000
0010
1000
0010
0000
,
1000
0000
0100
0000
0010
0001
0100
0000
,
0001
0000
0000
0100
0000
0000
0010
0000
2000
0000
0000
0000
0100
0000
0000
0000
,
0000
0000
0001
0000
3010
0100
0001
0000
,
1000
0000
0001
0010
0100
0000
1000
0000
,
1001
0000
0000
0000
1000
0001
0100
0010
,
1000
0000
1000
0000
0001
0100
0010
0000
,
0100
0000
0100
0100
0001
0000
1000
0000
,
0100
0010
0100
0000
1000
0001
1000
0000
,
0001
0100
0010
0000
1000
0000
1000
0000
,
0100
0000
0010
0000
0001
0100
0010
0000
,
1000
0000
0010
0000
1000
0001
1000
0000
,
0100
0000
0010
0000
0001
1000
0001
0000
,
0100
0000
0010
0000
1000
0001
0100
0010
,
2000
0010
0001
0100
,
3001
0000
0100
0000
0010
0000
0000
0000
1000
0000
0000
0001
0000
0000
0010
0000
,
0002
0100
1000
0010
,
1003
0100
0010
0000
0001
0100
0010
0000
,
1000
0001
1000
0001
0000
0000
0100
0010
,
0000
1000
0000
1010
0000
1000
0100
0000
,
1000
0001
1000
0001
0000
0000
0010
0001
,
0000
0100
0000
0101
0000
0000
1001
0000
,
0001
1000
0001
1000
0000
0000
0010
0100
,
0000
0110
0000
1001
0000
0001
1000
0000
,
0001
0100
0010
1000
0000
0001
0000
1001
,
0000
0110
0000
1001
0000
1000
0001
0100
,
0010
0000
0000
0100
0000
0000
0001
0000
2000
0000
0000
0000
0100
0000
0000
0000
,
0000
0000
3001
0000
1000
0000
0001
1000
,
0001
0100
0000
0010
1000
0001
0000
0010
,
0001
0100
0010
1000
0100
0000
1000
0100
,
0010
0000
0000
0001
0000
0000
0100
0000
0002
0000
0000
0000
0010
0000
0000
0000
,
0000
0000
1000
0000
0103
0010
1000
0001
,
1000
0100
0000
0010
0001
0100
0000
0010
,
1000
0000
1001
0000
0110
0000
0010
0100
,
0001
0000
0000
1000
0000
0000
0100
0000
1000
0000
0100
0000
0000
0100
0000
0000
,
0010
0000
0001
0000
0100
0000
0010
1000
,
0001
0000
0010
0100
0000
1000
0000
0001
,
0100
0010
1000
0000
0100
0010
0001
1000
,
0001
0000
0000
0100
0000
0000
0010
0000
2000
0000
0000
0000
0000
0000
0000
0000
,
3002
0000
0100
0000
0103
0010
1000
0001
,
2000
0000
3002
0000
,
0103
0010
1000
0001
,
2002
0000
0000
0000
,
3003
0000
0000
0000
;

//--------------- dance-single - OrangeRight ----------------
#NOTES:
     dance-single:
     OrangeRight:
     Hard:
     11:
     0,0,0,0,0:
0000
0000
0000
0000
,
0000
0000
0000
0000
,
0000
0000
0000
0000
,
0000
0000
0000
0000
,
0000
0000
0000
0000
,
1000
0100
1000
0002
0000
0100
0103
0000
,
0001
0000
0100
0000
0001
0000
1000
0000
0100
0010
0100
0000
1000
0001
1000
0000
,
0001
0100
0001
2000
0000
0010
3010
0000
,
0010
1000
0100
0010
0001
1000
0001
0100
,
0010
0000
0000
1000
0000
0000
0100
0000
0010
0000
0001
0000
0000
0100
0000
0000
,
0010
0000
1000
0000
1000
0200
0010
0000
,
1300
0000
0000
0000
0100
0000
0010
0000
0001
0000
0000
0001
0100
0000
0010
0000
,
1000
0000
0001
0000
0010
0000
0100
0000
1000
0000
0000
0001
0100
0000
0001
0000
,
0010
0000
0000
0100
0000
0000
1000
0000
0010
0000
0100
0000
0000
0001
0000
0000
,
1000
0000
0010
0000
0010
0200
0001
0000
,
0301
1000
0100
0000
1000
0001
0100
0000
,
0101
0000
1001
0000
0010
0001
0100
0010
,
1010
0000
0011
0000
1000
0001
0100
0000
,
1001
0000
0100
0100
0001
0000
0010
0000
,
0100
1000
0010
0100
0001
0010
0001
0000
,
0010
0001
0100
0010
1000
0001
1000
0000
,
0001
0001
0100
0100
0010
1000
0000
1000
,
0100
0100
0010
0010
0001
1000
0001
0000
,
1000
0100
0001
0100
1000
0001
1000
0000
,
0001
0000
0000
1000
0000
0000
0001
0000
1000
0000
0100
0000
0010
0000
0000
0000
,
0002
0100
0010
1003
,
1000
0100
0001
0100
1000
0010
0100
0001
,
2000
0100
0010
3001
,
0001
0100
1000
0100
0001
1000
0001
0000
,
1000
0000
0010
0000
1000
0000
0100
1000
0100
0000
0010
0000
0001
0000
0011
0000
,
0000
1010
0000
1001
0000
0100
0010
1000
,
0001
0000
0010
0000
0001
0000
0100
0010
0100
0000
0010
0000
1000
0000
1100
0000
,
0000
0110
0000
1001
0000
0010
0001
0100
,
0010
0000
1000
0000
0100
0000
0010
0001
0010
0000
0100
0000
1000
0000
1001
0000
,
0000
1100
0000
0110
0000
0100
1000
0010
,
0100
0000
0001
0000
1000
0000
0100
0000
0010
0000
0001
1000
0001
0000
0110
0000
,
0000
1001
0000
0110
0000
0001
0100
0010
,
1000
0000
0000
0100
0000
0000
0010
0000
0002
0000
0000
0000
0100
0000
0000
0000
,
1000
0000
0000
0000
0013
0000
0000
0000
0010
0000
0001
0000
0100
0010
0100
0010
,
1000
0100
0010
0000
0001
0100
0010
0000
,
1000
0010
0100
0001
0010
1000
0010
0001
,
1000
0000
0000
0010
0000
0000
0100
0000
0002
0000
0000
0000
0010
0000
0000
0000
,
1000
0000
0000
0000
0103
0000
0000
0000
0001
0100
0001
0000
1000
0100
1000
0000
,
0001
0100
0010
1000
0100
0100
1000
0000
,
1100
0000
0110
0000
1001
0000
1000
0001
,
0100
0000
0000
0010
0000
0000
1000
0000
0200
0000
0000
0000
1000
0000
0000
0000
,
0010
0000
0000
0000
1300
0000
0000
0000
0010
0000
0100
0000
0001
1000
0001
1000
,
0001
0100
0010
0000
1000
0010
0100
0000
,
0001
0010
0100
0000
1000
0100
0010
0001
,
1000
0000
0000
0001
0000
0000
1000
0000
0020
0000
0000
0000
0001
0000
0000
0000
,
0100
0000
0000
0000
1030
0000
0000
0000
1000
0010
1000
0000
0001
0100
0001
0000
,
2000
0100
3002
0100
,
2003
0000
3200
0000
0302
0000
0103
2000
,
0000
0002
0000
0000
0000
0000
0000
0000
,
3003
0000
0000
0000
;

//--------------- dance-double - OrangeRight ----------------
#NOTES:
     dance-double:
     OrangeRight:
     Easy:
     3:
     0,0,0,0,0:
00000000
00000000
00000000
00000000
,
00000000
00000000
00000000
00000000
,
00000000
00000000
00000000
00000000
,
00000000
00000000
00000000
00000000
,
00000000
00000000
00000000
00000000
,
10000000
00010000
10000000
00010000
,
01000000
00001000
00010000
00000100
,
00001000
00000001
00001000
00000001
,
00002000
00003000
00000002
00000003
,
00001000
00000001
00002000
00003000
,
00000001
00000100
00000010
00001000
,
00000100
00000100
00010000
00010000
,
00001000
00100000
00010000
00000000
,
10000000
00010000
20000000
30000000
,
00010000
01000000
00100000
10000000
,
01000000
00000000
00100000
00000000
,
10010000
00000000
00010000
10000000
,
00100000
00100000
01000000
00000000
,
01000000
01000000
00010000
00000000
,
10000000
00010000
01000000
00000000
,
01000000
00001000
00010000
00000000
,
00001000
00001000
00010000
00000000
,
00010000
00010000
00000100
00000000
,
00001000
00000100
00000010
00000000
,
00000001
00000100
00000010
00001000
,
00000002
00000000
00001000
00000000
,
00000103
00000010
00010000
00001000
,
00020000
00000000
00001000
00000000
,
00031000
00010000
00001000
01000000
,
00010000
00000000
00000000
00000000
00010000
00000000
00000000
10000000
,
00000000
10000000
00000000
10000000
00000000
00000000
00000000
00000000
,
10000000
00000000
00000000
00000000
10000000
00000000
00000000
00010000
,
00000000
00010000
00000000
00010000
00000000
00000000
00000000
00000000
,
01000000
00000000
00000000
00000000
00001000
00000000
00000000
00010000
,
00000000
00010000
00000000
00010000
00000000
00000000
00000000
00000000
,
00001000
00000000
00000000
00000000
00010000
00000000
00000000
00000100
,
00000000
00000100
00000000
00000100
00000000
00000000
00001000
00000000
,
00000001
00001000
00000002
00000003
,
00000100
00000010
00001000
00000100
,
00020000
00030000
00002000
00003000
,
00100000
00010000
01000000
00100000
,
10000000
00010000
20000000
30000000
,
00010000
01000000
00100000
10000000
,
00020000
00030000
20000000
30000000
,
00100000
01000000
00010000
00100000
,
01000000
00100000
02000000
03000000
,
10000000
00100000
01000000
00010000
,
00200000
00300000
00002000
00003000
,
00010000
00000100
00010000
00000010
,
00001000
00000001
00002000
00003000
,
00000002
00000003
00000100
00000010
,
00001000
00000000
00000100
00000000
,
00010000
00000000
00001000
00000000
,
00020000
00000000
00000000
00000000
,
00030000
00000000
00000000
00000000
;

//--------------- dance-double - OrangeRight ----------------
#NOTES:
     dance-double:
     OrangeRight:
     Medium:
     7:
     0,0,0,0,0:
00000000
00000000
00000000
00000000
,
00000000
00000000
00000000
00000000
,
00000000
00000000
00000000
00000000
,
00000000
00000000
00000000
00000000
,
00000000
00000000
00000000
00000000
,
10000000
01000000
10000000
00000000
00100000
00000000
00100000
00000000
,
01000000
00010000
01000000
00000000
00010000
01000000
00001000
00010000
,
00001000
00010000
00000100
00001000
,
00000020
00000000
00000030
00000000
00000100
00000000
00000001
00001000
,
00000001
00000000
00000000
00000001
00000000
00000000
00000001
00000000
00000200
00000000
00000000
00000000
00000010
00000000
00000000
00000000
,
00000310
00000000
00001000
00000000
00000100
00010000
00001000
00000000
,
00100000
00000000
00010000
00000000
01000000
00000000
00100000
10000000
,
00100000
00000000
01000000
00000000
00010000
00000000
10000000
00010000
,
10000000
00000000
00000000
10000000
00000000
00000000
10000000
00000000
02000000
00000000
00000000
00000000
00100000
00000000
00000000
00000000
,
03100000
00000000
00010000
00000000
01000000
00001000
00010000
00000000
,
00000100
00001000
00000010
00000100
,
00002002
00000000
00003003
00000000
00001000
00000001
00001000
00000000
,
00001000
00001000
00000001
00000100
,
00000010
00000000
00000100
00000100
00000001
00000000
00001000
00000000
,
00000010
00001000
00000100
00000000
00010000
00000000
00010000
00000000
,
00001000
00100000
00010000
00000000
01000000
00000000
01000000
00000000
,
00010000
01000000
00010000
00000000
00100000
00000000
00001000
00000000
,
00010000
00001000
00010000
00000000
00000100
00000000
00001000
00000000
,
00000010
00000100
00000010
00000000
00001000
00000001
00001000
00000000
,
00000001
00000000
00000100
00000000
00000010
00001000
00000010
00000000
,
00002000
00000010
00000001
00000100
,
00003001
00000000
00001000
00000000
00000100
00010000
00001000
01000000
,
00020000
00100000
10000000
01000000
,
00130000
01000000
00100000
00000000
00010000
10000000
00010000
00000000
,
10000000
00010000
10000000
00010000
00000000
00000000
00010000
01000000
,
00000000
00100000
00000000
10100000
00000000
00000000
10000000
00000000
,
00010000
01000000
00010000
01000000
00000000
00000000
01000000
00001000
,
00000000
00010000
00000000
00011000
00000000
00000000
00010000
00000000
,
00000100
00001000
00000100
00001000
00000000
00000000
00000100
00001000
,
00000000
00000001
00000000
00000101
00000000
00000000
00000100
00000000
,
00000001
00000100
00000001
00000100
00000000
00000000
00000000
00000110
,
00000000
00001001
00000000
00000110
00000000
00000000
00000010
00000000
,
00001000
00000000
00000000
00001000
00000000
00000000
00000100
00000000
00020000
00000000
00000000
00000000
00001000
00000000
00000000
00000000
,
00031000
00000000
00100000
00000000
00010000
00000000
01000000
00010000
,
01000000
00000000
00100000
00000000
10000000
01000000
00100000
00000000
,
00010000
10000000
00010000
01000000
00100000
00000000
10000000
00000000
,
00010000
00000000
00000000
00010000
00000000
00000000
01000000
00000000
00002000
00000000
00000000
00000000
00010000
00000000
00000000
00000000
,
00013000
00000000
00000010
00000000
00001000
00000100
00000010
00000001
,
00001000
00000000
00000001
00000000
00001000
00000100
00000010
00000000
,
00000001
00000000
00000100
00000000
00001000
00000000
00000100
00000001
,
00000010
00000000
00000000
00000010
00000000
00000000
00000100
00000000
00002000
00000000
00000000
00000000
00000001
00000000
00000000
00000000
,
00003010
00000000
00010000
00000000
00001000
00000000
00100000
00010000
,
00100000
00000000
01000000
10000000
00100000
01000000
00010000
00000000
,
10000000
00010000
10000000
00010000
10000000
00000000
00100000
10000000
,
01000000
00000000
00000000
01000000
00000000
00000000
00100000
00000000
00020000
00000000
00000000
00000000
10000000
00000000
00000000
00000000
,
02030000
00000000
00010000
00000000
03001000
00010000
00001000
00010000
,
00000100
00000000
00001000
00000000
00000010
00000100
00000001
00000000
,
00001000
00000100
00000001
00000100
,
00002000
00000000
00000000
00000000
,
00003000
00000000
00000000
00000000
;

//--------------- dance-double - OrangeRight ----------------
#NOTES:
     dance-double:
     OrangeRight:
     Hard:
     11:
     0,0,0,0,0:
00000000
00000000
00000000
00000000
,
00000000
00000000
00000000
00000000
,
00000000
00000000
00000000
00000000
,
00000000
00000000
00000000
00000000
,
00000000
00000000
00000000
00000000
,
00100000
00010000
00100000
00002000
00000000
00010000
00013000
00000000
,
00000100
00010000
00001000
00000000
00100000
00001000
00010000
00000100
,
00001000
00000001
00001000
00000020
00000000
00000100
00000130
00000000
,
00000100
00000001
00000010
00000100
00001000
00000001
00001000
00000000
,
00000001
00000000
00000000
00000100
00000000
00000000
00000010
00000000
00002000
00000000
00000000
00000000
00000001
00000000
00000000
00000000
,
00003200
00000000
00010000
00000000
00001300
00000100
00010000
00001000
,
00100000
00000000
00010000
01000000
00100000
00000000
10000000
01000000
,
00100000
00000000
00010000
01000000
00100000
10000000
00010000
00000000
,
10000000
00000000
00000000
01000000
00000000
00000000
00100000
00000000
00020000
00000000
00000000
00000000
10000000
00000000
00000000
00000000
,
02030000
00000000
00001000
00000000
03010000
01000000
00001000
00000000
,
00010000
00000000
00000100
00001000
00000010
00000100
00000001
00000000
,
00000102
00000000
00000000
00000000
00000013
00000100
00001000
00000001
,
00000100
00000000
00000100
00000000
00000010
00000100
00000001
00000000
,
00000100
00000000
00000100
00000100
00000001
00000000
00001000
00000000
,
00000100
00010000
00001000
00100000
00010000
01000000
00010000
00000000
,
00100000
00001000
00010000
00000100
00001000
00000010
00000100
00000000
,
00000001
00000001
00000100
00000100
00000010
00001000
00000000
00001000
,
00000100
00000100
00010000
00010000
00001000
01000000
00010000
00000000
,
10000000
01000000
00100000
00010000
01000000
00100000
01000000
00000000
,
00100000
00000000
00000000
10000000
00000000
00000000
01000000
00000000
10000000
00000000
00010000
00000000
10000000
00000000
00010000
00000000
,
20000000
00010000
01000000
00100000
,
30010000
00100000
00001000
00000000
00010000
00000100
00000000
00001000
,
00000002
00000000
00000100
00000000
00001000
00000000
00000013
00000100
,
00010000
00001000
01000000
00010000
00100000
00001000
00010000
00000000
,
00000100
00000000
00010000
00000000
00001000
00000000
00100000
00001000
00100000
00000000
00001000
00000000
01000000
00000000
01010000
00000000
,
00000000
01001000
00000000
01010000
00000000
00100000
10000000
00000000
,
10000000
00000000
01000000
00000000
00100000
00000000
00010000
00100000
00010000
00000000
01000000
00000000
00010000
00000000
01010000
00000000
,
00000000
01001000
00000000
00011000
00000000
00001000
00010000
00001000
,
00100000
00000000
00001000
00000000
00010000
00000000
00000100
00010000
00000100
00000000
00001000
00000000
00000100
00000000
00001100
00000000
,
00000000
00010100
00000000
00001100
00000000
00001000
00000010
00000000
,
00000010
00000000
00000100
00000000
00000001
00000000
00000010
00000000
00000100
00001000
00000001
00001000
00000100
00000000
00001100
00000000
,
00000000
00011000
00000000
01010000
00000000
01000000
00001000
00010000
,
00011000
00000000
00000000
00101000
00000000
00000000
00100000
00000000
00020000
00000000
10000000
00000000
00000000
10000000
00000000
00000000
,
01030000
00000000
00100000
00000000
10000000
00000000
01000000
00000000
00100000
00000000
00010000
00000000
10000000
00010000
10000000
00010000
,
10000000
00100000
01000000
00000000
00010000
00100000
01000000
00000000
,
10000000
01000000
00100000
00010000
01000000
00001000
00010000
00001000
,
00011000
00000000
00000000
00010010
00000000
00000000
00000010
00000000
00002000
00000000
00000001
00000000
00000000
00000001
00000000
00000000
,
00003100
00000000
00000010
00000000
00000001
00000000
00000100
00000000
00000001
00000100
00000001
00000000
00001000
00000010
00001000
00000000
,
00000001
00000010
00000100
00000000
00001000
00000010
00000100
00000000
,
00000001
00000100
00000010
00000100
00000001
00000010
00000100
00001000
,
00000001
00000000
00000000
00000100
00000000
00000000
00001000
00000000
00020000
00000000
00001000
00000000
00000000
00000010
00000000
00000000
,
00030100
00000000
00001000
00000000
00000100
00000000
00000010
00000000
00000001
00000000
00001000
00000000
00000010
00000100
00000010
00000100
,
00000010
00010000
00001000
00000000
00100000
00001000
00010000
00000000
,
00010000
00000100
00010000
00001000
00100000
00010000
01000000
00100000
,
10000000
00000000
00000000
01000000
00000000
00000000
00010000
00000000
00002000
00000000
00010000
00000000
00000000
00100000
00000000
00000000
,
01003000
00000000
00000000
00000000
00010000
00000000
00000000
00000000
00100000
00010000
00100000
00000000
01000000
10000000
01000000
00000000
,
20000000
01000000
30020000
01000000
,
00230000
00000000
20300000
00000000
30200000
00000000
00310000
20000000
,
00000000
00020000
00000000
00000000
00000000
00000000
00000000
00000000
,
30030000
00000000
00000000
00000000
;
