#TITLE:EXUSIA;
#SUBTITLE:;
#ARTIST:L.E.D.-G;
#TITLETRANSLIT:;
#SUBTITLETRANSLIT:;
#ARTISTTRANSLIT:;
#GENRE:HARDCORE;
#CREDIT:;
#MUSIC:EXUSIA.ogg;
#BANNER:;
#BACKGROUND:;
#CDTITLE:;
#SAMPLESTART:78.199;
#SAMPLELENGTH:15.000;
#SELECTABLE:YES;
#OFFSET:0.928;
#BPMS:0.000=188.000;
#STOPS:;
#DISPLAYBPM:188.000;
#BGCHANGES:;
#FGCHANGES:;

//--------------- dance-single - forcednature ----------------
#NOTES:
     dance-single:
     forcednature:
     Beginner:
     8:
     0,0,0,0,0:
0000
0000
0000
0000
,
0000
0000
0000
0000
,
0000
0000
0000
0000
,
0000
0000
0000
0000
,
0000
0000
0000
0000
,
0000
0000
0000
0000
,
1001
0001
0100
0000
,
0010
1000
0001
0000
,
1000
0100
0010
0000
,
0100
0100
0100
0100
,
1001
1000
0100
0000
,
0010
0001
1000
0001
,
1000
0010
0100
0000
,
0001
0001
1000
1000
,
1001
1000
0100
0000
,
0010
0001
1000
0001
,
0100
0010
0100
0000
,
0010
0010
0010
0010
,
1001
0000
1000
0100
,
1000
0001
0100
0000
,
0001
1000
0001
0100
,
0010
0010
0010
0000
,
1001
0000
0100
1000
,
0001
1000
0010
0000
,
0100
0100
0100
0000
,
0001
0000
0001
0000
0001
1000
0001
0000
,
1001
0001
0100
0000
,
0001
1000
0100
0000
,
0010
0010
0010
0010
,
0100
0000
0000
0010
0000
0000
0100
0000
0000
0010
0000
0000
0100
0000
0000
0000
,
1001
0001
0100
0000
,
0010
1000
0001
0000
,
1000
1000
1000
1000
,
0001
0000
0000
1000
0000
0000
0001
0000
0000
1000
0000
0000
0001
0000
1000
0000
,
0001
0100
0010
0000
,
1000
0100
0010
0000
,
0100
0100
0100
0100
,
1000
0000
0000
0001
0000
0000
1000
0000
0000
0001
0000
0000
1000
0000
0000
0000
,
1001
0001
0100
0000
,
1001
1000
0100
0000
,
1001
0100
0110
0010
,
1000
0000
0000
0001
0000
0000
1000
0000
0000
0001
0000
0000
1000
0000
0001
0000
,
0200
0000
0000
0000
,
0300
0000
0000
0000
,
0001
0001
0000
1000
,
1000
0010
0000
0100
,
0001
1000
0000
0100
,
0100
0010
0000
0001
,
0001
1000
0000
0010
,
0010
1000
0000
0100
,
0010
0010
0000
0100
,
1000
0001
1000
0001
,
1001
0000
0100
0010
,
1001
0000
1000
0110
,
0110
0000
0001
1000
,
1001
0000
0110
0110
,
1001
0100
0001
0100
,
1001
0100
1000
0100
,
1000
0100
1000
0000
0001
0100
0001
0000
,
0110
0000
0000
0000
0010
0000
0000
0000
0100
0000
0000
0100
0000
0000
0100
0000
,
0020
0000
0000
0000
,
0030
0000
0000
0000
,
1001
0001
0100
0001
,
1000
0000
1000
0000
0100
0010
0100
0000
,
1000
1000
0001
0001
,
0100
0010
0100
0000
0010
0100
0010
0000
,
1001
0001
0001
0100
,
0010
0000
0010
0000
1000
0010
1000
0000
,
0100
0100
0010
0001
,
1000
0100
1000
0000
0001
0010
0001
0000
,
1001
0000
0001
0000
1000
0010
1000
0000
,
0100
0100
0010
0010
,
0001
0000
1000
0000
0001
0010
0001
0000
,
1000
1000
0001
0001
,
1001
0001
1000
1000
,
0100
0100
0010
0010
,
0100
1001
0010
1001
,
0001
0000
0000
0000
1000
0000
0000
0000
0010
0000
0000
0010
0000
0000
0010
0000
,
1001
0000
0001
0100
0001
0000
1000
0010
,
1000
0100
0100
0010
,
0001
0000
1000
0100
1000
0000
0001
0100
,
0001
0010
0001
1000
,
1001
1000
0001
0001
,
0100
0100
0010
0010
,
1000
0001
0010
0100
,
0010
0100
0010
0000
0100
0010
0100
0000
,
1001
0000
0001
0000
0001
0010
0001
0000
,
1000
0000
1000
0000
1000
0010
1000
0000
,
0100
0000
0100
0000
0100
0010
0100
0000
,
0010
0000
0010
0000
0010
0100
0010
0000
,
0110
0000
0001
1000
0001
1000
0001
0000
,
0110
0000
1000
0001
1000
0001
1000
0000
,
0001
0100
0001
0100
0001
0100
0001
0000
,
1000
0000
0100
0000
1000
0000
0100
0000
1000
0000
0000
0100
0000
0000
0010
0000
,
2002
0000
0000
0000
,
0000
0000
0000
0000
,
3003
0000
0000
0000
;

//--------------- dance-single - forcednature ----------------
#NOTES:
     dance-single:
     forcednature:
     Easy:
     12:
     0,0,0,0,0:
0000
0000
0000
0000
,
0000
0000
0000
0000
,
0000
0000
0000
0000
,
0000
0000
0000
0000
,
0000
0000
0000
0000
,
0000
0000
0000
0000
,
1001
0000
0000
0000
0001
0000
0000
0000
0100
0000
0000
0100
0000
0000
0010
0000
,
1000
0000
0000
0000
0001
0000
0000
0000
0010
0000
0000
0010
0000
0000
0100
0000
,
1000
0000
0000
0000
0010
0000
0000
0000
1000
0000
0000
1000
0000
0000
0001
0000
,
0100
0001
0100
0000
0010
1000
0010
0000
,
1001
0000
0000
0000
1000
0000
0000
0000
0100
0000
0000
0010
0000
0000
0100
0000
,
1000
0000
0001
0000
1000
0000
0000
0000
0010
0000
0000
0100
0000
0000
0001
0000
,
1000
0000
0100
0000
0010
0000
0000
0000
0100
0000
0000
1000
0000
0000
0001
0000
,
0100
0000
0001
0000
1000
0000
0000
0000
0010
0000
0000
1000
0000
0000
0001
0000
,
1001
0000
0001
0000
0010
0000
0000
0000
0100
0000
0000
1000
0000
0000
0010
0000
,
1000
0000
0001
0000
0100
0000
0000
0000
0010
0000
0000
1000
0000
0000
0100
0000
,
0010
0000
0100
0000
1000
0000
0000
0000
0001
0000
0000
0100
0000
0000
0010
0000
,
1000
0001
0010
0001
0001
1000
0010
0000
,
1001
0000
0000
0000
1000
0000
0000
0000
0010
0000
0000
0100
0000
0000
0001
0000
,
1000
0000
0100
0000
1000
0000
0000
0000
0010
0000
0000
0100
0000
0000
0001
0000
,
0010
0000
0100
0000
1000
0000
0000
0000
0001
0000
0000
0100
0000
0000
0001
0000
,
1000
0010
1000
0010
0001
0010
0001
0010
,
0110
0000
0000
0000
0001
0000
0000
0000
1000
0000
0000
0100
0000
0000
1000
0000
,
0001
0000
1000
0000
0010
0000
0000
0000
1000
0000
0000
0100
0000
0000
0010
0000
,
0001
0000
0100
0000
0001
0000
0000
0000
1000
0000
0000
0010
0000
0000
1000
0000
,
0001
0010
0100
1000
0010
0010
0100
0000
,
1001
0000
0000
0001
0000
0000
0100
0000
0000
1000
0000
0000
0100
0000
0010
0000
,
1000
0000
0000
0100
0000
0000
0001
0000
0000
0100
0000
0000
0010
0000
0001
0000
,
1000
0000
1000
0000
0000
0010
0000
0000
0100
0000
0000
0001
0000
0000
0010
0000
,
0100
0000
0000
1000
0000
0000
0001
0000
0000
1000
0000
0000
0010
0000
0100
0000
,
1001
0000
0000
0001
0000
0000
0100
0000
0000
0010
0000
0000
1000
0000
0100
0000
,
1000
0000
0000
0010
0000
0000
0100
0000
0000
1000
0000
0000
0100
0000
0001
0000
,
1000
0000
1000
0000
0000
0100
0000
0000
0010
0000
0000
1000
0000
0000
0010
0000
,
0001
0000
0000
0100
0000
0000
1000
0000
0000
0010
0000
0000
0001
0000
1000
0000
,
0001
0000
0000
0100
0000
0000
0010
0000
0000
1000
0000
0000
0100
0000
0010
0000
,
0100
0000
0000
1000
0000
0000
0001
0000
0000
0100
0000
0000
0010
0000
1000
0000
,
0001
0000
0010
0000
0000
0001
0000
0000
1000
0000
0000
0010
0000
0000
0100
0000
,
0001
0000
0000
1000
0000
0000
0100
0000
0000
0010
0000
0000
0100
0000
1000
0000
,
0101
0000
0000
0100
0000
0000
0010
0000
0000
1000
0000
0000
0010
0000
1000
0000
,
1100
0000
0000
0100
0000
0000
0010
0000
0000
0001
0000
0000
0010
0000
0001
0000
,
1000
0001
1000
0001
0010
0100
0010
0100
,
1100
0000
0000
0101
0000
0000
1010
0000
0000
0011
0000
0000
1000
0000
0001
0000
,
2002
0000
0000
0000
,
3003
0000
0000
0000
,
0001
0100
0001
0100
0000
0010
1000
0010
,
1000
0100
1000
0100
0000
0010
0001
0000
,
1000
0001
1000
0001
0000
0010
0100
0010
,
0100
1000
0100
1000
0000
0001
0100
0001
,
1000
0010
1000
0010
0000
0100
0001
0100
,
0000
0001
0010
0001
0000
1000
0010
0000
,
1000
0001
1000
0001
0000
0010
0100
0010
,
0100
1000
0100
1000
0001
0100
0001
0100
,
0010
0000
1001
0000
1000
0100
0010
0000
,
1100
0000
0001
0000
0100
0010
1010
0000
,
0011
0000
0001
0000
0100
0010
1000
0000
,
0101
1000
1100
0101
,
1000
0100
1000
0100
0010
0001
0010
0001
,
0100
0001
0100
0001
1000
0010
1000
0010
,
1000
0001
1000
0001
0010
0100
0010
0100
,
1000
0000
0001
0000
0200
0000
0000
0000
0310
0000
0000
0010
0000
0000
0010
0000
,
2002
0000
0000
0000
,
3003
0000
0000
0000
,
0001
0000
0000
0100
0000
0000
0010
0000
0000
1000
0000
0000
0001
0000
1000
0000
,
0100
0000
0000
0010
0000
0000
0100
0000
1000
0000
0000
0010
0000
0000
0100
0000
,
0001
0000
0000
1000
0000
0000
0010
0000
0000
1000
0000
0000
0001
0000
0010
0000
,
0100
0000
0000
0001
0000
0000
0100
0000
0000
1000
0000
0000
0010
0000
0100
0000
,
0001
0000
0000
1000
0000
0000
0010
0000
1000
0000
0000
0000
0001
0000
0010
0000
,
0100
0000
0000
0001
0000
0000
0100
0000
1000
0000
0000
0001
0000
0000
0100
0000
,
1000
0000
0000
0100
0000
0000
0010
0000
1000
0000
0000
0001
0000
0000
1000
0000
,
0100
0001
0100
0001
0100
1000
0100
0000
,
1001
0000
0000
1000
0000
0000
0010
0000
0000
1000
0000
0000
0001
0000
0010
0000
,
0001
0000
0000
0100
0000
0000
0010
0000
1000
0000
0000
0100
0000
0000
0010
0000
,
0100
0000
0000
1000
0000
0000
0010
0000
0000
0100
0000
0000
0001
0000
1000
0000
,
0010
0000
0000
0001
0000
0000
0010
0000
0000
0100
0000
0000
0001
0000
1000
0000
,
0100
0000
0000
0010
0000
0000
0100
0000
1000
0000
0000
0000
0010
0000
1000
0000
,
0001
0000
0000
0010
0000
0000
1000
0000
0010
0000
0000
0001
0000
0000
1000
0000
,
0010
0000
0000
0100
0010
0000
0000
0000
0100
0000
0000
0001
1000
0000
0000
0000
,
0001
0000
0100
0000
0001
0000
1000
0000
0010
0000
0000
0010
0000
0000
0010
0000
,
1001
0000
0000
1000
0000
0000
0100
0000
0000
0010
0000
0000
0100
0000
1000
0000
,
0001
0000
0000
1000
0000
0000
0010
0000
0100
0000
0000
0001
0000
0000
0010
0000
,
0100
0000
0000
1000
0000
0000
0010
0000
0000
0100
0000
0000
0001
0000
1000
0000
,
0100
0000
0000
1000
0000
0000
0001
0000
0100
0000
0100
0000
0010
0000
0010
0000
,
1001
0000
0000
1000
0000
0000
0100
0000
1000
0000
0000
0000
0010
0000
0100
0000
,
0001
0000
0000
0010
0000
0000
0100
0000
0001
0000
0000
0100
0000
0000
1000
0000
,
0010
0000
0000
1000
0000
0000
0001
0000
0010
0000
0000
0001
0000
0000
1000
0000
,
0010
0000
0000
0100
0000
0000
0001
0000
0100
0000
0000
0010
0000
0000
1000
0000
,
1001
1000
0100
1000
0001
0100
0001
0000
,
1000
0001
0100
0001
1000
0100
1000
0000
,
0010
0100
0001
1000
0010
0100
0001
0000
,
1000
0100
0010
0001
1000
0100
0010
0000
,
0100
1000
0100
1000
0100
0010
0100
0010
,
0100
0001
0100
0001
0100
0010
0100
0010
,
0100
1000
0001
0000
0100
0001
1000
0000
,
1010
0000
0000
0000
0011
0000
0000
0000
0010
0000
0000
0100
0000
0000
0010
0000
,
2002
0000
0000
0000
,
0000
0000
0000
0000
,
3003
0000
0000
0000
;

//--------------- dance-single - forcednature ----------------
#NOTES:
     dance-single:
     forcednature:
     Medium:
     14:
     0,0,0,0,0:
0000
0000
0000
0000
,
0000
0000
0000
0000
,
0000
0000
0000
0000
,
0000
0000
0000
0000
,
0000
0000
0000
0000
,
0000
0000
0000
0000
,
0001
0000
0100
0000
0001
0000
1000
0000
0010
0000
0000
0010
0000
0000
1000
0000
,
0100
0000
0010
0000
0001
0000
0100
0000
0010
0000
0000
0010
0000
0000
1000
0000
,
0001
0000
0010
0000
0100
0000
1000
0000
0010
0000
0000
0010
0000
0000
1000
0000
,
0100
0000
0001
0000
0100
0000
1000
0000
0100
0000
0010
0000
0001
1000
0001
0000
,
0100
0000
0010
0000
1000
0000
0001
0000
1000
0000
0000
1000
0000
0000
1000
0000
,
0010
0000
0100
0000
1000
0000
0100
0000
0001
0000
0000
0001
0000
0000
0001
0000
,
0010
0000
0001
0000
1000
0000
0010
0000
0100
0000
0000
0100
0000
0000
0100
0000
,
0001
0000
1000
0000
0100
0000
0010
0000
0100
0000
0000
0100
0000
0000
0100
0010
,
0100
0000
1000
0000
0001
0000
1000
0000
0010
0000
0000
0010
0000
0000
0010
0000
,
0100
0000
0001
0000
1000
0000
0100
0000
0010
0000
0000
0010
0000
0000
0010
0000
,
0001
0000
1000
0000
0001
0000
0100
0000
1000
0000
0000
1000
0000
0000
1000
0000
,
0100
0000
0100
0000
0010
0000
0010
0000
1000
0000
0001
1000
0000
0001
1000
0001
,
1000
0000
0100
0000
0001
0000
0100
0000
0010
0000
0000
0001
0000
0000
1000
0000
,
0010
0000
0100
0000
0001
0000
0100
0000
1000
0000
0000
0100
0000
0000
0010
0000
,
1000
0000
0001
0000
1000
0000
0100
0000
0010
0000
0000
1000
0000
0000
0010
0000
,
0001
0000
1000
0000
1000
0000
0001
0000
0001
0000
0100
0001
0000
1000
0100
0000
,
1001
0000
0001
0000
0100
0000
0010
0000
1000
0000
0000
0100
0000
0000
0010
0000
,
0100
0000
1000
0000
0010
0000
0100
0000
0001
0000
0000
1000
0000
0000
0001
0000
,
0010
0000
1000
0000
0010
0000
0001
0000
0100
0000
0000
0010
0000
0000
1000
0000
,
0001
0000
0100
0010
0100
0000
1000
0000
0100
0000
0100
0000
1001
0000
0000
0000
,
0001
0000
0000
0100
0000
0000
1000
0000
0000
0100
0000
0000
0001
0000
1000
0000
,
0100
0000
0000
0001
0000
0000
0100
0000
0000
1000
0000
0000
0010
0000
1000
0000
,
0001
0000
0010
0000
0100
1000
0000
0100
1000
0000
0100
1000
0000
0100
1000
0000
,
0001
0000
0000
0100
0000
0000
0010
0000
1000
0000
0001
1000
0001
0000
0010
0000
,
0001
0000
0000
0100
0000
0000
0010
0000
0000
1000
0000
0000
0100
0000
0010
0000
,
0100
0000
0000
1000
0000
0000
0010
0000
0000
0100
0000
0000
0001
0000
1000
0000
,
0010
0000
0010
0000
0000
0100
0000
0000
0001
0000
0000
1000
0000
0000
0100
0010
,
0100
0000
0000
0010
0000
0000
1001
0000
0000
0110
0000
0000
0001
1000
0001
1000
,
0001
0000
0000
0100
0000
0000
0010
0000
0000
1000
0000
0000
0100
0000
0010
0000
,
0100
0000
0000
1000
0000
0000
0001
0000
0000
0100
0000
0000
0010
0000
1000
0000
,
0001
0000
0001
0000
1000
0010
0000
1000
0010
0000
1000
0010
0000
1000
0010
0000
,
0100
0000
0000
0001
0000
0000
0010
0000
0100
0000
1000
0001
1000
0000
0100
0000
,
1001
0000
0000
0010
0000
0000
1000
0000
0000
0001
0000
0000
0010
0000
0100
0000
,
0110
0000
0000
0001
0000
0000
1000
0000
0000
0100
0000
0000
0010
0000
0001
0000
,
1001
0001
0100
0001
1001
1000
0100
1000
,
1001
0000
0000
0110
0000
0000
1001
0000
0000
0110
0000
0000
1000
0001
1000
0001
,
0200
0000
0000
0000
,
0300
0000
0000
0000
,
0001
0100
0010
2000
0000
3001
1000
0100
,
0010
0100
1000
0002
0000
1003
0020
0000
,
0130
0001
0100
0020
0000
1030
0100
0010
,
0001
1000
0001
0020
0000
0130
1000
0001
,
1000
0010
0100
0002
0000
1003
0100
0020
,
0000
0031
1000
0020
0000
0130
2000
0000
,
3100
0001
1000
0200
0000
0310
0001
1000
,
0010
1000
0001
0010
0100
1000
0001
0100
,
0010
1000
0001
1000
0100
0010
0001
0000
,
0101
0000
1000
0100
1000
0010
0110
0000
,
1001
0000
0001
0010
0001
0100
0010
0000
,
1100
0001
0101
1100
,
1000
0010
1000
0010
0001
0010
0001
0010
,
1000
0100
1000
0100
0001
0100
0001
0100
,
1000
0100
1000
0000
0100
0000
1000
0000
0001
0100
0001
0000
0100
0000
0001
0000
,
1000
0001
1000
0001
2000
0000
0000
0000
3010
0000
0000
0100
0000
0000
0010
0000
,
2002
0000
0000
0000
,
3003
0000
0000
0000
0000
0000
0100
0100
,
1001
0000
0000
0001
0000
0000
1000
0000
0000
0010
0000
0000
0100
0000
0001
0000
,
0010
0000
0000
0010
0100
0000
1000
0000
0010
0000
0000
0010
0100
0000
0001
0000
,
1000
0000
0000
0100
0000
0000
1000
0000
0000
0001
0000
0000
0100
0000
0010
0000
,
1000
0000
0000
1000
0000
0000
0001
0000
0100
0000
0010
1000
0010
0000
0100
0000
,
0101
0000
0000
0001
0000
0000
1000
0000
0200
0000
0000
0000
0310
0000
0100
0000
,
1000
0000
0000
1000
0001
0000
0100
0000
0001
0000
0000
0001
1000
0000
0100
0000
,
0010
0000
0000
0010
0001
0000
1000
0000
0010
0000
0000
0010
1000
0000
0001
0000
,
0010
0000
0100
0000
1000
0000
0001
0000
0100
0000
0010
1000
0000
0001
0010
0000
,
1001
0000
0000
1000
0000
0000
0010
0000
0000
0100
0000
0000
0001
0000
0010
0000
,
0100
0000
0000
0100
1000
0000
0010
0000
0100
0000
0000
0100
0001
0000
0010
0000
,
0001
0000
0000
0100
0000
0000
1000
0000
0000
0100
0000
0000
0010
0000
1000
0000
,
0100
0000
0000
0100
0000
0000
0010
0000
0001
0000
1000
0001
1000
0000
0100
0000
,
0110
0000
0000
1000
0000
0000
0001
0000
0200
0000
0000
0000
0310
0000
1000
0000
,
0001
0000
0000
0001
0010
0000
0100
0000
1000
0000
0000
1000
0010
0000
0100
0000
,
0010
0000
0000
0010
1000
0000
0100
0000
0010
0000
0000
0010
0001
0000
0100
0000
,
0010
0000
1000
0000
0010
0000
0001
0000
0010
0000
1000
0001
0000
1000
0001
0000
,
1001
0000
0000
1000
0000
0000
0100
0000
0000
0001
0000
0000
0100
0000
0010
0000
,
0001
0000
0000
0100
0010
0000
1000
0000
1000
0000
0000
0100
0010
0000
0001
0000
,
0001
0000
0000
0100
0000
0000
1000
0000
0000
0001
0000
0000
0010
0000
1000
0000
,
0100
0000
0000
0100
0000
0000
0010
0000
0001
0000
1000
0010
1000
0000
0100
0000
,
1001
0000
0000
0001
0000
0000
1000
0000
0020
0000
0000
0000
0130
0000
1000
0000
,
0100
0000
0000
0100
0001
0000
1000
0000
0100
0000
0000
0100
0001
0000
1000
0000
,
0010
0000
0000
0010
0001
0000
1000
0000
0010
0000
0000
0010
0100
0000
1000
0000
,
0100
0000
0001
0000
1000
0000
0100
0000
0010
0000
0001
1000
0000
0010
0100
0000
,
1001
0000
0000
0001
0100
0000
0001
0000
1000
0100
0000
0000
1000
0000
0010
0000
,
0100
0000
0000
0001
0100
0000
0010
0000
1000
0000
0000
0100
0010
0000
0100
0000
,
1000
0000
0000
0001
0100
0000
0010
0000
1000
0001
0000
0000
0010
0000
0100
0000
,
1000
0000
0000
0010
0100
0000
0001
0000
0010
0000
0001
1000
0001
0000
0100
0000
,
0010
0001
0010
0001
0010
1000
0010
1000
,
0100
1000
0100
1000
0100
0001
0100
0001
,
0100
0010
0100
0000
1000
0001
1000
0000
0001
0100
0001
0000
1000
0100
1000
0000
,
0010
0000
0001
0000
0010
0000
1000
0000
0100
0000
1000
0001
0000
0010
0100
0000
,
2002
0000
0000
0000
,
0000
0000
0000
0000
,
3003
0000
0000
0000
;

//--------------- dance-single - forcednature ----------------
#NOTES:
     dance-single:
     forcednature:
     Hard:
     16:
     0,0,0,0,0:
0000
0000
0000
0000
,
0000
0000
0000
0000
,
0000
0000
0000
0000
,
0000
0000
0000
0000
,
0000
0000
0000
0000
,
0000
0000
0000
0000
,
0001
0100
0001
0000
0010
0000
0100
0000
1000
0000
0000
0100
0000
0000
0001
0000
,
0100
0010
0100
0000
1000
0000
0010
0000
0100
0000
0000
1000
0000
0000
0100
0000
,
0001
0010
0001
0000
1000
0000
0010
0000
1000
0000
0000
0100
0000
0000
0010
0000
,
0100
0000
0100
0000
0100
0000
0100
0000
0100
0000
1000
0001
1000
0001
1000
0000
,
1001
0000
1000
0000
0100
0000
0000
0000
0010
0000
0000
0010
0001
0000
1000
0000
,
0010
0100
0010
0000
1000
0000
0000
0000
0100
0000
0000
0100
1000
0000
0001
0000
,
0100
0010
0100
0000
0001
0000
0000
0000
1000
0000
0000
1000
0100
0000
0010
0000
,
0001
1000
0001
0000
0100
0000
0000
0000
0010
0000
1000
0010
1000
0010
1000
0000
,
0100
1000
0100
0000
0010
0000
0000
0000
0001
0000
0000
0001
1000
0000
0001
0000
,
0100
0010
0100
0000
0001
0000
0000
0000
0010
0000
0000
0010
0100
0000
1000
0000
,
0010
0100
0010
0000
1000
0000
0000
0000
0001
0000
0000
0001
0010
0000
0100
0000
,
1000
0000
1000
0000
1000
0000
1000
0000
1000
0000
0001
0100
0001
0100
0001
0000
,
0010
0000
0100
0000
1000
0000
0001
0000
0100
0000
0010
0100
0001
0100
0010
0000
,
1000
0000
0001
0000
0010
0000
0100
0000
1000
0000
0001
1000
0100
1000
0001
0000
,
0010
0000
0100
0000
1000
0000
0010
0000
0100
0000
0010
1000
0001
1000
0100
0000
,
0010
0000
0001
0000
0001
0000
0001
0000
0001
0000
0100
0010
1000
0100
0010
0000
,
0001
0010
0001
0000
1000
0000
0100
0000
1000
0000
0010
0100
0010
1000
0001
0000
,
0010
0100
0010
0000
0001
0000
1000
0000
0100
0000
1000
0001
0100
0010
0100
0000
,
0001
0010
0001
0000
1000
0000
0100
0000
1000
0000
0010
0100
0010
1000
0100
0000
,
0010
0000
0001
1000
0001
0000
0100
0000
0100
0000
0010
1000
0010
0000
0100
0000
,
0002
0000
0000
0010
0000
0000
1000
0000
0000
0100
0000
0000
0013
0000
0001
0000
,
0100
0010
0000
0100
0010
0000
0100
0010
0000
0100
0010
0000
1000
0000
0001
0000
,
0010
0000
0100
0000
1000
0100
0000
1000
0100
0000
0010
0001
0000
0010
0001
0000
,
1000
0000
0000
0001
0000
0000
0100
0000
0010
0000
1000
0001
1000
0000
0010
0000
,
0200
0000
0000
1000
0000
0000
0010
0000
0000
0001
0000
0000
1300
0000
0100
0000
,
0001
1000
0000
0001
1000
0000
0010
0100
0000
0010
0100
0000
0001
0000
0010
0000
,
0100
0000
1000
0000
0001
0100
0000
0000
0010
0000
1000
0001
1000
0001
1000
0000
,
1001
0000
0000
0110
0000
0000
1001
0000
0000
0110
0000
0000
1000
0100
1000
0100
,
0020
0000
0000
1000
0000
0000
0001
0000
0000
1000
0000
0000
0130
0000
0010
0000
,
0001
0100
0000
0010
0100
0000
1000
0100
0000
0010
0100
0000
0001
0000
0001
0000
,
1000
0000
1000
0000
0100
1000
0000
0100
1000
0000
0001
0100
0000
0001
0100
0000
,
0010
0000
0000
1000
0000
0000
0100
0000
0010
0000
0001
1000
0001
0000
0100
0000
,
0110
0000
0000
1000
0100
0000
0010
0000
0100
0001
0000
0000
1000
0000
0100
0000
,
0110
0000
0000
0001
0100
0000
0010
0000
0100
1000
0000
0000
0001
0000
0100
0000
,
1001
0000
1000
0000
0100
0000
0010
0000
1001
0000
0001
0000
0100
0010
0100
0000
,
0001
0010
0000
0100
1000
0000
0010
1000
0000
0001
0100
0000
0001
1000
0001
1000
,
0200
0000
0000
0000
,
0300
0000
0000
0000
,
1000
0001
0010
0200
0000
0310
0001
0100
,
0010
1000
0100
0020
0000
0031
2000
0000
,
3010
1000
0001
0020
0000
0130
1000
0001
,
0100
0001
1000
0200
0000
0310
0001
0100
,
0010
1000
0100
0020
0000
0031
1000
0002
,
0000
0103
0001
0020
0000
0130
0002
0000
,
0103
1000
0010
2000
0000
3001
0100
0010
,
1000
0100
0010
0001
0010
1000
0010
0001
,
1001
0001
0100
0010
1000
0100
0010
0000
,
1001
1000
0001
0100
0010
1000
1001
0000
,
0110
0001
1000
0010
1000
0100
0010
0000
,
0110
0100
0101
1100
,
1001
0001
0100
0001
0100
0001
0100
0001
,
1001
1000
0100
1000
0100
1000
0100
1000
,
0001
0100
0001
0000
1000
0100
1000
0000
0001
0010
0001
0000
1000
0010
1000
0000
,
0001
1000
0001
1000
0200
0000
0000
0000
0310
0000
0000
1001
0000
0000
0110
0000
,
2002
0000
0000
0000
,
3003
0000
0000
0000
0000
0000
0001
1000
,
0001
0000
0100
0001
0000
1000
0001
0000
0010
0001
0000
0010
0100
0000
1000
0000
,
0010
0000
1000
0001
0000
0000
1100
0000
0010
0000
0001
1000
0000
0000
0101
0000
,
0010
0000
1000
0001
0000
1000
0100
0000
0010
0001
0000
1000
0001
0000
0100
0000
,
0010
0000
1000
0010
0000
0100
0001
0000
0010
0000
0001
1000
0001
0000
0100
0000
,
1002
0000
0000
0100
0000
0000
1000
0000
0023
0000
0000
0000
0031
0000
0010
0000
,
0100
0000
0000
0100
1000
0000
0010
0000
0100
0000
0000
0100
0001
0000
0010
0001
,
0010
0000
0000
0100
1000
0000
0010
0000
0100
0000
0000
0001
0010
0000
0001
0000
,
1000
0000
0100
0000
0001
0000
0100
0000
1000
0000
0010
0100
0000
0001
0100
0010
,
1000
0000
0100
0010
0000
0001
1000
0000
0010
1000
0000
0001
0010
0000
0100
0000
,
1000
0000
0001
1000
0000
0000
0110
0000
0001
0000
1000
0001
0000
0000
0110
0000
,
1000
0000
0100
0010
0000
0001
0100
0000
0010
1000
0000
0001
0010
0000
0100
0000
,
1000
0000
0010
0100
0000
0001
1000
0000
0100
0000
0010
0001
0010
0000
0100
0000
,
1020
0000
0000
0001
0000
0000
0100
0000
2030
0000
0000
0000
3010
0000
1000
0000
,
0100
0000
0000
0100
0001
0000
1000
0000
0010
0000
0000
0010
0001
0000
0100
0010
,
0100
0000
0000
0001
1000
0000
0100
0000
0010
0000
0000
0001
1000
0000
0010
0000
,
0001
0000
1000
0000
0100
0000
0001
0000
1000
0000
0100
0010
0000
0001
1000
0010
,
0100
0000
0001
0100
0000
1000
0100
0000
0001
0100
0000
1000
0100
0000
0010
0000
,
1000
0000
0001
0010
0000
0000
1100
0000
0001
0000
1000
0010
0000
0000
0101
0000
,
0001
0000
1000
0100
0000
0010
0100
0000
0001
0100
0000
0010
0100
0000
1000
0000
,
0010
0000
0100
0001
0000
1000
0100
0000
0010
0000
0001
0100
0001
0000
0010
0000
,
0210
0000
0000
0001
0000
0000
0010
0000
2300
0000
0000
0000
3100
0000
1000
0000
,
0010
0000
0000
0100
1000
0000
0100
0000
0010
0000
0000
0100
0001
0000
1000
0001
,
1000
0000
0000
0100
0001
0000
0100
0000
1000
0000
0000
0010
0001
0000
0010
0000
,
1000
0000
0100
0000
0010
0000
0001
0000
0100
0000
0010
1000
0000
0001
0010
0100
,
1000
0000
0001
0010
0000
0001
0100
0000
0010
1000
0000
0100
1000
0000
0010
0000
,
0100
0000
1000
0100
0000
0000
1001
0000
0100
0000
0001
0100
0000
0000
1001
0000
,
0001
0000
1000
0100
0000
0001
0100
0000
1000
0010
0000
0001
0010
0000
0100
0000
,
0010
0000
1000
0001
0000
0010
0100
0000
1000
0000
0010
0100
0001
0000
0010
0000
,
1100
0000
1000
0010
0100
0000
0100
0000
0001
0000
0001
0000
0010
0000
0010
0000
,
0110
0000
0010
0100
1000
0000
0010
0000
0100
0000
0010
0100
0001
0000
1000
0001
,
0010
0000
0001
0100
0010
0000
1000
0100
0010
0000
0100
1000
0001
0000
0100
0010
,
1000
0000
1000
0000
0001
0000
0001
0000
0100
0000
0001
1000
0000
0100
0010
0100
,
0020
0000
0000
0000
,
0000
0000
0000
0000
,
0030
0000
0000
0000
;

//--------------- dance-single - forcednature ----------------
#NOTES:
     dance-single:
     forcednature:
     Challenge:
     18:
     0,0,0,0,0:
0000
0000
0000
0000
,
0000
0000
0000
0000
,
0000
0000
0000
0000
,
0000
0000
0000
0000
,
0000
0000
0000
0000
,
0000
0000
0000
0000
,
0001
0100
0001
0000
1000
0000
0010
0000
1000
0000
0100
0010
0000
0010
0100
0000
,
1000
0001
1000
0000
0100
0000
1000
0000
0100
0000
0010
0001
0000
0001
0010
0000
,
0100
1000
0100
0000
1000
0000
0001
0000
0100
0000
0010
1000
0000
1000
0010
0000
,
0100
0000
0100
0000
0001
0000
0001
0000
1000
0000
1000
0001
1000
0100
0010
0001
,
1000
0010
1000
0000
0001
0000
0010
0000
0100
0000
1000
0001
0000
0001
1000
0000
,
0001
0100
0001
0000
1000
0000
0010
0000
1000
0000
0100
0010
0000
0010
0100
0000
,
1000
0010
1000
0000
0001
0000
0010
0000
0001
0000
0100
0010
0000
0010
0100
0000
,
0001
0010
0001
0000
0100
0000
0010
0000
1000
0000
0001
0010
0001
0010
0001
0000
,
1000
0100
0010
0000
0100
0000
1000
0000
0001
0000
0100
0001
0000
0001
1000
0000
,
0010
1000
0001
0000
0010
0000
0100
0000
1000
0000
0001
0100
0000
0100
0010
0000
,
1000
0100
0010
0000
0100
0000
1000
0000
0001
0000
0010
0001
0000
0001
1000
0000
,
0100
0000
0100
0000
0010
0000
0010
0000
0001
0000
0001
1000
0010
0100
0001
1000
,
0001
0010
0100
0000
1000
0001
0100
0000
0010
0000
1000
0001
0100
0001
1000
0000
,
0100
0010
0001
0000
0100
0010
1000
0000
0001
0000
0010
0100
1000
0100
1000
0000
,
0010
0100
0001
0000
1000
0100
0010
0000
0100
0000
1000
0001
0010
0001
0100
0000
,
0010
0000
1000
0000
1000
0000
1000
0000
1000
0000
1000
0100
0010
0001
0100
0010
,
1000
0001
0100
0000
0001
0010
0100
0000
0010
0000
0001
1000
0010
0100
0001
0000
,
0100
0010
1000
0000
0001
0010
0100
0000
1000
0000
0010
0100
0001
1000
0100
0000
,
0010
0001
0100
0000
0010
1000
0001
0000
0010
0000
0001
0100
0010
1000
0100
0010
,
0001
0000
0000
0000
0000
0000
1000
0000
0010
0000
1000
0000
0010
0000
0000
0000
0000
0000
0100
0000
0000
0000
0000
0000
0100
0000
0000
0000
0000
0000
0001
0000
1000
0000
0001
0000
1000
0000
0000
0100
0000
0000
0010
0000
0000
0000
0000
0000
,
0001
1000
0000
1100
0000
0000
0101
0000
0000
1001
0000
0000
0001
0000
1000
0000
,
0010
1000
0000
1000
0001
0000
0001
0100
0000
0100
0010
0000
1000
0000
1000
0000
,
0100
0000
0100
0000
0010
0001
0000
0001
0100
0000
0100
1000
0000
1000
0100
0000
,
0001
1000
0000
0100
1000
0000
0001
0100
0001
0000
1000
0010
1000
0100
0010
0001
,
0100
0010
0000
0101
0000
0000
1100
0000
0000
0110
0000
0000
1000
0000
0001
0000
,
0010
1000
0000
1000
0010
0000
0010
0001
0000
0001
0100
0000
0010
0000
0010
0000
,
1000
0000
1000
0000
0001
0100
0010
0000
1000
0000
0001
1000
0100
0010
0001
0000
,
0101
0000
0000
1100
0000
0000
1010
0000
0000
0011
0000
0000
0001
0100
0010
1000
,
0001
0010
0000
0110
0000
0000
1100
0000
0000
0011
0000
0000
1000
0000
0001
0000
,
0100
1000
0000
0100
0010
0000
0100
0001
0000
0100
0010
0000
1000
0000
1000
0000
,
0001
0000
0001
0000
0010
1000
0000
0010
0001
0000
1000
0001
0000
0100
0010
0000
,
1000
0100
0000
1000
0010
0000
0100
0001
0010
0100
0010
0100
1000
0001
1000
0001
,
0100
0010
0000
1100
0000
0000
0101
0000
0000
1001
0000
0000
1000
0100
0010
0001
,
0100
0010
0000
1000
0100
0000
0001
0100
0000
0010
0001
0000
1000
0000
1000
0000
,
1001
0000
0001
0000
0100
0000
0100
0000
0110
0000
0010
1000
0001
0100
0001
0010
,
0100
1000
0001
0100
0001
1000
0010
1000
0001
0010
0001
1000
0010
0100
0001
1000
,
0200
0000
0000
0000
,
0300
0000
0000
0000
,
2000
3020
0230
0302
0000
0203
2300
3200
,
0302
0023
0230
0302
0000
2003
3020
0000
,
0032
2003
3020
0032
0000
2003
3200
0302
,
2003
3200
0320
2030
0000
3002
0203
0320
,
0032
2003
3200
0320
0000
0032
2003
3020
,
0000
2030
3200
0302
0000
0203
0320
0000
,
0032
0203
2300
3200
0000
0320
2030
3002
,
0023
0032
0203
0320
2030
3200
0320
0032
,
1003
0000
0001
0000
0100
0000
0010
0000
1000
0000
0100
0000
0010
0001
0010
0000
,
1001
0000
0001
0000
0100
0000
0010
1000
0010
1000
0010
0000
1001
0000
0000
0000
,
1001
0000
1000
0000
0100
0000
0010
0001
0010
0001
0010
0000
0100
0000
1000
0000
,
1001
0100
0010
0100
1001
0010
1001
0000
,
1001
0001
0100
1000
0001
0010
1000
0001
,
1001
1000
0100
0001
1000
0010
0001
1000
,
0001
0100
0001
0100
0010
1000
0010
1000
0100
1000
0100
1000
0001
0010
0001
0010
,
0001
0100
0010
1000
0200
0000
0000
0000
0310
0000
0000
1100
0000
0000
0101
0000
,
2002
0000
0000
0000
,
3003
0000
0000
0000
0000
0000
1001
1001
,
1001
0000
1000
0001
0000
0010
0100
0000
1000
0010
0000
0100
0001
0000
0010
0000
,
0011
0000
0000
1010
0000
0000
1001
0000
1100
0000
0000
0101
0000
0000
0011
0000
,
0001
0000
1000
0100
0000
0010
0001
0000
0010
1000
0000
0010
0100
0000
1000
0000
,
0010
0000
0001
0010
0000
1000
0001
0000
0010
0000
0010
0100
0010
0000
0010
0000
,
1001
0000
1000
0100
0000
0010
0001
0000
0100
0010
0000
0100
0001
0000
0010
0000
,
1001
0000
0000
0101
0000
0000
1100
0000
1010
0000
0000
0001
0010
0000
0010
0100
,
0010
0000
0001
0100
0010
1000
0100
0000
0010
0000
0001
1000
0010
1000
0100
0000
,
0010
0000
0010
0000
0010
0000
0010
0000
0010
0000
0100
1000
0001
0010
0001
0100
,
0010
0000
1000
0100
0000
0010
0100
0000
0001
0100
0000
0010
0100
0000
1000
0000
,
1010
0000
0000
0110
0000
0000
0101
0000
0011
0000
0000
0110
0000
0000
1100
0000
,
1000
0000
0001
0100
0000
0010
1000
0000
0010
0001
0000
0010
1000
0000
0100
0000
,
0010
0000
0001
0100
0000
1000
0100
0000
0010
0000
0010
0100
0010
0000
0010
0000
,
1001
0000
0001
0010
0000
0100
0010
0000
0001
1000
0000
0010
0100
0000
0001
0000
,
0011
0000
0000
1100
0000
0000
1010
0000
0101
0000
0000
1000
0010
0000
0010
0100
,
0010
0000
0100
0001
0010
0100
0010
0000
0010
0000
0100
1000
0010
0100
0010
0000
,
0010
0000
0010
0000
0110
0000
0010
0000
0010
0000
0100
0001
1000
0100
0010
0001
,
1000
0000
0001
0100
0010
1000
0100
0000
0010
0001
0000
1000
0010
0000
0100
0000
,
0101
0000
0000
1100
0000
0000
0110
0000
1010
0000
0000
0011
0000
0000
1001
0000
,
1000
0000
0001
0100
0010
1000
0001
0000
0010
0100
0000
0010
0001
0000
0100
0000
,
0010
0000
1000
0100
0000
0001
0100
0000
0010
0000
0010
0100
0010
0000
0010
0000
,
1001
0000
0001
0010
0100
1000
0010
0000
0100
0001
0000
0100
1000
0000
0100
0000
,
0101
0000
0000
1100
0000
0000
1010
0000
0011
0000
0000
1000
0010
0000
0010
0100
,
0010
0000
1000
0100
0001
0100
1000
0000
0010
0000
0100
1000
0100
0001
0100
0000
,
0010
0000
0010
0000
0010
0000
0010
0000
0010
0000
0100
0001
0010
0100
1000
0010
,
0100
0000
0001
0010
0100
0010
0001
0000
1000
0010
0000
1000
0100
0000
0010
0000
,
0110
0000
0000
1001
0000
0000
0101
0000
1100
0000
0000
0110
0000
0000
1001
0000
,
0001
0000
1000
0100
0010
0100
0001
0000
0100
1000
0000
0001
0100
0000
1000
0000
,
0100
0000
0001
0010
0000
0100
1000
0000
0010
0000
0010
0100
0010
0000
0010
0000
,
1001
0000
0001
0100
0010
1000
0100
0010
0001
0000
0010
0100
1000
0001
0100
0010
,
1000
0000
0100
1000
0001
0100
0010
1000
0100
0000
0010
0001
0100
0010
1000
0100
,
0010
0100
1000
0010
0100
0001
0010
0001
0100
0010
1000
0100
1000
0010
0100
0001
,
0010
0100
0010
1000
0010
0100
0010
0001
1000
0001
0100
0010
0100
1000
0100
0001
,
0020
0000
0000
0000
,
0000
0000
0000
0000
,
0030
0000
0000
0000
;
