#TITLE:Drive Me Crazy (Al Storm Remix);
#SUBTITLE:;
#ARTIST:Asio feat. Fraz & Yasmine;
#TITLETRANSLIT:;
#SUBTITLETRANSLIT:;
#ARTISTTRANSLIT:;
#GENRE:;
#CREDIT:;
#MUSIC:Drive Me Crazy (Al Storm Remix).mp3;
#BANNER:;
#BACKGROUND:;
#CDTITLE:;
#SAMPLESTART:44.641;
#SAMPLELENGTH:13.714;
#SELECTABLE:YES;
#OFFSET:-0.070;
#BPMS:0.000=140.000;
#STOPS:;
#BGCHANGES:;
#FGCHANGES:;

//--------------- dance-single - MEGAtive ----------------
#NOTES:
     dance-single:
     MEGAtive:
     Beginner:
     2:
     0,0,0,0,0:
0000
0000
0000
0000
,
0000
0000
0000
0000
,
0000
0000
0000
0000
,
0000
0000
0000
0000
,
0000
0000
0000
0000
,
0000
0000
0000
0000
,
1000
0000
0000
0000
,
0001
0000
0000
0000
,
0100
0000
0000
0000
,
0010
0000
0000
0000
,
1001
0000
0000
0000
,
0010
0000
0000
0000
,
0100
0000
0000
0000
,
0001
0000
0000
0000
,
1000
0000
0000
0000
,
0100
0000
0000
0000
,
0010
0000
0000
0000
,
0001
0000
0000
0000
,
1001
0000
1000
0000
,
1000
0000
0000
0000
,
0010
0000
0010
0000
,
0010
0000
0000
0000
,
0100
0000
0100
0000
,
0100
0000
0000
0000
,
0001
0000
0001
0000
,
0002
0000
0000
0000
,
1003
0000
0100
0000
,
1000
0000
0000
0000
,
0001
0000
0100
0000
,
0001
0000
0000
0000
,
1000
0000
0010
0000
,
1000
0000
0000
0000
,
0001
0000
0010
0000
,
0002
0000
0000
0000
,
1003
0000
0000
0000
,
0010
0000
0000
0000
,
0100
0000
0000
0000
,
0010
0000
0000
0000
,
1000
0000
0000
0000
,
0001
0000
0000
0000
,
0010
0000
0000
0000
,
0200
0000
0000
0000
,
1300
0000
0000
0000
,
1001
0000
0000
0000
,
0110
0000
0000
0000
,
1001
0000
0000
0000
,
0001
0000
0010
0000
,
0001
0000
0000
0000
,
1000
0000
0100
0000
,
2000
0000
0000
0000
,
3001
0000
0100
0000
,
0001
0000
0000
0000
,
1000
0000
0100
0000
,
1000
0000
0000
0000
,
0001
0000
0010
0000
,
0001
0000
0000
0000
,
1000
0000
0010
0000
,
2002
0000
0000
3003
;

//--------------- dance-single - MEGAtive ----------------
#NOTES:
     dance-single:
     MEGAtive:
     Easy:
     5:
     0,0,0,0,0:
0000
0000
0000
0000
,
0000
0000
0000
0000
,
0000
0000
0000
0000
,
0000
0000
0000
0000
,
0000
0000
0000
0000
,
0000
0000
0000
0000
,
0002
0000
0103
0000
,
2000
0000
3010
0000
,
0002
0000
0013
0000
,
2000
0000
3100
0000
,
1000
0000
0010
0100
,
0010
0000
1000
0001
,
1000
0000
0100
0010
,
0001
1000
0001
0000
,
1000
0000
0010
0100
,
0010
0000
1000
0001
,
1000
0000
0100
0010
,
0100
1000
0001
1000
,
0001
0100
0010
0000
,
1001
0000
1000
0100
,
0010
0001
1000
0000
,
0110
0000
0010
1000
,
0001
0001
0001
0001
,
1000
1000
1000
1000
,
0001
0010
0100
1000
,
0020
0000
0000
0000
,
1030
0100
1000
0100
,
0010
0001
0010
0001
,
1000
0010
1000
0010
,
0100
0001
0100
0001
,
1000
0100
0010
0100
,
1000
0010
0100
0010
,
0100
0001
0010
0100
,
2000
0000
0000
0000
,
3001
0000
0001
0100
,
0010
0000
1000
0100
,
0010
0000
0001
1000
,
0010
0000
0110
0000
,
1001
0000
1000
0100
,
0010
0000
0001
0100
,
0010
0000
1000
0001
,
0020
0000
0000
0000
,
0130
0000
1001
0000
,
0110
0000
0000
0000
,
1001
0000
0110
0000
,
1001
0000
0000
0000
,
1001
0000
1000
0100
,
0010
0100
0010
0000
,
1001
0000
0001
0100
,
0020
0000
0000
0000
,
1030
0000
0001
0010
,
0001
0010
0100
0000
,
1000
0000
0001
0100
,
0001
0100
0010
1000
,
0001
0000
1000
0100
,
1000
0100
0010
0000
,
0002
0000
1003
0000
,
0220
0000
0000
0330
;

//--------------- dance-single - MEGAtive ----------------
#NOTES:
     dance-single:
     MEGAtive:
     Medium:
     9:
     0,0,0,0,0:
0000
0000
0000
0000
,
0000
0000
0000
0000
,
0000
0000
0000
0000
,
0000
0000
0000
0000
,
0000
0000
0000
0000
,
0000
0000
0000
0000
,
0001
0000
0001
0000
0001
0000
0000
0100
,
0010
0000
0010
0000
0010
0000
0000
0010
,
1000
0000
1000
0000
1000
0000
0000
0100
,
0010
0000
1001
0000
,
1000
0100
1000
0000
0001
0000
0001
0000
,
0100
0010
0100
0000
0010
1000
0010
0000
,
1000
0001
1000
0000
0100
0000
0100
0000
,
0010
0001
0100
0000
0010
0000
0010
0000
,
1000
0010
1000
0000
0001
0000
0001
0000
,
0010
0100
0010
0000
0100
1000
0100
0000
,
1000
0001
1000
0000
0010
0000
0010
0000
,
0110
0100
0101
0001
,
1000
0000
0001
0010
0100
0000
1000
0000
,
0100
1000
0001
1000
,
0001
0000
0100
0010
1000
0000
0001
0000
,
0100
0001
1000
0001
,
1000
0100
1000
0000
0001
0010
0001
0000
,
1000
0010
1000
0000
0001
0100
0001
0000
,
1000
0100
0010
0000
0001
0100
0010
0000
,
2000
0000
0000
0000
,
3002
0000
0013
0100
1000
0100
1000
0001
,
0200
0000
0310
1000
0001
1000
0100
0010
,
0002
0000
0013
0100
1000
0001
1000
0010
,
0200
0000
0310
1000
0001
1000
0100
0010
,
0002
0000
0013
0100
1000
0001
0100
0010
,
2000
0000
3010
0100
0001
1000
0001
0010
,
0200
0000
0310
0001
1000
0001
0100
0010
,
2000
0010
0010
0010
,
3001
0000
0001
0000
1000
0100
0010
0000
,
0100
0000
0100
0000
1000
0001
0100
0000
,
0010
0000
0010
0000
0100
0001
0010
0000
,
0100
0000
0100
0010
0100
0000
1000
0001
,
1000
0000
1000
0000
0001
0100
0010
0000
,
0100
0000
0100
0000
0001
1000
0100
0000
,
0010
0000
0010
0000
0100
1000
0010
0000
,
0200
0000
0010
0000
0010
0000
0310
1000
,
0001
0011
1000
1010
,
0002
0010
0013
0001
,
1000
1010
0001
0011
,
2000
0010
0010
3010
,
1000
0001
0010
0000
0001
1000
0010
0000
,
0100
0001
1000
0000
0100
1000
0001
0000
,
0100
0010
0100
0010
1000
0010
1000
0001
,
2000
0000
0000
0000
,
3001
0010
0001
0010
0100
0010
0002
0000
,
1003
0010
1000
0010
0100
0010
2000
0000
,
3001
0010
0001
0010
0100
0010
0100
0010
,
0001
1000
0001
1000
0001
0100
0020
0000
,
1030
0100
1000
0100
0010
0100
0020
0000
,
0031
0100
0001
0100
0010
0100
0020
0000
,
1030
0100
1000
0100
0010
0100
0010
0000
,
2002
0000
0000
3003
;

//--------------- dance-single - MEGAtive ----------------
#NOTES:
     dance-single:
     MEGAtive:
     Hard:
     12:
     0,0,0,0,0:
0000
0000
0000
0000
,
0000
0000
0000
0000
,
0000
0000
0000
0000
,
0000
0000
0000
0000
,
0000
0000
0000
0000
,
0000
0000
0000
0000
,
1000
0000
0000
0000
1000
0000
0000
0100
0010
0000
0000
0000
0000
0000
0100
0000
,
0100
0000
1000
0000
0000
0010
0000
0000
0010
0000
0000
0000
0000
0000
0100
0000
,
0100
0000
0000
0000
0100
0000
0000
0001
0010
0000
0000
0000
0000
0000
0100
0000
,
0200
0000
0000
0000
1300
0010
0100
0001
,
1000
0100
1000
0100
0010
0001
0010
0001
,
0100
0010
0100
0010
1000
0100
0001
0100
,
1000
0010
1000
0010
0100
0001
0100
0001
,
0010
0100
0010
0100
1000
0010
0100
0001
,
0010
0100
0010
0100
0010
0001
0010
0001
,
1000
0010
1000
0010
0100
1000
0100
0010
,
1000
0001
0010
0001
1000
0010
0100
0010
,
2000
0000
3020
0000
0032
0000
1003
0100
,
0001
0000
0101
0000
1001
0000
1000
0100
,
0010
0000
0011
0000
0001
0100
1000
0000
,
0100
0000
0110
0000
1010
0000
1000
0001
,
0010
0000
0011
0000
0001
0010
1000
0000
,
0010
0000
0100
0000
0010
0100
0000
0000
1000
0000
0001
1000
0000
0001
0000
0100
,
0010
0000
0100
0000
0010
0100
0000
0000
0001
0000
1000
0100
0000
1000
0000
0100
,
0010
0001
0100
0010
1000
0100
0010
0001
,
0200
0000
0000
0300
,
0102
0000
0103
0010
0100
0001
1000
0100
,
0002
0000
0103
0010
0100
1000
0001
0100
,
2000
0000
3100
0010
0100
0001
1000
0100
,
0002
0000
0103
0010
0100
1000
0001
0100
,
2000
0000
3100
0010
0100
0001
1000
0100
,
0002
0000
0103
0010
0100
1000
0001
0100
,
2000
0000
3100
0010
0100
0001
1000
0100
,
0002
0100
0100
0103
,
1000
0000
0001
0100
2000
0000
3100
0000
,
0001
0000
1000
0100
0002
0000
0103
1000
,
0001
0000
1000
0010
0002
0000
0013
0000
,
1000
0000
0001
0010
2000
0000
3010
0001
,
1000
0100
1000
0010
0100
0000
0110
0000
,
0010
0100
0001
0010
0001
0000
0011
0000
,
0010
0100
1000
0010
0100
0000
0101
0000
,
1002
0000
1000
0000
1000
0000
1003
0100
,
1100
1001
0101
1001
,
2100
0000
0100
0000
0001
0000
3001
0100
,
0201
0001
0010
0001
,
0310
1010
1001
0011
,
0010
0000
0100
0000
0010
0100
0000
0000
1000
0000
0001
0000
1000
0001
0000
0000
,
0100
0000
0010
0000
0100
0010
0000
0000
1000
0000
0100
0000
1000
0100
0000
0000
,
0010
0001
0100
0010
1000
0100
0010
0001
,
0200
0000
0000
0000
0000
0000
0000
0000
0310
0000
0000
0010
0000
0000
0010
0000
,
1000
0001
0010
1000
0010
0001
1000
0100
,
1000
0000
0001
0000
0100
0000
1000
0000
0100
0000
0010
0100
0000
0010
0100
0000
,
0001
1000
0100
0001
0100
1000
0001
0010
,
0001
0000
1000
0000
0010
0000
0001
0000
0010
0000
0100
0010
0000
0100
0010
0000
,
1000
0001
0010
1000
0010
0001
1000
0100
,
1000
0000
0001
0000
0100
0000
1000
0000
0100
0000
0010
0100
0000
0010
0100
0000
,
0001
0010
1000
0001
0100
1000
0001
0010
,
0220
0000
0000
0330
;

//--------------- dance-single - MEGAtive ----------------
#NOTES:
     dance-single:
     MEGAtive:
     Challenge:
     14:
     0,0,0,0,0:
0000
0000
0000
0000
,
0000
0000
0000
0000
,
0000
0000
0000
0000
,
0000
0000
0000
0000
,
0000
0000
0000
0000
,
0000
0000
0000
0000
,
1000
0000
0000
0000
1000
0000
0000
0010
0100
0000
0000
0000
0000
0000
0100
0000
,
0100
0000
0001
0000
0010
0001
0000
0010
0001
0000
0000
0000
0000
0000
0001
0000
,
0001
0000
0000
0000
0001
0000
0000
0010
0100
0000
0000
0000
0000
0000
0100
0000
,
1100
0000
0000
0000
0000
0000
0000
0000
1000
0000
0010
0100
0010
0000
1000
0000
,
0001
0010
0100
0010
1000
0010
0100
0010
,
0001
0000
1000
0000
0100
0000
0010
0001
0100
0000
0010
0100
0000
0100
0010
0000
,
1000
0010
0100
0010
0001
0010
0100
0010
,
1000
0000
0001
0000
0100
0000
0010
1000
0100
0000
0010
0100
0000
0100
0010
0000
,
0001
0010
0100
0010
1000
0010
0100
0010
,
0001
0000
1000
0000
0100
0000
0010
0100
1000
0000
0010
0100
0000
0100
0010
0000
,
1000
0010
0100
0010
0001
0010
0100
0010
,
1000
0000
0100
0000
0010
0000
0100
0000
0001
0000
0100
0010
0100
0000
0010
0000
,
0011
0000
1001
0000
1010
1000
0001
0100
,
0110
0000
1010
1000
0001
0100
0010
1000
,
1010
0000
1001
0000
0011
0001
0010
0100
,
0110
0000
0011
0001
1000
0100
0010
0001
,
0101
0000
0100
0000
0001
0100
0000
0000
0001
0000
0100
0010
0000
0110
0000
0000
,
1010
0000
1000
0000
0100
0010
0000
0000
0001
0000
0010
0100
0000
0110
0000
0000
,
0011
0000
0001
0000
0100
0010
0000
0000
0110
0000
0100
0000
0010
1000
0001
1000
,
0200
0000
0000
0300
,
0012
0010
0013
0100
0010
1000
0010
0100
,
2000
0010
3010
0100
0010
0001
0010
0100
,
0002
0100
0103
0010
0100
1000
0100
0010
,
2000
0100
3100
0010
0100
0001
0100
0010
,
0002
0010
0013
0100
0010
1000
0010
0100
,
2000
0010
3010
0100
0010
0001
0010
0100
,
0002
0010
0013
0100
0010
1000
0001
0100
,
2000
0000
0100
0000
0100
0000
3100
0010
,
0001
0000
0000
0001
0100
0000
0010
0000
0120
0000
0000
0100
0000
0000
0130
0000
,
0001
0000
0000
0001
0010
0000
0100
0000
0210
0000
0000
0010
0000
0000
0310
0001
,
1000
0000
0000
1000
0010
0000
0100
0000
0210
0000
0000
0010
0000
0000
0310
0000
,
1000
0000
0100
0000
0010
0001
0010
0000
0021
0000
0000
0000
0130
0000
1000
0000
,
1001
0000
0000
0001
0100
0000
0010
0000
0120
0000
0000
0100
0000
0000
0130
0000
,
0001
0000
0000
0001
0010
0000
0100
0000
0210
0000
0000
0010
0000
0000
0310
0001
,
1000
0000
0000
1000
0010
0000
0100
0000
0210
0000
0000
0010
0000
0000
0310
0000
,
1000
0100
0010
0001
1000
0100
0010
0001
,
0101
1010
0101
1010
,
0101
0001
1000
0100
1100
0000
0011
0001
,
0011
0000
1100
0000
0011
0000
1100
1000
,
1001
0110
1001
0110
,
0101
0000
0001
0000
0010
0100
0000
0000
1000
0000
1000
0000
0010
0100
0000
0000
,
0001
0000
0001
0000
0100
0010
0000
0000
1000
0000
1000
0000
0100
0010
0000
0000
,
0011
0001
0100
1000
0001
0010
0100
0010
,
2000
0000
0000
0000
0000
0000
0000
0000
3100
0000
1000
0010
0000
0010
1000
0010
,
1000
0000
0001
0100
0001
0000
1000
0100
1000
0000
0001
0100
0001
0000
1000
0100
,
1000
0000
0001
0010
0001
0000
1000
0010
1000
0000
0001
0010
0000
0010
0100
0010
,
0001
0000
0100
0001
0100
0000
0100
1000
0100
0000
0100
0001
0100
0000
0100
1000
,
0100
0000
0010
0001
0010
0000
0010
1000
0010
0000
0010
0001
0000
0001
0100
0010
,
1000
0000
0001
0100
0001
0000
1000
0100
1000
0000
0001
0100
0001
0000
1000
0100
,
1000
0000
0001
0010
0001
0000
1000
0010
1000
0000
0001
0010
0000
0010
0100
0010
,
0001
0000
1000
0010
0100
0000
0001
0010
0100
0000
1000
0010
0100
0000
0001
0000
,
0202
0000
0000
0303
;
