#TITLE:Don't Expect;
#SUBTITLE:;
#ARTIST:Big Idea;
#TITLETRANSLIT:;
#SUBTITLETRANSLIT:;
#ARTISTTRANSLIT:;
#GENRE:;
#CREDIT:;
#MUSIC:02. Don't Expect.mp3;
#BANNER:;
#BACKGROUND:;
#CDTITLE:;
#SAMPLESTART:0.000;
#SAMPLELENGTH:0.000;
#SELECTABLE:YES;
#OFFSET:-0.072;
#BPMS:0.000=128.000;
#STOPS:;
#BGCHANGES:;
#FGCHANGES:;

//--------------- dance-single - MEGAtive ----------------
#NOTES:
     dance-single:
     MEGAtive:
     Beginner:
     2:
     0,0,0,0,0:
0000
0000
0000
0000
,
0000
0000
0000
0000
,
0000
0000
0000
0000
,
0000
0000
0000
0000
,
0001
0000
0100
0000
,
0020
0000
0030
0000
,
1000
0000
0100
0000
,
0020
0000
0030
0000
,
0100
0000
1000
0000
,
0002
0000
0003
0000
,
0100
0000
0010
0000
,
2000
0000
3000
0000
,
0001
0000
0010
0010
,
0020
0000
0030
0000
,
0100
0000
1000
1000
,
2000
0000
3000
0000
,
0010
0000
0100
0100
,
0200
0000
0300
0000
,
0001
0000
1000
1000
,
2000
0000
3000
0001
,
1000
1000
1000
0000
,
0001
0000
0020
0000
,
0130
0100
0100
0000
,
0010
0000
0002
0000
,
0103
0100
0100
0000
,
0010
0000
2000
0000
,
3100
0100
0100
0000
,
0010
0010
0010
0000
,
0001
0000
0000
0000
,
1000
0000
0000
0000
,
0010
0000
0000
0000
,
1001
0000
0000
0000
,
1000
0000
0010
0010
,
0020
0000
0100
0000
,
0130
0000
0001
0001
,
0002
0000
1000
0000
,
1003
0000
0100
0100
,
0200
0000
0010
0000
,
0310
0000
0001
0001
,
0002
0000
0003
1000
,
1000
0010
0010
0000
,
0100
0000
0100
0001
,
1000
1000
0100
0000
,
0010
0000
0010
0001
,
1000
0010
0010
0000
,
0100
0000
0100
0010
,
1000
0001
0001
0000
,
0010
0000
0010
0001
,
2000
3000
0000
0000
;

//--------------- dance-single - MEGAtive ----------------
#NOTES:
     dance-single:
     MEGAtive:
     Easy:
     4:
     0,0,0,0,0:
0000
0000
0000
0000
,
0000
0000
0000
0000
,
0000
0000
0000
0000
,
0000
0000
0000
0000
,
1000
0010
0100
0001
,
2000
0000
0000
0000
,
3001
0010
0100
1000
,
0002
0000
0000
0000
,
1003
0100
0010
0001
,
0200
0000
0000
0000
,
0310
1000
0001
0010
,
0200
0000
0000
1000
,
1300
0001
0100
0010
,
2000
0001
0000
0001
,
3001
0010
0100
1000
,
0020
0100
0000
0100
,
0130
0001
1000
0100
,
0020
0001
0000
0001
,
0031
1000
0010
0100
,
0002
0100
0000
1000
,
1003
0010
0100
0001
,
0010
1000
0010
0001
,
1000
0100
0010
0001
,
0100
1000
0100
0001
,
1000
0010
0100
0001
,
1000
0100
0001
0100
,
1000
0001
0010
0100
,
1000
0010
0001
0010
,
2000
0000
0000
0010
,
3002
0000
0000
0100
,
2003
0000
0000
0010
,
3001
0000
0000
0000
,
0001
1000
0100
0010
,
0001
0100
0100
0000
,
0010
1000
0001
0010
,
0100
1000
1000
0000
,
0100
0010
0001
1000
,
0010
0100
0100
0000
,
0010
1000
0001
0010
,
0100
2000
0000
0001
,
3001
0010
0100
1000
,
0010
0001
0010
1000
,
0001
0100
0010
1000
,
0100
0001
0100
1000
,
0001
0010
0100
1000
,
0001
0100
1000
0100
,
0001
1000
0010
0100
,
0001
0010
1000
0010
,
0002
0000
0000
0000
,
0003
0000
0000
0000
;

//--------------- dance-single - MEGAtive ----------------
#NOTES:
     dance-single:
     MEGAtive:
     Medium:
     7:
     0,0,0,0,0:
0000
0000
0000
0000
,
0000
0000
0000
0000
,
0000
0000
0000
0000
,
0000
0000
0000
0000
,
1000
0000
1001
0000
0001
0000
0100
0010
,
0200
1000
0000
1000
,
0310
0000
0110
0000
0100
0000
0001
1000
,
0200
0001
0000
0001
,
1300
0000
1100
0000
0100
0000
1000
0001
,
0200
1000
0000
1000
,
0301
0000
0101
0000
0100
0000
0010
1000
,
0200
0001
0000
0001
,
2300
0000
3100
0000
0010
0100
0010
0001
,
2000
3010
0002
0013
,
0200
0000
0301
0000
0100
0001
1000
0100
,
0020
1030
0020
0031
,
2000
0000
3010
0000
0100
0001
0010
0100
,
2000
3100
0002
0103
,
0020
0000
0031
0000
0100
0010
1000
0100
,
0020
1000
0100
0031
,
1001
0000
0001
0000
1000
0010
0001
0010
,
1000
0000
0100
0000
0010
0100
2000
0000
,
3010
0000
0100
0000
0001
0100
1000
0100
,
0001
0000
0010
0000
0100
0010
0002
0000
,
0103
0000
0010
0000
1000
0010
0001
0010
,
1000
0100
0010
0002
,
0103
0000
0010
0000
1000
0100
0001
0100
,
1000
0000
0010
0000
0100
0001
2000
0000
,
3100
0000
0000
0100
0000
0000
1000
0000
0000
0000
1000
0000
0010
0000
0000
0000
,
0100
0000
0000
0100
0000
0000
0001
0000
0000
0000
0010
0000
0100
0000
0000
0000
,
1000
0000
0000
1000
0000
0000
0100
0000
0000
0000
0010
0000
0001
0000
0000
0000
,
2000
3000
0000
0000
,
2001
0000
3010
0000
0010
0100
0001
1000
,
0200
0000
0310
0000
0010
0100
2000
0000
,
3002
0000
0013
0000
0010
0001
0100
0010
,
2000
0000
3010
0000
0010
1000
0200
0000
,
2300
0000
3010
0000
0010
0100
0001
1000
,
0200
0000
0310
0000
0010
0001
0200
0000
,
0302
0000
0013
0000
0010
0100
1000
0001
,
0200
0000
0310
0000
0010
1000
0001
0000
,
1001
0000
1000
0000
0001
0010
1000
0010
,
0001
0000
1000
0100
1000
0000
0020
0000
,
0130
0000
0001
0000
1000
0010
0001
0010
,
1000
0000
0001
0100
0001
0000
0020
0000
,
0130
0000
1000
0000
0001
0010
1000
0010
,
0001
0000
1000
0010
1000
0000
0020
0000
,
0130
0000
0001
0000
1000
0100
0001
0100
,
1000
0000
0001
0100
0010
0000
1000
0100
,
0020
0030
0000
0000
;

//--------------- dance-single - MEGAtive ----------------
#NOTES:
     dance-single:
     MEGAtive:
     Hard:
     13:
     0,0,0,0,0:
0000
0000
0000
0000
,
0000
0000
0000
0000
,
0000
0000
0000
0000
,
0000
0000
0000
0000
,
1000
0000
1000
0000
0001
0010
0000
0000
0100
0000
1000
0000
0010
0000
0100
0000
,
0002
0000
1003
0000
0010
0100
0001
0000
,
1000
0000
1000
0000
0001
0010
0000
0100
0010
0000
0001
0000
0100
0000
0010
0000
,
0200
0000
0301
0000
0010
0100
0010
0001
,
1000
0000
1000
0000
0010
0100
0000
0000
0010
0000
1000
0000
0100
0000
0010
0000
,
0002
0000
1003
0000
0100
0010
0100
0000
,
1000
0000
1000
0000
0001
0100
0000
0010
1000
0000
0100
0000
0010
0000
0100
0000
,
2000
0000
3001
0000
0100
0010
0100
0001
,
1000
0000
0001
0000
0010
0000
0100
0010
0100
0000
0001
0000
0100
0010
0001
0000
,
1000
0010
1010
0000
0001
0010
0011
0000
,
1000
0000
0001
0000
0100
0000
0010
0100
0010
0000
0001
0000
0010
0100
0001
0000
,
1000
0100
1100
0000
0001
0100
0101
0000
,
0001
0000
1000
0000
0100
0000
0010
0100
0010
0000
1000
0000
0010
0100
1000
0000
,
0001
0100
0110
0000
1000
0100
0110
0000
,
0001
0000
1000
0000
0010
0000
0100
0010
0100
0000
1000
0000
0100
0010
1000
0000
,
0001
0010
0110
0000
1000
0010
0100
0001
,
0101
0100
0010
0001
0010
1000
0001
1000
,
0100
0001
1000
0010
0001
1000
0020
0000
,
0130
0001
1000
0100
0001
0100
1000
0010
,
0001
1000
0100
0001
1000
0100
0010
0100
,
1100
1000
0010
0100
0010
0001
1000
0100
,
0001
0010
1000
0001
0100
1000
0020
0000
,
0130
1000
0001
0010
1000
0100
0001
0100
,
1000
0001
0010
1000
0010
0001
0200
0000
,
0301
0000
0000
0001
0010
0000
0100
0000
0001
0000
0100
0000
1000
0000
0000
0000
,
0001
0000
0000
0001
0100
0000
0010
0000
0001
0000
0010
0000
1000
0000
0000
0000
,
1000
0000
0000
1000
0001
0000
0010
0000
0000
0000
0010
0000
0100
0000
0000
0000
,
1001
0000
0000
0000
,
1100
0000
0001
0000
0100
0000
0010
1000
0100
0000
0010
0000
0100
1000
0010
0000
,
0200
0000
0310
0001
0010
1000
0002
0003
,
0011
0000
1000
0000
0100
0000
0010
0100
1000
0000
0010
0000
0100
0001
0010
0000
,
0200
0000
1300
0010
0001
1000
0200
0300
,
0101
0000
1000
0000
0100
0000
0010
0001
0100
0000
0010
0000
0100
0001
0010
0000
,
0200
0000
0310
1000
0010
0001
2000
3000
,
1010
0000
0001
0000
0100
0000
0010
1000
0100
0000
0010
0000
0001
0100
0010
0000
,
2000
0000
3010
0001
1000
0100
0002
0003
,
1002
0000
0100
0000
0103
0000
0010
1000
0100
0000
0001
0000
1000
0010
0100
0000
,
1000
0001
1000
0010
0100
0001
0020
0030
,
0021
0000
0100
0000
0130
0000
0010
0001
0100
0000
1000
0000
0001
0010
0100
0000
,
0001
1000
0001
0010
0100
0010
0002
0003
,
2001
0000
0100
0000
3100
0000
1000
0010
0100
0000
1000
0000
0100
0001
0010
0000
,
0100
1000
0100
0001
1000
0010
0002
0000
,
1003
0000
0010
0000
0100
0000
1000
0100
0010
0000
0100
0000
0001
0010
0100
0000
,
0001
0000
0100
0000
1000
0000
0001
1000
0010
0000
0100
0000
0120
0000
1030
0000
,
0002
0003
0000
0000
;
