#TITLE:Dimanche;
#SUBTITLE:;
#ARTIST:Orange Lounge;
#TITLETRANSLIT:;
#SUBTITLETRANSLIT:;
#ARTISTTRANSLIT:;
#GENRE:;
#CREDIT:;
#MUSIC:Dimanche.mp3;
#BANNER:Dimanche.png;
#BACKGROUND:Dimanche-bg.png;
#CDTITLE:./CDTITLES/pop'n music.PNG;
#SAMPLESTART:35.170;
#SAMPLELENGTH:16.040;
#SELECTABLE:YES;
#OFFSET:1.382;
#BPMS:0.000=164.000
,196.000=82.000
,212.000=164.000
;
#STOPS:;
#DISPLAYBPM:164.000;
#BGCHANGES:;
#FGCHANGES:;

//--------------- dance-single - OrangeRight ----------------
#NOTES:
     dance-single:
     OrangeRight:
     Beginner:
     2:
     0.093,0.137,0,0,0:
0000
0000
0000
0000
,
0000
0000
0000
0000
,
0000
0000
0000
0000
,
0000
0000
0000
0000
,
0000
0000
0000
0000
,
1000
0000
0000
0000
,
1000
0000
0000
0000
,
0001
0000
0000
0000
,
0001
0000
0000
0000
,
1000
0000
0000
0000
,
0100
0000
0000
0000
,
1000
0000
0000
0000
,
0001
0000
0000
0000
,
0001
0000
0000
0000
,
0100
0000
0000
0000
,
0001
0000
0000
0000
,
1000
0000
0000
0000
,
1000
0000
0000
0000
,
1000
0000
1000
0000
,
0001
0000
0000
0000
,
0100
0000
0000
0000
,
0001
0000
0000
0000
,
0001
0000
0001
0000
,
1000
0000
0000
0000
,
0100
0000
0000
0000
,
1000
0000
1000
0000
,
1000
0000
0000
0000
,
0001
0000
0001
0000
,
0001
0000
0000
0000
,
0100
0000
0100
0000
,
0100
0000
0000
0000
,
0010
0000
0010
0000
,
1000
0000
0000
0000
,
0001
0000
0001
0000
,
0001
0000
0000
0000
,
1000
0000
1000
0000
,
1000
0000
0000
0000
,
0100
0000
0100
0000
,
0100
0000
0000
0000
,
0010
0000
0010
0000
,
0001
0000
0000
0000
,
1000
0000
0000
0000
,
1000
0000
0000
0000
,
0001
0000
0000
0000
,
0100
0000
0000
0000
,
0001
0000
0000
0000
,
0001
0000
0000
0000
,
1000
0000
0000
0000
,
0001
0000
0000
0000
,
1000
0000
0000
0000
,
0001
0000
0000
0000
,
1000
0000
0000
0000
,
0001
0000
1000
0000
,
0001
0000
0001
0000
,
1000
0000
0000
0000
,
1000
0000
1000
0000
,
0001
0000
0000
0000
,
1000
0000
0001
0000
,
1000
0000
0000
0000
,
0001
0000
1000
0000
,
0001
0000
0100
0100
;

//--------------- dance-single - OrangeRight ----------------
#NOTES:
     dance-single:
     OrangeRight:
     Easy:
     4:
     0.155,0.207,0,0.043,0:
0000
0000
0000
0000
,
0000
0000
0000
0000
,
0000
0000
0000
0000
,
0000
0000
0000
0000
,
0000
0000
0000
0000
,
1000
1000
0000
0000
,
0002
0000
0103
0000
,
0001
0001
0000
0000
,
2000
0000
3010
0000
,
1000
1000
0000
0001
,
0001
0000
0100
0000
,
0001
0001
0000
1000
,
1000
0000
0100
0000
,
1000
1000
0000
0010
,
0010
0000
0100
0000
,
0001
0001
0000
0010
,
0010
0000
0100
0000
,
1000
0001
0000
0100
,
0001
0000
0010
0000
,
0001
1000
0000
0100
,
1000
0000
1000
0000
,
0001
1000
0000
0010
,
1000
0000
0100
0000
,
1000
0001
0000
0010
,
0001
0000
0100
0010
,
1000
0100
1000
0000
,
0100
0010
0001
0000
,
0001
0000
0100
0010
,
1000
1000
0001
0000
,
1000
0010
1000
0000
,
0100
0010
0001
0000
,
1000
0000
0010
0100
,
0001
1000
0001
0000
,
1000
0010
1000
0000
,
0001
1000
0100
0000
,
1000
0001
1000
0001
,
1001
0000
1000
0000
,
0001
0100
0001
0000
,
1000
0001
0010
0000
,
0001
1000
0001
1000
,
1001
0000
0100
0000
,
2000
0000
3010
0000
,
0020
0000
0130
0000
,
0100
0001
1000
0001
,
0010
0000
0010
0000
,
0002
0000
0013
0000
,
0020
0000
0130
0000
,
1000
0000
1000
0000
0000
0001
0000
0001
,
0000
0000
0000
0000
,
2000
0100
3010
1000
,
0002
0100
0013
0001
,
2000
0001
3010
0100
,
0002
1000
0103
0001
,
1000
0100
1000
0100
,
0010
0000
0001
0000
,
1000
0010
1000
0010
,
0100
0000
0001
0000
,
1000
0100
0010
0001
,
1000
0000
1000
0000
,
0001
0100
0010
1000
,
0100
0000
0000
0000
1000
1000
1000
0000
;

//--------------- dance-single - OrangeRight ----------------
#NOTES:
     dance-single:
     OrangeRight:
     Medium:
     8:
     0.24,0.31,0,0.085,0:
0000
0000
0000
0000
,
0000
0000
0000
0000
,
0000
0000
0000
0000
,
0000
0000
0000
0000
,
0000
0000
0000
0000
,
1000
1000
0000
0100
,
0010
0001
0100
0000
,
0001
0001
0000
0100
,
0010
1000
0100
0010
,
0001
0000
0001
0000
0000
1000
0000
1000
,
0000
0100
0000
1000
0000
0001
0001
0000
,
1000
0000
1000
0000
0000
0001
0000
0001
,
0000
0100
0000
0001
0000
1000
1000
0000
,
0010
0000
0100
0000
0000
0001
0000
1000
,
0000
0100
0000
0010
0000
0001
0001
0000
,
0100
0000
0010
0000
0000
1000
0000
0001
,
0000
0010
0000
0100
0000
1000
0001
0000
,
1000
0000
1010
0000
0000
0010
0000
0100
,
0000
0001
0000
1000
0000
0100
0010
0000
,
0001
0000
0011
0000
0000
1000
0000
1010
,
0000
0000
0000
0010
0000
1000
0001
0000
,
1000
0000
1100
0000
0000
0100
0000
0010
,
0000
0001
0000
1000
0000
0010
0100
0000
,
0001
0000
0101
0000
0000
1000
0000
1100
,
0000
1000
0000
0001
2000
0000
3002
0000
,
1003
0100
1000
0000
0001
0000
0100
0000
,
0010
1000
0010
0000
0100
0000
0001
0000
,
0010
0000
0001
0000
1000
0001
1000
0001
,
0100
0010
1000
1000
,
0001
0100
0001
0000
1000
0100
1000
0000
,
0010
0100
0001
1000
,
0001
0010
0001
0000
1000
0000
0001
0100
,
0001
0100
0010
1000
,
0001
0000
0010
0001
0000
0100
0000
0010
,
0000
0100
0000
0001
1000
0000
0001
0000
,
1000
0000
0010
1000
0000
0100
0000
0010
,
0000
0100
0000
1000
0010
0000
0100
0000
,
0001
0000
0010
1000
0000
0010
0000
0001
,
0000
0100
0000
0010
1000
0000
0001
0000
,
1000
0000
0100
0001
0000
0100
0000
1000
,
0000
0010
0100
0010
0100
0000
0001
0000
,
2000
0000
0001
0000
3001
0100
0000
0001
,
0000
0010
0000
0100
0000
1000
0000
0000
,
2001
0000
3010
0100
,
0001
0010
0100
1000
,
0002
0000
0010
0000
0013
0100
0000
1000
,
0000
0001
0000
0100
0000
0010
0000
0000
,
0110
0000
0110
0000
0000
1001
0000
1001
,
0000
0000
0000
0000
,
1000
0000
1000
0000
0000
0001
0000
0001
0000
0000
0100
0000
0010
0000
1000
0000
,
0001
0000
0001
0000
0000
1000
0000
1000
0000
0000
0100
0000
0010
0000
0001
0000
,
1000
0000
1000
0000
0000
0100
0000
0100
0000
0000
0010
0000
0001
0000
0100
0000
,
0001
0000
0001
0000
0000
0100
0000
0100
0000
0000
0010
0000
1000
0000
0001
0000
,
1000
0100
1000
0000
0001
0100
0000
0001
,
0000
0000
1000
0000
0001
1000
0001
0000
,
0010
0001
0010
0000
0001
1000
0000
0010
,
0000
0000
1000
0000
0001
1000
0001
0000
,
1000
0100
1000
0000
0001
0100
0000
0010
,
1000
0000
0100
0000
0010
0001
0010
0000
,
0001
1000
0001
0000
1000
0010
0000
0100
,
0001
0000
1000
0000
0001
1000
1001
0000
;

//--------------- dance-single - OrangeRight ----------------
#NOTES:
     dance-single:
     OrangeRight:
     Hard:
     11:
     0.318,0.345,0.043,0.085,0:
0000
0000
0000
0000
,
0000
0000
0000
0000
,
0000
0000
0000
0000
,
0000
0000
0000
0000
,
0000
0000
0000
0000
,
1000
0000
1000
0000
0000
0001
0000
0100
,
0000
0100
0000
0010
0000
1000
1000
0000
,
0001
0000
0001
0000
0000
1000
0000
0100
,
0000
0100
0000
0010
0000
0001
0001
0000
,
1000
0001
1000
0000
0010
0100
0001
0010
,
0000
0100
0000
1000
0000
0001
0001
0000
,
1000
0001
1000
0000
0100
0010
0001
0100
,
0000
0010
0000
1000
0000
0001
1000
0000
,
0001
0010
0001
0000
1000
0100
0010
0100
,
0000
1000
0000
0010
0000
0100
0100
0000
,
0001
0010
0001
0000
1000
0010
0100
0010
,
0000
1000
0000
0001
0000
0010
0100
0000
,
1100
0000
0101
0000
0000
1001
0000
0110
,
0000
1010
0000
0011
0000
0001
1000
0000
,
1100
0000
1010
0000
0000
0101
0000
0011
,
0000
0010
0000
0010
0100
1000
0001
0000
,
0011
0000
1010
0000
0000
1001
0000
0110
,
0000
0101
0000
1100
0000
1000
0001
0000
,
0011
0000
0101
0000
0000
1010
0000
1100
,
0000
1000
0000
0001
2000
0000
3002
0000
,
1003
0010
0100
0000
0001
0010
0100
0000
,
1000
0100
0001
0100
1000
0001
0100
0000
,
0010
1000
0001
0000
0010
0001
0100
0010
,
1000
0100
0000
0010
0000
0001
1000
0000
,
0001
0010
0100
0000
1000
0010
0100
0000
,
0001
0100
0010
1000
0100
0001
0100
0000
,
0010
0001
1000
0000
0001
0100
0010
1000
,
0100
0010
0000
0001
0000
1000
0001
0000
,
1000
0000
0100
1000
0001
0100
0000
0010
,
0000
1000
0100
0001
0100
0000
1001
0000
,
0001
0000
0100
0001
1000
0100
0000
0010
,
0000
0001
0100
1000
0100
0000
1001
0000
,
0001
0000
1000
0100
0010
0001
0000
0100
,
0000
1000
0100
0001
0010
0000
0110
0000
,
0100
1000
0000
0001
0100
0010
1000
0001
,
0010
0100
0000
1000
0001
0100
0010
0000
,
2000
0000
0010
0000
3100
1000
0010
0100
,
0000
0001
1000
0001
0000
1001
0000
0000
,
0110
0000
0010
1000
0100
0010
0001
1000
,
0001
0000
1000
0010
0100
0001
1000
0000
,
0002
0000
0100
0000
0013
0001
0100
0010
,
0000
1000
0100
0010
0000
0011
0000
0000
,
1001
0000
0110
0000
0000
1010
0000
0101
,
0000
1000
0000
0001
0010
0100
1000
0000
,
1000
0000
0001
0000
0100
0010
1000
0100
0000
0000
0100
0000
0010
0001
1000
0000
,
0001
0000
1000
0000
0010
0100
0001
0010
0000
0000
0010
0000
0100
1000
0001
0000
,
1000
0000
0001
0000
1000
0010
0100
0001
0000
0001
0100
0010
0100
0001
1000
0000
,
0001
0000
1000
0000
0001
0010
0100
2000
0000
0000
0000
0001
0000
0001
3001
0000
,
1001
0000
1100
0000
1000
0010
0100
0001
,
0000
0100
1000
0100
0001
0010
0001
0000
,
0011
0000
1001
0000
0001
0100
0010
1000
,
0000
0010
0001
0010
1000
0100
0010
0000
,
1001
0000
0110
0000
0100
0010
1000
0100
,
0000
1000
0100
0001
0100
0010
0001
0000
,
1001
0000
0110
0000
0010
1000
0001
0010
,
1000
0010
0001
0000
1001
1001
1001
0000
;

//--------------- dance-double - OrangeRight ----------------
#NOTES:
     dance-double:
     OrangeRight:
     Easy:
     4:
     0,0,0,0,0:
00000000
00000000
00000000
00000000
,
00000000
00000000
00000000
00000000
,
00000000
00000000
00000000
00000000
,
00000000
00000000
00000000
00000000
,
00000000
00000000
00000000
00000000
,
10000000
00000000
10000000
00000000
,
00010000
00000000
01000000
00000000
,
00010000
00000000
00010000
00000000
,
10000000
00000000
01000000
00000000
,
10000000
10000000
00000000
00010000
,
00010000
00000000
01000000
00000000
,
00001000
00001000
00000000
00010000
,
00010000
00000000
00000100
00000000
,
00001000
00001000
00000000
00000001
,
00000001
00000000
00000010
00000000
,
00000001
00001000
00000000
00001000
,
00000001
00000000
00000100
00000000
,
00000010
00000010
00000000
00001000
,
00001000
00000000
00000100
00000000
,
00010000
00010000
00000000
00001000
,
00001000
00000000
00100000
00000000
,
00010000
00010000
00000000
01000000
,
01000000
00000000
00001000
00000000
,
00010000
00010000
00000000
00001000
,
00001000
00000000
00010000
00001000
,
00100000
00000000
00010000
00000000
,
01000000
00001000
00010000
00000000
,
00001000
00000000
00010000
00000100
,
00001000
00000000
00001000
00000000
,
00000010
00000000
00001000
00000000
,
00000100
00010000
00001000
00000000
,
00100000
00010000
00100000
00010000
,
20000000
00000000
30010000
00000000
,
10000000
00100000
10000000
00000000
,
00100000
01000000
00100000
00000000
,
01000000
00010000
01000000
00000000
,
00010000
01000000
00001000
00000000
,
00010000
00001000
00010000
00000000
,
00000100
00001000
00000100
00000000
,
00001000
00000010
00001000
00000010
,
00000200
00000000
00000310
00000000
,
00002000
00000000
00003001
00000000
,
00000002
00000000
00001003
00000000
,
00001000
00000000
00000100
00010000
,
00001000
00000000
01000000
00000000
,
00020000
00000000
10030000
00000000
,
20000000
00000000
30010000
00000000
,
10000000
00000000
10000000
00000000
00000000
00010000
00000000
00010000
,
00000000
00000000
00000000
00000000
,
20000000
00000000
30010000
01000000
,
00002000
00000000
00013000
00000100
,
00002000
00000000
00003001
00000100
,
00000020
00000000
00000230
00000000
,
00000301
00000100
00000001
00000100
,
00000010
00001000
00000010
00000000
,
00001000
00000100
00001000
00000100
,
00010000
00001000
00010000
00000000
,
00001000
00100000
00001000
00100000
,
00010000
01000000
00010000
00000000
,
10000000
01000000
00100000
00010000
,
01000000
00000000
00100000
00000000
10000000
10000000
10000000
00000000
;

//--------------- dance-double - OrangeRight ----------------
#NOTES:
     dance-double:
     OrangeRight:
     Medium:
     9:
     0,0,0,0,0:
00000000
00000000
00000000
00000000
,
00000000
00000000
00000000
00000000
,
00000000
00000000
00000000
00000000
,
00000000
00000000
00000000
00000000
,
00000000
00000000
00000000
00000000
,
10000000
10000000
00000000
01000000
,
00100000
00010000
01000000
00001000
,
00010000
00010000
00000000
00001000
,
00010000
00000100
00001000
00000001
,
00001000
00000000
00001000
00000000
00000000
00000010
00000000
00000100
,
00000000
00000100
00000000
00000001
00000000
00001000
00001000
00000000
,
00000001
00000000
00000001
00000000
00000000
00000010
00000000
00000100
,
00000000
00000100
00000000
00001000
00000000
00000001
00001000
00000000
,
00000100
00000000
00000100
00000000
00000000
00010000
00000000
00001000
,
00000000
00001000
00000000
00100000
00000000
00010000
00010000
00000000
,
01000000
00000000
01000000
00000000
00000000
00001000
00000000
00010000
,
00000000
00000100
00000000
00001000
00000000
00000001
00001000
00000000
,
00000001
00000000
00001001
00000000
00000000
00001000
00000000
00000010
,
00000000
00010000
00000000
00001000
00000000
00100000
00010000
00000000
,
10000000
00000000
10100000
00000000
00000000
00010000
00000000
00110000
,
00000000
00000000
00000000
00100000
00000000
00100000
01000000
00000000
,
10000000
00000000
10010000
00000000
00000000
00010000
00000000
00100000
,
00000000
00001000
00000000
00010000
00000000
00000010
00001000
00000000
,
00000001
00000000
00000011
00000000
00000000
00001000
00000000
00001010
,
00000000
00000010
00000000
00010000
00002000
00000000
00023000
00000000
,
00030100
00000000
00010000
00001000
00010000
00000000
00000100
00000000
,
00001000
00000010
00000000
00001000
00000000
00000000
00000001
00000000
,
00001000
00000000
00000001
00000000
00000100
00000010
00000100
00000010
,
00001000
00000100
00001000
00000000
,
00000001
00000010
00000001
00000000
00001000
00000010
00001000
00000000
,
00000010
00010000
00000000
00001000
00000000
00000000
00010000
00000000
,
00001000
00000000
00100000
00000000
00010000
01000000
00010000
01000000
,
00100000
10000000
00000000
01000000
00000000
00100000
00010000
00000000
,
10000000
00000000
00010000
01000000
00000000
00001000
00000000
00010000
,
00000000
00000100
00000000
00001000
00000010
00000000
00000100
00000000
,
00000001
00000000
00001000
00000100
00000000
00010000
00000000
00001000
,
00000000
00100000
00000000
00010000
01000000
00000000
00100000
00000000
,
10000000
00000000
01000000
00100000
00000000
00010000
00000000
01000000
,
00000000
00001000
00000000
00010000
00000100
00000000
00001000
00000000
,
00000010
00001000
00000100
00000000
00010000
00001000
00100000
00000000
,
00010000
01000000
00100000
10000000
,
20010000
00000000
00000000
00000000
30100000
01000000
00000000
00010000
,
00000000
00100000
00000000
01000000
00000000
00100000
00000000
00000000
,
00210000
00000000
00001000
00000000
00310000
00000000
00100000
00001000
,
00010000
00000100
00001000
00000010
,
00002010
00000000
00000000
00000000
00003001
00000010
00000000
00000100
,
00000000
00001000
00000000
00000001
00000000
00000100
00000000
00000000
,
00000110
00000000
00000110
00000000
00000000
00001001
00000000
00001001
,
00000000
00000000
00000000
00000000
,
00000001
00000000
00001000
00000000
00000000
00000100
00000000
00010000
00000000
00000000
00001000
00000000
00010000
00000000
00001000
00000000
,
00100000
00000000
00010000
00000000
00000000
01000000
00000000
00100000
00000000
00000000
10000000
00000000
00010000
00000000
10000000
00000000
,
01000000
00000000
00100000
00000000
00000000
00010000
00000000
01000000
00000000
00000000
00001000
00000000
00010000
00000000
00000100
00000000
,
00001000
00000000
00000010
00000000
00000000
00000100
00000000
00000002
00000000
00000000
00000000
00001000
00000000
00000000
00001003
00000000
,
00001001
00000000
00001001
00000000
00001000
00000100
00010000
00000000
,
00012000
00100000
00013000
00000000
,
00011000
00000000
00011000
00000000
00001000
00100000
00010000
00000000
,
10020000
01000000
10030000
00000000
,
10010000
00000000
10010000
00000000
00010000
01000000
00001000
00000000
,
00021000
00000100
00031000
00000000
,
00011000
00000000
00011000
00000000
00010000
00000100
00000000
00002100
,
00000000
00000000
00003001
00000000
00001000
00000001
00001001
00000000
;

//--------------- dance-double - OrangeRight ----------------
#NOTES:
     dance-double:
     OrangeRight:
     Hard:
     11:
     0,0,0,0,0:
00000000
00000000
00000000
00000000
,
00000000
00000000
00000000
00000000
,
00000000
00000000
00000000
00000000
,
00000000
00000000
00000000
00000000
,
00000000
00000000
00000000
00000000
,
00010000
00000000
00010000
00000000
00000000
00001000
00000000
00100000
,
00000000
00100000
00000000
00001000
00000000
00010000
00010000
00000000
,
00001000
00000000
00001000
00000000
00000000
00010000
00000000
00000010
,
00000000
00000010
00000000
00010000
00000000
00001000
00001000
00000000
,
00100000
00000000
00010000
00000000
01000000
00100000
01000000
00010000
,
00000000
10000000
00000000
01000000
00000000
00100000
00100000
00000000
,
00010000
00000000
00100000
00000000
00001000
00010000
00000100
00001000
,
00000000
00000001
00000000
00000100
00000000
00000010
00001000
00000000
,
00000100
00000000
00001000
00000000
00000010
00000100
00000010
00001000
,
00000000
00000001
00000000
00000010
00000000
00000100
00000100
00000000
,
00001000
00000000
00000100
00000000
00010000
00001000
01000000
00010000
,
10000000
01000000
00100000
00010000
10000000
00010000
10000000
00000000
,
10010000
00000000
10100000
00000000
00000000
01100000
00000000
01010000
,
00000000
00110000
00000000
00101000
00000000
00001000
00010000
00000000
,
00011000
00000000
00010100
00000000
00000000
00001100
00000000
00001010
,
00000000
00000000
00000000
00000010
00000000
00000010
00001000
00000000
,
00001001
00000000
00000101
00000000
00000000
00000011
00000000
00000110
,
00000000
00001100
00000000
00010100
00000000
00010000
00001000
00000000
,
00101000
00000000
00110000
00000000
00000000
10010000
00000000
10100000
,
00000000
00100000
00000000
00100000
20000000
00000000
30020000
00000000
,
10030000
01000000
10000000
00000000
00100000
01000000
00100000
00000000
,
01000000
00010000
00100000
00001000
00000000
00001000
00000000
00010000
,
00000100
00001000
00000100
00000000
00000010
00000001
00000100
00000010
,
00001000
00000100
00000000
00010000
00000000
00001000
00010000
00000000
,
00001000
00010000
00001000
00000000
00010000
00000100
00010000
00000000
,
00000100
00001000
00000010
00000100
00000001
00000000
00001000
00000000
,
00000001
00000010
00000100
00000000
00001000
00000010
00000100
00000001
,
00000010
00001000
00000000
00000010
00000000
00000001
00001000
00000000
,
00000001
00000000
00000100
00000010
00000000
00001000
00000100
00010000
,
00000000
00001000
00100000
00010000
00010000
00000000
01010000
00000000
,
01000000
00000000
00100000
10000000
00010000
00100000
10000000
00100000
,
00010000
01000000
00000000
00100000
10000000
00000000
10010000
00000000
,
10000000
00000000
01000000
00100000
00000000
00010000
01000000
00001000
,
00000000
00010000
00000010
00001000
00001000
00000000
00001100
00000000
,
00000100
00000010
00000001
00001000
00000010
00000001
00000010
00001000
,
00000001
00000100
00000000
00000010
00001000
00000001
00001000
00000000
,
00001200
00000000
00010000
00000000
00001300
00000010
00000100
00000001
,
00000100
00000010
00001000
00000100
00010000
00001000
00010000
00000000
,
00021000
00000000
01000000
00000000
00031000
00100000
00010000
01000000
,
00100000
00000000
10000000
00010000
10000000
01000000
00100000
00000000
,
00210000
00000000
00001000
00000000
00310000
01000000
00100000
10000000
,
00100000
01000000
00010000
00100000
00001000
00010000
00001000
00000000
,
00101000
00000000
00010100
00000000
00000000
00010010
00000000
01001000
,
00000000
01000000
00000000
00100000
10000000
00010000
10000000
00000000
,
20000000
00000000
01000000
00000000
30100000
01000000
00010000
00100000
00010000
00000000
00100000
00000000
00001000
00000000
00010000
00000000
,
00002000
00000000
00010000
00000000
00013000
00000100
00001000
00000010
00000100
00000000
00000001
00001000
00000000
00000001
00001000
00000000
,
00000002
00000000
00001000
00000000
00000103
00000010
00001000
00000100
00010000
00000000
00001000
00000000
00100000
00000000
00010000
00000000
,
01000000
00000000
00100000
00000000
10000000
00100000
01000000
00020000
00000000
00000000
00000000
10000000
00000000
10000000
10030000
00000000
,
10010000
00000000
01010000
00000000
01000000
01001000
00000000
00011000
,
00000000
00001000
00010000
00000100
00001000
00000001
00001000
00000000
,
00001001
00000000
00001010
00000000
00000010
00010010
00000000
00011000
,
00000000
00001000
00100000
00010000
01000000
00100000
10000000
00000000
,
10100000
00000000
01010000
00000000
01000000
01001000
00000000
00011000
,
00000000
00010000
00000010
00001000
00000100
00000010
00000001
00000000
,
00000011
00000000
00001100
00000000
00000100
00010100
00000000
00022000
,
00000000
00000000
00033000
00000000
00011000
00011000
00011000
00000000
;
