#TITLE:Digital chaos;
#SUBTITLE:;
#ARTIST:Takeshi Abo;
#TITLETRANSLIT:;
#SUBTITLETRANSLIT:;
#ARTISTTRANSLIT:;
#GENRE:;
#CREDIT:;
#MUSIC:Digital chaos.mp3;
#BANNER:;
#BACKGROUND:;
#CDTITLE:;
#SAMPLESTART:67.447;
#SAMPLELENGTH:15.000;
#SELECTABLE:YES;
#OFFSET:1.568;
#BPMS:0.000=146.000;
#STOPS:;
#BGCHANGES:;
#FGCHANGES:;

//--------------- dance-single - forcednature ----------------
#NOTES:
     dance-single:
     forcednature:
     Beginner:
     3:
     0,0,0,0,0:
0000
0000
0000
0000
,
0000
0000
0000
0000
,
0000
0000
0000
0000
,
0000
0000
0000
0000
,
0000
0000
0000
0000
,
1000
0000
0000
0000
,
0001
0000
0001
0000
,
0100
0000
0000
0000
,
0100
0000
0110
0000
,
1001
0000
0000
0001
,
0000
0000
0000
0100
,
0000
0000
0000
0010
,
0000
0000
0000
1000
,
0100
0000
0000
0010
,
0000
0000
0000
0001
,
0000
0000
0000
0100
,
0000
0000
0000
0000
,
1001
0000
0010
0000
,
1000
0000
0001
0000
,
0100
0000
0000
0000
,
0010
0000
0000
0000
,
0100
0000
0001
0000
,
1000
0000
0100
0000
,
0010
0000
0000
0000
,
0001
0000
0000
0000
,
0100
0100
0100
0000
,
0010
0010
0010
0000
,
1000
1000
1000
0000
,
0001
0001
0001
0000
,
0010
0010
0010
0000
,
0100
0100
0100
0000
,
1000
1000
1000
0000
,
0001
0001
0001
0000
,
1001
0000
0000
0000
,
0100
0000
0100
0000
,
0010
0000
0010
0000
,
1000
0000
0001
0000
,
1000
0000
0001
0000
,
0010
0000
0010
0000
,
0100
0000
0100
0000
,
1000
0000
0001
0000
,
1001
0000
0000
0000
,
0100
0000
0100
0000
,
0001
0001
0001
0000
,
0010
0000
0010
0000
,
1000
1000
1000
0000
,
0100
0000
0100
0000
,
1000
1000
1000
0000
,
0010
0000
0010
0000
,
0001
0001
0001
0000
,
0001
0000
0001
0000
,
0100
0100
0100
0000
,
1000
0000
1000
0000
,
0010
0010
0010
0000
,
0001
0000
0001
0000
,
0010
0010
0010
0000
,
1000
0000
1000
0000
,
1001
0000
0000
0000
;

//--------------- dance-single - forcednature ----------------
#NOTES:
     dance-single:
     forcednature:
     Easy:
     5:
     0,0,0,0,0:
0000
0000
0000
0000
,
0000
0000
0000
0000
,
0000
0000
0000
0000
,
0000
0000
0000
0000
,
0000
0000
0000
0000
,
1000
0001
0100
0001
,
1000
0010
1000
0001
,
1000
0100
0010
0001
,
0010
0100
1001
0000
,
0110
0000
0001
0000
,
0100
0100
0001
0001
,
1000
0000
0100
0000
,
0010
0010
0001
0001
,
0100
0000
0010
0000
,
1000
1000
0001
0001
,
0010
0000
0100
0000
,
1000
1000
0010
0100
,
1001
0001
0100
0001
,
1000
0010
1000
0010
,
2000
0100
3100
0000
,
0002
0010
0013
0000
,
0001
0100
0001
0100
,
0010
1000
0010
1000
,
0200
0010
0310
0000
,
0002
1000
1003
0000
,
0100
0000
0001
0001
,
0100
0000
1000
1000
,
0010
0000
0001
0001
,
0010
0000
1000
1000
,
0100
0000
0010
0010
,
0001
0000
0100
0100
,
1000
0000
0010
0010
,
0100
0000
0001
1000
,
2002
0000
0000
0000
0000
0000
0000
0000
0000
0000
0000
0000
0000
3003
0000
0000
0000
0000
0000
0000
0000
0000
0000
0000
,
0001
0100
0001
0100
,
1000
0100
1000
0100
,
0001
0010
0001
0010
,
1000
0010
1000
0010
,
0001
0100
0010
1000
,
0001
0010
0100
1000
,
0010
0100
0001
1000
,
0100
0100
0010
0010
,
1001
0100
1000
0001
,
1000
1000
0001
0001
,
0100
0010
1000
0001
,
0010
0010
0100
0100
,
0110
0001
1000
0010
,
1000
1000
0001
0001
,
0010
0001
0100
0010
,
0100
0100
1000
1000
,
0110
0001
1000
0100
,
0010
0001
0100
0010
,
1001
0010
0100
1000
,
0001
0100
1000
0100
,
1001
0010
1000
0100
,
0010
0001
0100
0010
,
1001
0100
0010
0100
,
2002
0000
0000
0000
,
3003
0000
0000
0000
;

//--------------- dance-single - forcednature ----------------
#NOTES:
     dance-single:
     forcednature:
     Medium:
     9:
     0,0,0,0,0:
0000
0000
0000
0000
,
0000
0000
0000
0000
,
0000
0000
0000
0000
,
0000
0000
0000
0000
,
0000
0000
0000
0000
,
1001
0100
0001
0010
,
0100
1000
0010
0100
,
0001
1000
0010
0100
,
0002
0013
1001
0000
,
1001
0000
0001
1000
0100
0000
0010
0000
,
0001
0100
0010
0000
1000
0010
0100
0000
,
0001
0000
0010
0100
1000
0000
0001
0000
,
0100
0001
1000
0000
0100
1000
0001
0000
,
1001
0000
0010
0100
0001
0000
0010
0000
,
0100
1000
0010
0000
0100
0001
0010
0000
,
0100
0000
1000
0010
0100
0000
0001
0000
,
1100
0110
0011
1001
,
0102
1000
0010
1000
,
0100
1000
0010
1003
,
0001
0010
0001
0000
0100
0000
0010
0000
,
1000
0100
1000
0000
0010
0100
0010
0000
,
2100
0001
0010
0001
,
0100
0001
0010
3001
,
1000
0010
1000
0000
0001
0100
0001
0000
,
0020
0000
0100
0000
0031
0010
0100
1000
,
0010
0000
0000
1000
0000
0000
0010
0000
0000
0100
0000
0000
0001
0000
0000
0000
,
1000
0000
0000
0100
0000
0000
0010
0000
0000
0001
0000
0000
0100
0000
0000
0000
,
0010
0000
0000
1000
0000
0000
0001
0000
0000
0010
0000
0000
0001
0000
0000
0000
,
0100
0000
0000
0010
0000
0000
1000
0000
0000
0100
0000
0000
0010
0000
0000
0000
,
0100
0000
0000
1000
0000
0000
0001
0000
0000
0100
0000
0000
0001
0000
0000
0000
,
1000
0000
0000
0100
0000
0000
0010
0000
0000
0001
0000
0000
0100
0000
0000
0000
,
0010
0000
0000
1000
0000
0000
0001
0000
0000
0010
0000
0000
1000
0000
0000
0000
,
0010
0000
0000
0001
0000
0000
0100
0000
0000
0010
0000
0000
1000
0000
0000
0000
,
2002
0000
0000
0000
0000
0000
0000
0000
0000
0000
0000
0000
0000
3003
0000
0000
0000
0000
0000
0000
0000
0000
0000
0000
,
0101
0000
1000
0000
0010
1000
0001
0000
,
1100
0000
0001
0000
0010
0001
0100
0001
,
0010
0000
0100
0000
1000
0010
0100
0000
,
0001
0000
1000
0000
0010
1000
0100
0000
,
0110
0000
0001
0000
1000
0001
0100
0010
,
1000
0000
0100
0000
0010
0001
0100
0010
,
1000
0000
0001
0000
0010
0100
1000
0001
,
0110
1100
0101
1001
,
0101
0000
0010
1000
0100
0000
0010
0000
,
0001
0100
0001
0010
0100
1000
0010
1000
,
0001
0000
0010
0001
0100
0000
0010
0000
,
1000
0100
0010
0001
0100
0010
1000
0100
,
0010
0000
0100
1000
0010
0000
0100
0000
,
0001
0010
0001
0100
0010
0100
0001
0010
,
0001
0000
1000
0010
0100
0000
0010
0000
,
1000
0100
0010
0100
1000
0010
0100
0010
,
1000
0000
0001
0010
0100
0000
1001
0000
,
0010
0001
0100
0001
1000
0010
1000
0100
,
0010
0000
0100
1000
0010
0000
1001
0000
,
0100
0001
1000
0100
1000
0001
0100
0010
,
1000
0000
0100
0010
0001
0000
0110
0000
,
0010
1000
0001
0010
0001
1000
0010
0100
,
0001
0000
0010
0100
1000
1000
0001
0001
,
0200
0000
0000
0000
,
0300
0000
0000
0000
;

//--------------- dance-single - forcednature ----------------
#NOTES:
     dance-single:
     forcednature:
     Hard:
     13:
     0,0,0,0,0:
0000
0000
0000
0000
,
0000
0000
0000
0000
,
0000
0000
0000
0000
,
0000
0000
0000
0000
,
0000
0000
0000
0000
,
1001
0001
0100
0010
,
1000
0000
0100
0000
0010
0000
0001
0000
1000
0000
0100
0010
0100
0000
0000
0000
,
1000
0001
0100
0001
,
1000
0010
1000
0001
1001
0000
0100
0000
,
1001
0000
0001
0100
1000
0000
0100
0000
,
0010
1000
0100
0000
0010
0001
0100
0001
,
1000
0000
0010
0001
0010
0000
0100
0000
,
0001
0010
1000
0010
0100
1000
0001
1000
,
1001
0000
1000
0010
0001
0000
0010
0000
,
0100
0001
0010
0000
0100
0001
0100
1000
,
0010
0000
0100
1000
0100
0000
0001
0000
,
0110
0000
1000
0001
0100
0000
1001
0000
,
0001
0100
1000
0100
0010
0100
0001
1000
,
0100
0010
0001
0010
1000
0010
0100
0000
,
1000
0010
0001
0010
0100
0001
1000
0100
,
0010
1000
0001
0100
0010
0001
0100
0000
,
0010
0001
0010
0100
1000
0100
0001
0010
,
0100
0001
0100
1000
0010
0100
0001
0000
,
1000
0010
0001
1000
0100
0001
0010
0100
,
0001
0100
1000
0010
1000
0001
0010
0000
,
0100
1000
0000
0100
1000
0000
0100
1000
0000
0100
1000
0000
0010
0000
0000
0000
,
0100
0001
0000
0100
0001
0000
0100
0001
0000
0100
0001
0000
1000
0000
0000
0000
,
0100
0010
0000
0100
0010
0000
0100
0010
0000
0100
0010
0000
0001
0000
0000
0000
,
1000
0010
0000
1000
0010
0000
1000
0010
0000
1000
0010
0000
0100
0000
0000
0000
,
0001
0010
0000
0100
1000
0000
0001
0010
0000
0100
1000
0000
0010
0000
0000
0000
,
1000
0001
0000
0100
0010
0000
1000
0001
0000
0100
0010
0000
1000
0000
0000
0000
,
0001
0100
0000
0010
1000
0000
0001
0100
0000
0010
1000
0000
0001
0000
0000
0000
,
1000
0001
0000
0010
0100
0000
1000
0001
0000
0010
0100
0000
1000
0001
1000
0001
,
2000
0000
0000
0000
0000
0000
0000
0000
0000
0000
0000
0000
0000
3000
0000
0000
0000
0000
0000
0000
0000
0000
0000
0000
,
0001
0000
1000
0001
1000
0000
0010
0000
0100
0000
0001
0000
0200
0000
0300
0000
,
0010
0000
1000
0100
1000
0000
0010
0000
0100
0000
0001
0000
0020
0000
0030
0000
,
0100
0000
1000
0001
1000
0000
0010
0000
0100
0000
0001
0000
2000
0000
3000
0000
,
0100
0000
0010
0001
0010
0000
0100
0000
1000
0000
0001
0000
0200
0000
0310
0000
,
0110
0000
0001
1000
0001
0000
0100
0000
0010
0000
1000
0000
0200
0000
1000
0000
,
0310
0000
0001
1000
0001
0000
0100
0000
0010
0000
1000
0000
0002
0000
0010
0000
,
1003
0000
0100
1000
0100
0000
0010
0000
0100
0000
1000
0000
0020
0000
0130
0000
,
0110
0000
1000
0001
1000
0000
0010
0000
0100
0000
0000
0000
1001
0000
0000
0000
,
0011
0000
0000
0000
0001
0000
1000
0000
0010
0000
0100
0001
0100
0000
0000
0000
,
0010
0000
1000
0000
0100
0010
0000
0001
1000
0000
0010
0000
0100
0000
0000
0000
,
0001
0000
0000
0000
1000
0000
0010
0000
0100
0000
0001
1000
0001
0000
0000
0000
,
0010
0000
0100
0000
1000
0001
0000
0100
0001
0000
1000
0000
0010
0000
1000
0000
,
1001
0000
0000
0000
0001
0000
0010
0000
0100
0000
1000
0010
1000
0000
0000
0000
,
0001
0000
0100
0000
0001
0010
0000
0100
1000
0000
0010
0000
0100
0000
0001
0000
,
1000
0000
0000
0000
0100
0000
0010
0000
0001
0000
0100
0010
0100
0000
0000
0000
,
0001
0100
0001
0000
1000
0100
0000
0010
0001
0000
1000
0010
0100
0000
0001
0100
,
0010
0000
0000
0000
1000
0000
0001
0000
0100
0000
0001
0010
0001
0000
0000
0000
,
0100
0000
0010
0000
1000
0001
0000
1000
0100
0000
0010
0000
0001
0000
0000
0000
,
0100
0000
0000
0000
0010
0000
1000
0000
0001
0000
0010
0100
0010
0000
0000
0000
,
0001
0000
1000
0000
0010
0100
0000
0001
1000
0000
0100
0000
0010
0000
0001
0000
,
1001
0000
0000
0000
1000
0000
0010
0000
0100
0000
0001
0010
0001
0000
0000
0000
,
0100
0000
0010
0000
1000
0001
0000
0010
0100
0000
1000
0000
0010
0000
0100
0000
,
0001
0000
0000
0000
0010
0000
0100
0000
1000
0001
0100
0001
1000
0100
0010
0001
,
0200
0000
0000
0000
,
0300
0000
0000
0000
;

//--------------- dance-single - aboutblank ----------------
#NOTES:
     dance-single:
     aboutblank:
     Challenge:
     16:
     0,0,0,0,0:
0000
0000
0000
0000
,
0000
0000
0000
0000
,
0000
0000
0000
0000
,
0000
0000
0000
0000
,
0000
0000
0000
0000
,
1000
0010
0000
0010
0100
0000
0001
1000
0001
0000
0100
0000
0010
0000
1000
0000
,
0001
0010
0000
0010
0100
0000
0001
0100
1000
0000
1000
0100
0010
0000
0001
0000
,
0100
0001
0000
0001
1000
0000
0010
0100
0010
0000
1000
0000
0010
0000
0100
0000
,
0001
1000
0100
0010
0001
0010
1000
0010
0002
0000
0000
0000
1003
0000
0000
0000
,
1010
0000
0000
0010
0001
0000
0000
0001
1000
0000
0100
0010
0100
0000
0000
0000
,
0001
0000
0010
1000
0010
0000
0001
0000
0100
0000
0100
0000
0010
0000
1000
0000
,
1100
0000
0001
1000
0100
0000
0010
0000
0001
0000
0100
0001
1000
0000
0000
0000
,
1000
0000
0001
0010
1000
0000
0010
0000
0001
1000
0010
0100
0001
0100
0010
1000
,
0001
0000
0000
0001
1000
0000
0000
1000
0100
0000
0100
0010
0001
0000
0000
0000
,
0001
0000
1000
0001
0100
0000
0010
0000
1000
0000
0001
0100
0001
0000
0010
0000
,
0001
0000
1000
0010
0001
0000
0010
0100
0001
0000
1000
0100
0010
0001
0100
0001
,
1000
1100
1010
1001
,
1000
0100
1000
0100
0010
0100
0010
0100
0001
0100
0001
0100
0010
0100
0010
0100
,
1000
0001
1000
0001
0010
0001
0010
0001
1000
0001
1000
0001
1000
0100
1000
0100
,
1000
0010
0100
0001
1000
0010
0100
0010
1000
0100
0010
0001
0100
0001
0010
0100
,
1000
0100
0010
0001
1000
0010
0100
0001
1000
0100
0010
0001
2000
0000
3000
0000
,
0001
0100
0001
0100
0010
0100
0010
0100
1000
0100
1000
0100
0010
0100
0010
0100
,
0001
1000
0010
0100
0001
1000
0100
0010
0001
0100
0010
1000
0001
0010
0100
0010
,
0001
0010
0100
1000
0010
1000
0100
1000
0001
1000
0001
0100
0001
0010
0001
0100
,
0001
1000
0010
0000
1000
0001
0010
0000
0001
1000
0010
0000
0220
0000
0330
0000
,
0001
0100
0000
0010
0001
0000
0010
1000
0000
1000
0010
0000
1001
0000
0000
0000
,
1000
0100
0000
0010
1000
0000
0010
0001
0000
0001
0010
0000
1001
0000
0000
0000
,
1000
0100
0000
0100
0010
0000
1000
0010
0000
0010
0001
0000
1001
0000
0000
0000
,
0001
0100
0000
0100
0010
0000
0001
0010
0000
0010
1000
0000
1001
0000
0000
0000
,
1000
0100
0000
0001
0100
0000
1000
0010
0000
0001
0010
0000
1001
0000
0000
0000
,
0001
0100
0000
1000
0100
0000
0001
0010
0000
1000
0010
0000
1001
0000
0000
0000
,
1000
0010
0000
0001
1000
0000
0001
0010
0000
1000
0001
0000
1001
0000
0000
0000
,
0001
0010
0000
1000
0001
0000
1000
0010
0000
0001
1000
0000
1001
0000
0000
0000
,
0220
0000
0330
0000
,
0001
0000
0100
0001
0010
0000
0001
1000
0010
0000
0100
0001
0100
0000
0000
0000
,
0010
0000
1000
0010
0100
0000
0010
0001
0010
1000
0100
0010
0001
0000
0000
0000
,
0100
0000
0001
1000
0100
0000
0100
1000
0010
0000
0010
0100
0001
0000
0000
0000
,
1000
0000
0100
0010
0001
0000
0001
0100
1000
0100
0001
0010
0100
0010
0001
1000
,
0010
0000
1000
0100
1000
0000
0001
1000
0100
0000
0001
0100
1000
0000
0010
0000
,
0100
0000
0001
1000
0100
0000
0010
0001
0100
0010
0001
0010
0100
0000
0001
0000
,
0010
0000
0001
1000
0010
0000
0100
0001
0010
0000
0100
0010
0001
0000
1000
0000
,
0010
0000
0000
0000
0000
0000
0100
0000
0000
0010
0000
0000
0100
0000
0000
0000
0000
0000
0001
0000
1000
0000
0001
0000
1000
0000
0000
0000
0000
0000
0000
0000
0000
0000
0000
0000
1001
0000
0000
0000
0000
0000
0000
0000
0000
0000
0000
0000
,
0001
0000
1000
0001
0100
0000
0010
1000
0100
0010
0100
0010
0001
0000
1000
0000
,
0001
0000
0100
0001
1000
0000
0001
0010
0100
0000
1000
0010
0100
0000
0001
0000
,
1000
0000
0100
1000
0001
0000
0010
0001
1000
0010
1000
0010
0100
0000
0001
0000
,
1000
0000
0100
0010
0001
0000
0100
0010
1000
0000
0100
0010
0110
0000
0001
1000
,
1001
0000
0000
0001
0100
0000
0010
1000
0001
0010
0001
0010
0100
0000
1000
0000
,
0001
0000
1000
0010
0100
0000
1000
0100
0001
0000
0100
0010
1000
0000
0001
0000
,
0010
0000
1000
0010
0001
0000
1000
0001
0010
0001
0010
0001
0100
0000
0010
0000
,
1000
0000
0001
1000
0100
0000
0010
0001
0101
0000
0010
1000
1100
0000
0000
0000
,
0001
0010
0100
1000
0001
0010
0001
0010
0100
0010
0001
0100
0001
1000
0010
1000
,
0100
1000
0010
0100
0001
1000
0001
0100
0010
1000
0001
0010
0001
0010
0100
1000
,
0001
0010
0001
1000
0010
1000
0010
0100
0001
1000
0010
0100
0001
0100
0010
1000
,
0100
1000
0001
1000
0100
0010
0001
0100
0010
0000
1000
0001
1001
0000
0001
0000
,
1000
0010
0100
0001
1000
0100
0010
0100
1000
0010
0100
0010
0100
0001
0010
0001
,
0100
0001
1000
0100
0010
0001
0100
0001
0010
0100
1000
0010
1000
0001
0100
0010
,
0100
0001
1000
0010
0100
0001
0010
0001
1000
0100
0010
1000
0001
0100
0010
0001
,
2000
0000
0000
0000
,
3000
0000
0000
0000
;
