#TITLE:Darling my LUV;
#SUBTITLE:;
#ARTIST:DJ Yoshitaka feat. B-Agents;
#TITLETRANSLIT:;
#SUBTITLETRANSLIT:;
#ARTISTTRANSLIT:;
#GENRE:;
#CREDIT:;
#MUSIC:Darling my LUV.ogg;
#BANNER:;
#BACKGROUND:;
#CDTITLE:;
#SAMPLESTART:67.593;
#SAMPLELENGTH:12.000;
#SELECTABLE:YES;
#OFFSET:1.407;
#BPMS:0.000=100.000;
#STOPS:;
#BGCHANGES:;
#FGCHANGES:;

//--------------- dance-single - Nezemarth ----------------
#NOTES:
     dance-single:
     Nezemarth:
     Beginner:
     2:
     0.095,0.121,0.009,0.045,0:
0000
0000
0000
0000
,
0000
0000
0000
0000
,
0000
0000
0000
0000
,
0000
0000
0000
0000
,
0000
0000
0000
0000
,
2000
0000
3000
0000
,
2000
0000
3000
0000
,
0002
0000
0003
0000
,
0002
0000
0003
0000
,
1000
0000
1000
0000
,
0001
0000
0001
0000
,
1000
0000
1000
0000
,
0001
0000
0001
1001
,
0001
0000
0000
0000
,
0100
0000
0000
0000
,
0010
0000
0010
0000
,
1000
0000
1000
0000
,
0001
0000
0000
0000
,
0001
0000
0000
0000
,
0001
0000
0001
0000
,
0010
0000
0010
0000
,
0100
0000
1000
0000
,
0001
0000
0000
0000
,
0100
0000
0001
0000
,
1000
0000
0000
0000
,
1000
0000
0100
0000
,
0001
0000
0100
0000
,
1000
0000
0010
0000
,
0200
0000
0300
0000
,
0001
0000
0001
0000
,
1000
0000
1000
0000
,
0100
0000
0010
0000
,
0100
0000
0000
0000
,
1000
0000
1000
0000
,
0001
0000
0100
0000
,
0010
0000
0010
0000
,
1000
0000
0000
0000
,
0001
0000
0001
0000
,
1000
0000
1000
0000
,
0100
0000
0010
0000
,
0100
0000
0000
0000
,
1000
0000
1000
0000
,
0001
0000
0100
0000
,
0010
0000
1000
0000
,
0001
0000
1000
1000
;

//--------------- dance-single - Nezemarth ----------------
#NOTES:
     dance-single:
     Nezemarth:
     Easy:
     4:
     0.242,0.284,0.162,0.28,0:
0000
0000
0000
0000
,
0000
0000
0000
0000
,
0000
0000
0000
0000
,
0000
0000
0000
0000
,
0000
0000
1000
1000
,
1001
0001
0000
0000
0001
0000
0000
0000
,
0100
0000
0010
0000
,
1000
1000
0000
0000
0100
0000
0000
0000
,
0010
0000
0000
0000
0002
0003
2000
3000
,
0002
0000
0103
0010
,
2000
0000
3100
0010
,
0002
0000
0103
0010
,
2000
0000
0000
0000
3100
0100
0010
0000
,
2002
3003
0000
0000
1000
0000
0010
0000
,
0200
0300
0000
0000
0000
0000
0101
0000
,
0001
0001
0000
0000
0010
0010
0000
0000
,
0100
0100
0000
0000
2000
3000
0002
0003
,
2002
3003
0000
0000
1000
0000
0010
0000
,
0200
0300
0000
0000
0000
0000
0001
0000
,
0010
0010
0100
0100
,
1000
0000
1000
0000
0002
0003
1000
1000
,
0010
0000
0100
0000
0001
0000
0010
0200
,
0000
0000
0300
0000
0000
0000
1000
1000
,
0010
0100
0001
0010
,
0100
0000
1000
0001
0000
0000
0100
0000
,
0110
0000
0010
0100
0000
0000
0001
0000
,
1001
0000
0001
1000
0000
0000
0100
0000
,
0110
0001
1000
0010
,
0200
0300
0200
0300
0110
0000
0010
0000
,
1001
0001
0010
0100
,
1001
1000
0010
0100
,
1001
0000
0001
0010
,
0100
0000
0000
0000
2000
3000
0020
0030
,
1010
0010
0100
0001
,
0011
0000
0100
1000
,
0020
0030
0200
0000
,
0301
0000
0000
0000
0002
0003
0020
0030
,
0110
0001
0100
0010
,
0110
0010
1000
0100
,
0220
0330
0000
0000
0001
0000
0100
0000
,
0010
0000
0200
0000
2000
3000
0002
0303
,
0101
0001
0010
0100
,
1100
0000
0010
0100
,
0002
0003
2000
0000
,
3100
0000
0000
0000
0010
0010
0010
0010
;

//--------------- dance-single - Nezemarth ----------------
#NOTES:
     dance-single:
     Nezemarth:
     Medium:
     10:
     0.414,0.466,0.352,0.253,0.09:
0000
0000
0000
0000
,
0000
0000
0000
0000
,
0000
0000
0000
0000
,
0000
0000
0000
0000
,
0000
0000
0000
0000
1000
1000
0001
0001
,
0102
0000
0000
0000
0103
0000
0010
1000
,
0002
0000
0000
0000
0013
0000
0100
1000
,
2001
0000
0000
0000
3001
0000
0100
0010
,
2000
0000
0000
3000
1010
1010
1001
1001
,
2100
0000
0000
0000
3100
0010
0001
0100
,
0020
0000
0000
0000
1030
0001
0010
0100
,
0120
0000
0000
0000
0130
1000
0001
0100
,
0020
0000
0000
0000
1030
1001
0011
0000
,
0110
0100
0000
0000
0100
1000
0100
0010
,
0002
0100
0000
0000
2000
0000
3003
0000
,
1000
1000
0100
0000
0001
0001
0100
0000
,
0110
0001
1000
0000
1010
1000
1001
0001
,
0101
0100
0000
0000
0001
0100
0010
1000
,
0002
0010
0000
0000
2000
0000
3003
0000
,
1000
0100
0010
0000
0001
0100
0010
0000
,
1000
0100
0010
0001
1001
1001
0001
1000
,
1010
1000
0001
1000
0100
1000
0010
0100
,
0002
0000
0010
1000
0013
0000
0001
0100
,
0010
1000
0001
1000
0100
0010
2000
0000
,
3010
0001
1000
0010
0100
0000
0100
0001
,
1001
1000
0100
0020
0000
0030
0010
0001
,
1001
1000
0010
0200
0000
0300
0000
0100
,
0101
0000
0100
0010
0000
0010
1000
0100
,
1100
0000
1100
0000
1001
0000
1001
0000
0001
0000
0000
0000
0100
0000
0001
0100
,
0001
0000
1000
0000
0100
0000
0010
0002
0000
0000
0003
0000
0001
0000
0010
0001
,
0010
0000
0100
0000
1000
0000
0010
0200
0000
0300
0000
0000
0001
1000
0001
1000
,
0020
0030
0000
0000
1000
0010
0001
0010
,
1000
0000
0001
0000
0010
0000
0100
0000
1100
0000
1100
0000
1001
0000
0001
0100
,
0001
0000
0010
0000
0100
0000
1000
0002
0000
0000
0003
0000
0001
0010
0001
0010
,
0200
0300
0000
0000
1000
0010
0001
0010
,
0200
1000
0302
0010
,
1003
0000
0100
0000
0010
0000
0100
0000
1100
0000
1100
0000
0011
0000
0001
1000
,
0001
0000
0100
0000
0010
0000
1000
0200
0000
0000
0300
0000
0001
0000
0100
0010
,
0100
0000
1000
0000
0010
0000
0100
0002
0000
0003
0000
0000
1000
0100
1000
0100
,
0020
0030
0000
0000
0001
0100
1000
0100
,
0001
0000
1000
0000
0100
0000
0010
0000
0011
0000
0011
0000
1001
0000
1000
0010
,
0100
0000
0001
0000
1000
0000
0100
0020
0000
0000
0030
0000
0001
0100
0001
0100
,
0020
0030
0000
0000
1000
0010
0100
0001
,
0010
0000
1001
1000
0010
0000
0100
0001
,
1000
0100
0010
0000
0011
1001
0101
1001
;

//--------------- dance-single - Nezemarth ----------------
#NOTES:
     dance-single:
     Nezemarth:
     Hard:
     12:
     0.487,0.506,0.397,0.135,0.334:
0000
0000
0000
0000
,
0000
0000
0000
0000
,
0000
0000
0000
0000
,
0000
0000
0000
0000
,
0000
0000
0000
0000
0000
0000
0000
0000
1000
0001
1000
0001
1000
0001
1000
0001
,
0100
0010
0100
0010
0000
0000
0000
0000
1000
0000
0000
0000
0001
0000
0000
0000
,
0010
0100
0010
0100
0000
0000
0000
0000
1000
0000
0000
0000
0001
0000
0000
0000
,
0100
0010
0100
0010
0000
0000
0000
0000
1000
0000
0000
0000
0001
0000
0000
0000
,
0010
0100
0010
0100
0000
0000
0000
0000
1100
0000
1001
0000
0101
0000
0110
0000
,
0010
1000
0010
1000
0001
0000
0010
0000
0100
0000
1000
0000
1001
0000
0000
0000
,
0001
0010
0001
0010
0100
0000
1000
0000
0010
0000
0100
0000
1001
0000
0000
0000
,
1000
0100
1000
0100
0010
0000
0001
0000
0100
0000
0010
0000
1001
0000
0000
0000
,
0001
0100
0001
0100
0010
0000
1000
0000
1100
0000
0110
0000
0011
0000
0000
0000
,
1001
1001
0000
0000
1000
0010
1000
0100
,
0110
0000
2002
0000
0000
0000
3003
0000
0000
0000
0000
0000
0101
0000
0000
0100
,
0010
0100
0001
0000
1000
0000
0000
0100
0010
0100
1000
0000
0001
0000
0000
0000
,
1000
0010
0100
0000
0001
0000
0000
0000
0011
0000
0110
0000
1100
0000
1001
0000
,
0001
0100
0001
0100
0000
0000
0000
0000
0010
0000
1000
0000
0001
0000
0010
0000
,
0100
1000
0100
2000
0000
0000
0000
3000
0000
0000
0000
0000
1001
0000
0000
0000
,
0001
0010
0011
0000
1000
0010
1010
0000
,
0010
0000
0100
0000
0001
0000
1000
0100
0010
0000
0110
0000
0001
0000
1000
0000
,
1010
0000
0000
1000
0001
0000
0010
0000
0100
0000
0001
0000
0100
0000
1000
0000
,
0020
0000
0000
0000
0001
0000
0100
0000
1000
0000
0100
0000
0031
0010
0100
0000
,
0101
0001
1000
0100
0010
1000
0001
0000
,
0100
0000
1000
0000
0010
0000
0100
0000
1000
0000
0100
0000
0010
1000
0000
1000
,
0001
0001
0010
0200
0000
0300
1000
1000
,
0010
0100
0001
2000
0000
3000
0000
0001
,
0011
0000
0000
0010
0100
0000
1000
0000
0010
0000
0100
0000
0001
0000
0010
0000
,
0011
0000
0011
0000
1100
0000
1100
0000
1001
0000
0000
0000
0001
0000
0100
0010
,
1000
0000
1000
0000
0100
0000
0010
0002
0000
0000
0103
0000
0010
1000
0010
1000
,
0001
0000
0001
0000
0010
0000
0100
2000
0000
3000
0000
0000
0001
0100
0010
0100
,
0001
0000
0001
0000
0000
0000
1000
0200
0000
0000
0310
0000
0001
0000
0100
0000
,
0001
0000
1000
0010
0100
0000
0001
0000
0011
0000
0011
0000
1001
0000
1000
0010
,
0100
0000
0001
0000
1000
0000
0100
0020
0000
0000
0031
0000
0100
0010
0100
0010
,
1000
0000
1000
0000
0000
0000
0001
0010
0000
1000
0000
0010
0000
0100
0000
2000
,
0000
0000
0000
0000
3010
0000
0010
0200
0000
0000
0000
0000
0301
0000
0000
0000
,
0001
0000
1000
0000
0100
0000
0100
0000
0110
0000
0110
0000
0011
0000
0001
1000
,
0010
0000
0010
0000
0100
0000
0001
1000
0000
1000
0100
0000
0010
0000
0001
1000
,
0001
0000
0001
0000
0100
0000
0010
1000
0000
0000
0000
0000
0001
0010
0001
0010
,
0100
0000
0100
0000
0000
0000
1000
0010
0000
0000
0010
0000
0100
0000
1000
0000
,
0100
0000
0001
1000
0100
0000
0010
0000
0011
0000
0011
0000
1001
0000
1000
0010
,
0100
0000
0100
0000
0001
0000
1000
0200
0000
0000
0301
0000
0100
0010
0100
0010
,
0001
0000
0001
0000
0000
0000
1000
0010
0000
0100
0000
1000
0000
0100
0000
0002
,
0000
0000
0000
0000
0013
0000
0010
0200
0000
0000
0000
0000
1300
0000
0010
0000
,
0100
0000
0001
0000
0010
0100
0010
0000
0011
0000
1001
0000
0101
0000
1001
0000
;

//--------------- dance-single - Nezemarth ----------------
#NOTES:
     dance-single:
     Nezemarth:
     Challenge:
     13:
     0.572,0.568,0.343,0.045,0.632:
0000
0000
0000
0000
,
0000
0000
0000
0000
,
0000
0000
0000
0000
,
0000
0000
0000
0000
,
0000
0000
0000
0000
0000
0000
0000
0000
1000
0100
1000
0100
0001
0100
0001
0100
,
0010
0001
0010
0001
0000
0000
0000
0100
0010
0100
0000
0001
0000
0010
0000
0001
,
1000
0100
1000
0100
0000
0010
0000
0001
0010
0001
0000
0100
0000
1000
0000
0100
,
0010
1000
0010
1000
0000
0000
0000
0100
0010
0100
0000
1000
0000
0010
0000
0100
,
0010
1000
0010
1000
0000
0001
0000
0010
0100
0000
0110
0000
1100
0000
1001
0000
,
0101
0000
0100
0010
1000
0100
0010
0000
0001
0000
1000
0010
1000
0001
0000
0001
,
0010
0000
0100
1000
0001
0100
0010
0000
1000
0000
0100
0010
0100
1000
0000
0000
,
1100
0000
1000
0010
0100
0001
0010
0000
0100
0000
1000
0010
0100
0010
0000
0010
,
1000
0000
0100
0010
0001
0100
0010
0000
0110
0000
1001
0000
0101
0000
0000
0000
,
1000
0100
0010
0001
0000
0000
0000
0000
1000
0000
0010
0000
1000
0000
0001
0000
,
1000
0000
0100
0000
0010
0000
0002
0000
0000
0000
0003
0000
0001
0000
0100
0000
0000
0000
0000
0000
0000
0000
0100
0010
2000
0000
3000
0000
0000
0000
1000
0000
,
0001
0100
0001
0000
1000
0000
0000
0010
0100
1000
0100
0000
0010
0000
0000
0000
,
0010
0100
0001
0000
1000
0000
0000
0000
1100
0000
0110
0000
0011
0000
1001
0000
,
0001
0100
0010
1000
0000
0000
0000
0000
1000
0000
0100
0000
0001
0000
0100
0000
,
1000
0000
0010
0000
0100
0000
0001
0000
0000
0000
0000
0000
0010
0000
0100
0000
0000
0000
0000
0000
0000
0000
1000
0010
0200
0000
0300
0000
0000
0000
0100
0000
,
0001
1000
0001
1000
0100
0000
0000
0010
0001
1000
0001
0000
0100
0000
0000
0010
,
1000
0001
0010
0100
0010
0001
0100
1000
1100
0000
0110
0000
0010
0100
0001
1000
,
1001
0000
1000
0100
1000
0000
0001
0100
0001
0000
1000
0000
0100
0000
0010
0000
,
0001
0000
1000
0000
0010
0000
1000
0000
0001
0000
0100
0000
0001
0010
0100
0000
,
1001
0000
1000
0010
1000
0000
0001
0010
0001
0000
1000
0000
0010
0000
0100
0000
,
0001
0000
0010
0100
1000
0000
0100
0010
0001
0000
1000
0000
0001
0100
0010
0000
,
1001
1000
0100
0001
0200
0300
0010
0001
,
1000
0010
0001
0010
0200
0300
0110
0010
,
1001
0001
0010
0100
1000
0010
0100
0001
,
1001
0000
1001
0000
0110
0000
0110
0000
1001
0000
0000
0000
1000
0000
0100
0010
,
0001
0000
0100
0000
1000
0000
0100
0010
0000
0000
0010
0000
1000
0100
0010
0100
,
1000
0000
1000
0000
0001
0000
0100
0010
0000
0000
0010
0000
1000
0100
0010
1000
,
0010
0000
0010
0000
0000
0000
0001
1000
0000
0010
0100
0000
0001
0010
0100
0000
,
1000
0000
0100
0010
0001
0000
1000
0000
1010
0000
1010
0000
0101
0000
0101
0100
,
0010
0000
0010
0000
1000
0100
0010
0100
0000
0000
0100
0000
1000
0001
0010
0001
,
1000
0000
1000
0000
0010
0100
0001
0010
0000
0100
0000
1000
0000
0010
0000
1000
,
0001
0000
0010
0000
0100
1000
0001
0100
0010
0000
1000
0000
1001
0000
0000
0000
,
0001
0010
0100
1000
0001
0000
0100
0000
0110
0000
0110
0000
1010
0000
1000
0001
,
0010
0000
0010
0000
0100
0000
1000
0010
0000
0010
0100
0000
0001
0010
0100
0010
,
0001
0000
0001
0000
1000
0000
0010
0100
0000
0000
0000
0000
0100
0001
1000
0100
,
0010
0000
0000
0000
0000
0000
0010
0000
0000
0000
0000
0000
0000
0000
0000
0000
0000
0000
0001
0000
0000
1000
0000
0000
0000
0000
0000
0000
0000
0000
1000
0000
0000
0000
0000
0000
0010
0000
0100
0000
0010
0000
0100
0000
0000
0000
0000
0000
,
0001
0000
0010
0100
1000
0000
0010
0100
0101
0000
0101
0000
0011
0000
0011
0010
,
0100
0000
0100
0000
1000
0000
0010
0100
0000
0001
0010
0000
0100
1000
0001
1000
,
0010
0000
0010
0000
0100
0000
0001
0010
0000
1000
0000
0010
0000
0100
0000
1000
,
0100
0100
0110
0000
0001
0100
0101
0000
,
0100
0010
1000
0100
0010
0000
0001
0000
0100
1000
0100
0010
1000
0100
0010
0001
;
