#TITLE:Dancing Boom;
#SUBTITLE:;
#ARTIST:Studio Bongo Mango feat. HIYORI;
#TITLETRANSLIT:;
#SUBTITLETRANSLIT:;
#ARTISTTRANSLIT:;
#GENRE:;
#CREDIT:;
#MUSIC:Dancing Boom.mp3;
#BANNER:;
#BACKGROUND:;
#CDTITLE:;
#SAMPLESTART:52.247;
#SAMPLELENGTH:12.000;
#SELECTABLE:YES;
#OFFSET:-2.156;
#BPMS:0.000=115.002;
#STOPS:;
#BGCHANGES:;
#FGCHANGES:;

//--------------- dance-single - ----------------
#NOTES:
     dance-single:
     :
     Beginner:
     3:
     0.131,0.158,0.048,0,0:
0000
0000
0000
0000
,
0000
0000
0000
0000
,
0000
0000
0000
0000
,
0000
0000
0000
0000
,
1000
0000
0100
0000
,
0001
0000
0100
0000
,
1000
0000
0010
0000
,
1001
0000
0000
0000
,
1000
0000
0000
0000
,
1000
0000
0000
0000
,
0001
0000
0010
0000
,
1001
0000
0000
0000
,
0001
0000
0000
0000
,
1000
0000
0000
0000
,
0010
0000
0100
0000
,
1001
0000
0001
0001
,
0000
0000
1000
1000
,
0000
0000
0001
0001
,
1000
0001
1000
0000
,
1001
0000
0010
0010
,
0000
0000
0100
0100
,
0000
0000
0010
0010
,
1000
0001
1000
0001
,
1000
0000
0000
1000
,
0001
0000
0000
0001
,
1000
1000
1000
0000
,
0100
0000
0000
0010
,
0100
0000
0000
0100
,
0010
0000
0000
0010
,
0100
0100
0100
0000
,
1000
0000
0000
0001
,
1001
0000
0100
0000
,
1000
0000
0100
0000
,
0001
0000
0100
0000
,
1000
1000
1000
1000
,
1000
0000
0000
0000
,
0001
0000
0000
0000
,
1000
0000
1000
0000
,
0100
0100
0100
0100
,
0010
0000
0010
0000
,
0001
0000
0001
0000
,
0100
0000
0100
0000
,
1000
0000
0000
0000
,
1000
0000
1000
0000
,
0100
0000
0100
0000
,
0001
0000
1000
0000
,
0100
0100
0100
0010
;

//--------------- dance-single - ----------------
#NOTES:
     dance-single:
     :
     Easy:
     5:
     0.231,0.294,0.222,0.087,0:
0000
0000
0000
0000
,
0000
0000
0000
0000
,
0000
0000
0000
0000
,
1000
1000
0100
0100
,
0001
0001
0200
0300
,
1000
1000
0010
0010
,
0001
0001
0020
0030
,
1010
0010
1000
0100
,
0000
0010
1000
0100
,
0000
0010
1000
0100
,
0001
0100
0010
0001
,
1001
0001
0100
0010
,
0000
0001
0100
0010
,
0000
0001
0100
0010
,
0001
0010
1000
0001
,
1001
0000
1000
0100
,
0010
0000
0001
0100
,
0000
0000
0010
1000
,
0100
0001
0100
0100
,
1001
0000
1000
0010
,
0100
0000
0010
1000
,
0000
0000
0001
0010
,
0110
1100
0011
0101
,
1001
0000
0000
1000
,
1001
0000
0000
0001
,
1001
1000
0010
0200
,
0300
0000
0000
0001
,
1001
0000
0000
1000
,
1001
0000
0000
0001
,
1001
1000
0100
0001
,
0100
0000
0000
0010
,
1002
0000
0100
0100
,
2003
0000
0100
0100
,
3002
0000
0100
0100
,
1003
1000
1010
0011
,
1001
0000
0000
0000
,
1001
0000
0000
0000
,
1001
1001
1000
0010
,
0100
0100
0001
0001
,
1001
1000
0100
0100
,
0001
0001
0200
0300
,
1000
1000
0010
0010
,
0001
0001
0020
0030
,
1010
0010
1000
0100
,
0000
0010
1000
0100
,
0000
0010
1000
0100
,
0001
0000
0100
0000
0010
0000
0002
0003
;

//--------------- dance-single - ----------------
#NOTES:
     dance-single:
     :
     Medium:
     10:
     0.427,0.429,0.164,0.116,0.048:
0000
0000
0000
0000
,
0000
0000
0000
0000
,
0000
0000
0000
0000
,
1000
0010
1000
0001
1000
0100
1000
0100
,
0010
0001
1000
0001
0100
0001
1000
0000
,
1000
0010
1000
0001
1000
0100
1000
0100
,
0010
0001
1000
0001
0100
0001
1000
0000
,
0000
1000
0100
0100
0010
0100
1000
0100
,
0000
0001
0100
0100
0010
1000
0010
0100
,
0000
1000
0010
0010
0100
1000
0100
0010
,
0000
1000
0100
0010
1000
0010
0001
0000
,
1000
0001
0100
0100
1000
0100
0010
0100
,
0000
0001
0010
0100
0001
0010
1000
0001
,
0000
1000
0010
0100
1000
0010
0001
1000
,
0000
0010
0100
1000
0001
0010
0100
0001
,
1001
0000
0000
1000
0000
0000
0100
0000
0010
0000
0100
0000
0001
0000
0000
0000
,
0000
0000
0100
0000
0000
0100
0000
0000
1000
0000
0001
0000
0100
0000
0000
0000
,
0000
0000
0010
0000
0000
0010
0000
0000
0001
0000
1000
0000
0100
0000
0000
0000
,
0001
0000
0001
0010
0000
0010
0200
0000
0000
0001
0000
0000
,
1300
0000
0010
0000
0000
0010
0000
0000
0100
0000
0001
0000
1000
0000
0000
0000
,
0000
0000
0001
0000
0000
0001
0000
0000
0010
0000
0100
0000
0001
0000
0000
0000
,
0000
0000
0100
0000
0000
0100
0000
0000
1000
0000
0010
0000
0100
0000
0000
0000
,
1000
0000
0000
0000
1000
0000
0100
0000
0000
0000
0100
0000
0010
0000
0000
0000
0000
0000
1000
0000
0000
0001
0000
0000
,
1002
0000
0010
0000
1003
0001
0100
0001
,
2001
0000
0010
0000
3001
1000
0100
1000
,
1002
0000
0010
0000
1003
0001
0100
1000
,
0200
0000
0010
0000
0301
1000
0100
1000
,
1002
0000
0100
0000
1003
0001
0010
0001
,
1002
0000
0100
0000
1003
0001
0010
0001
,
1002
0000
0100
0000
1003
0001
0010
1000
,
0020
0000
0001
0000
0130
1000
0010
0100
,
2100
0000
0001
0000
3100
0100
0001
0000
,
0020
0000
1000
0000
0031
0001
0010
0000
,
2000
0000
0100
0000
3001
0001
0100
0000
,
0001
0010
0100
1000
0001
0010
0100
1000
,
1001
0000
0000
0000
0000
1000
0010
0100
,
1001
0000
0000
0000
0000
0001
0010
0100
,
1001
0000
1001
0000
1000
0100
0010
0100
,
1000
0010
0100
0001
0010
0100
1000
0001
,
1001
0001
0010
0001
1000
0001
0100
0001
,
1001
1000
0010
1000
0001
1000
0100
0010
,
1001
0000
1001
0000
1000
0010
0100
0001
,
1000
0100
0010
0100
1000
0000
0001
0100
,
0110
0000
0010
1000
0100
0001
0100
0000
,
1000
0010
0100
1000
0100
0001
1000
0000
,
0100
0010
1000
0010
0001
0100
0010
0000
,
0001
0010
1000
0001
0010
0100
1000
1000
;

//--------------- dance-single - ----------------
#NOTES:
     dance-single:
     :
     Hard:
     13:
     0.579,0.589,0.135,0.087,0.511:
0000
0000
0000
0000
,
0000
0000
0000
0000
,
0000
0000
0000
0000
,
1000
0100
0001
0100
1000
0100
0010
0001
,
1000
0010
0001
0010
1000
0010
0001
0000
,
0001
0010
1000
0010
0001
0010
1000
0100
,
0010
1000
0010
0001
0010
1000
0010
0000
,
1001
0000
1000
0010
0100
0000
0001
0000
1000
0000
0100
0000
0010
0000
0100
0000
,
0000
0000
1000
0010
0100
0000
0001
0000
1000
0000
0100
0000
0010
0000
0100
0000
,
0000
0000
1000
0010
0100
0000
0001
0000
0010
0000
0100
0000
1000
0000
0100
0000
,
0000
0000
0010
0001
1000
0000
0010
0000
0100
0000
0001
0000
1000
0000
0000
0000
,
1001
0000
0001
0010
0100
0000
1000
0000
0010
0000
0100
0000
1000
0000
0100
0000
,
0000
0000
0001
0010
0000
0010
0100
0000
0001
0000
0100
0000
0010
0000
0001
0000
,
0000
0000
1000
0010
0000
0100
0000
1000
0100
0000
0010
0000
1000
0000
0100
0000
,
0000
0000
0001
0100
0010
0000
0001
0000
1000
0000
0010
0000
0100
0000
0010
0000
,
1010
0000
1000
0100
0000
0100
0010
0000
1000
0010
0100
0000
2000
0000
3000
0000
,
0000
0000
0001
0100
0000
0100
0010
0000
0001
0010
0100
0000
0002
0000
0003
0000
,
0000
0000
1000
0100
0000
0100
0010
0000
1000
0010
0100
0000
1000
0000
1000
0000
,
0010
0000
0000
0000
0100
0000
0000
0000
0001
0000
0000
0000
1000
0000
0000
0000
0100
0000
0000
0000
0010
0000
0000
0000
0200
0000
0000
0000
0000
0000
0000
0000
0000
0000
0000
0000
1300
0000
0000
0010
0000
0000
1000
0000
0000
0000
0000
0000
,
1010
0000
0010
0100
0000
0100
1000
0000
0100
0001
0010
0000
0200
0000
0300
0000
,
0000
0000
0010
0100
0000
0100
0001
0000
0100
1000
0010
0000
0200
0000
0300
0000
,
0000
0000
0010
0100
0000
0100
1000
0000
0100
0001
0010
0000
0200
0000
0300
0000
,
0001
0000
0100
0000
0010
0000
0001
0000
1000
0000
0010
0000
0100
0000
0000
0001
0000
0000
1001
0000
0000
1000
0000
0000
,
1001
0000
1000
0100
0010
0001
0000
0000
0000
0001
0000
0001
1000
0000
0010
0000
,
1000
0000
0001
0100
0010
1000
0000
0000
0000
1000
0000
1000
0001
0000
0010
0000
,
0001
0000
1000
0100
0010
0001
0000
0000
1000
0010
0000
0100
1000
0000
0100
0000
,
0001
0000
1000
0010
0001
0010
0000
0100
0001
0000
1001
0000
1100
0000
1000
0000
,
0001
0000
0100
0010
1000
0100
0010
0000
0001
0000
1000
0000
0010
0000
0100
0000
,
0001
0000
0010
0100
1000
0001
0000
0000
0000
0000
1000
0000
0100
0000
0010
0000
,
0001
0000
1000
0010
0100
0001
0010
0000
0100
0000
1000
0000
0010
0000
0100
0000
,
1000
0000
0100
0001
0010
0001
0000
1000
0001
0000
0001
0000
0101
0000
0100
0000
,
0110
0000
1000
0100
0001
0100
2000
0000
,
3000
0000
0001
0100
0000
0100
1000
0000
0100
0000
0001
0000
2000
0000
0000
0000
,
3000
0000
0001
0010
0100
0000
0001
0000
0100
0000
1000
0000
0002
0000
0000
0000
,
1003
0010
1000
0010
1000
0001
1000
0001
0010
0001
0010
0001
1000
0000
0010
0000
,
0100
0000
0001
0010
0100
1000
0000
0000
0000
0000
0010
0000
1000
0000
0001
0000
,
1000
0000
0001
0100
0010
1000
0000
0000
0000
0000
0001
0000
0010
0000
0001
0000
,
1000
0000
0010
0100
0001
1000
0000
0000
0001
0000
0010
0000
0100
0000
0010
0000
,
0001
0100
0001
0100
0010
0100
0010
0100
1000
0100
1000
0100
0010
0000
1000
0000
,
1010
0000
1000
0100
0010
0100
1000
0000
0010
0000
0100
0000
0001
0000
0010
0000
,
0100
0000
1000
0010
0100
0010
1000
0000
0100
0000
0001
0000
0100
0000
1000
0000
,
1001
0000
0001
0010
0100
0010
0001
0000
0100
0000
0010
0000
0001
0000
0010
0000
,
1000
0000
0001
0010
1000
0010
0000
0010
0001
0000
1000
0000
0010
0000
0100
0000
,
0110
0000
0100
0001
0000
0010
0100
0000
1000
0000
0100
0000
0001
0000
1000
0000
,
1010
0000
0010
1000
0000
0001
0100
0000
1000
0000
0010
0000
0100
1000
0001
0000
,
0010
0000
1000
0001
0010
0000
0000
0000
1000
0000
0010
0000
0001
0000
0000
0000
,
1000
0010
1000
0010
0100
0001
0100
0001
1000
0010
1000
0001
1000
0100
0010
0001
;
