#TITLE:Dancer In The Flash;
#SUBTITLE:;
#ARTIST:First Circle;
#TITLETRANSLIT:;
#SUBTITLETRANSLIT:;
#ARTISTTRANSLIT:;
#GENRE:;
#CREDIT:;
#MUSIC:Dancer In The Flash.mp3;
#BANNER:;
#BACKGROUND:;
#CDTITLE:;
#SAMPLESTART:13.213;
#SAMPLELENGTH:15.000;
#SELECTABLE:YES;
#OFFSET:0.698;
#BPMS:0.000=155.000;
#STOPS:;
#BGCHANGES:;
#FGCHANGES:;

//--------------- dance-single - forcednature ----------------
#NOTES:
     dance-single:
     forcednature:
     Beginner:
     3:
     0,0,0,0,0:
0000
0000
0000
0000
,
0000
0000
0000
0000
,
0000
0000
0000
0000
,
0000
0000
0000
0000
,
0000
0000
0000
0000
,
0100
0000
0100
0000
,
0010
0000
0010
0000
,
1000
0000
0001
0000
,
0010
0000
0000
0000
,
0100
0000
0000
0000
,
1000
0000
0000
0000
,
0001
0000
0100
0000
,
0001
0000
0000
0000
,
0010
0000
0000
0000
,
0001
0000
0000
0000
,
1000
0000
0010
0000
,
1000
0000
0000
0000
,
0001
0000
0000
0000
,
1000
0000
0000
0000
,
0100
0000
0010
0000
,
0100
0000
0000
0000
,
1000
0000
0000
0000
,
0001
0000
0000
0000
,
0100
0000
0010
0000
,
0100
0000
0000
0000
,
0000
0010
0000
0010
,
1000
0000
0000
0000
,
0001
0000
0000
0000
,
0010
0000
0000
0000
,
0100
0000
0000
0000
,
1000
0000
0000
0000
,
0001
0000
0000
0000
,
0100
0000
0000
0000
,
0010
0000
0000
0000
,
1000
0000
0000
0000
,
0001
0001
0001
0001
,
0001
0000
0000
0000
,
0100
0000
0010
0000
,
1000
0000
0000
0000
,
0001
0000
0000
0000
,
0010
0000
0000
0000
,
0001
0000
0100
0000
,
0010
0000
0000
0000
,
1000
0000
0000
0000
,
0100
0000
0000
0000
,
0100
0000
0100
0000
,
1000
0000
0000
0000
,
1000
0000
0000
0000
,
0100
0000
0000
0000
,
0100
0000
0100
0000
,
0001
0000
0001
0000
,
0001
0000
0000
0000
,
0010
0000
0000
0000
,
1000
0000
0000
0000
,
0001
0000
0000
0000
,
0100
0000
0000
0000
,
0010
0000
0000
0000
,
1000
0000
1000
0000
,
0001
0000
0001
0000
,
0010
0000
0010
0000
,
0100
0000
0100
0000
,
1001
0000
0000
0000
;

//--------------- dance-single - forcednature ----------------
#NOTES:
     dance-single:
     forcednature:
     Easy:
     7:
     0,0,0,0,0:
0000
0000
0000
0000
,
0000
0000
0000
0000
,
0000
0000
0000
0000
,
0000
0000
0000
0000
,
0000
0000
0000
0000
,
1000
0001
0100
0010
,
1000
0100
0010
0001
,
0100
1000
0100
0001
,
0010
0000
0200
0000
,
1300
0001
1000
0010
,
0100
0000
0000
0100
0000
0000
0100
0000
0000
0000
0000
0000
0001
0000
0000
0000
,
0010
0000
0000
0010
0000
0000
0010
0000
0000
0000
0000
0000
0100
0000
0000
0000
,
1000
0000
0000
1000
0000
0000
1000
0000
0000
0000
0000
0000
0000
0000
0000
0000
,
0001
0100
0010
1000
,
0001
0000
0000
0001
0000
0000
0001
0000
0000
0000
0000
0000
0010
0000
0000
0000
,
0100
0000
0000
0100
0000
0000
0100
0000
0000
0000
0000
0000
1000
0000
0000
0000
,
0001
0000
0000
0001
0000
0000
0001
0000
0000
0000
0000
0000
0000
0000
0000
0000
,
0100
0010
1000
0001
,
0010
0000
0000
0100
0000
0000
0010
0000
0000
0000
0000
0000
0001
0000
0000
0000
,
1000
0000
0000
0001
0000
0000
1000
0000
0000
0000
0000
0000
0010
0000
0000
0000
,
0100
0000
0000
0001
0000
0000
0100
0000
0000
0000
0000
0000
0000
0000
0000
0000
,
0010
1000
0100
1000
,
0001
0000
0000
1000
0000
0000
0001
0000
0000
0000
0000
0000
0010
0000
0000
0000
,
0100
0000
0000
1000
0000
0000
0100
0000
0000
0000
0000
0000
0010
0000
0000
0000
,
0001
0000
0000
0100
0000
0000
0001
0000
0000
0000
0000
0000
0000
0000
0000
0000
,
2000
0001
0000
0001
,
3001
0100
0020
0000
,
1030
0100
0020
0000
,
0031
1000
0020
0000
,
0130
0001
2000
0000
,
3100
1000
0010
1000
,
0001
0100
0001
0010
,
0100
1000
0001
0100
,
0010
1000
0001
0010
,
0100
0100
0100
0100
,
1000
0000
0000
0001
0000
0000
1000
0000
0000
0000
0000
0000
0010
0000
0000
0000
,
0100
0001
0010
0001
,
0100
0000
0000
0100
0000
0000
0100
0000
0000
0000
0000
0000
0010
0000
0000
0000
,
1000
0000
0000
1000
0000
0000
1000
0000
0000
0000
0000
0000
0100
0000
0000
0000
,
0010
0000
0000
0010
0000
0000
0010
0000
0000
0000
0000
0000
0000
0000
0000
0000
,
0001
1000
0001
0100
,
0001
0000
0000
0001
0000
0000
0001
0000
0000
0000
0000
0000
0010
0000
0000
0000
,
0100
0000
0000
0100
0000
0000
0100
0000
0000
0000
0000
0000
1000
0000
0000
0000
,
0010
0000
0000
0010
0000
0000
0010
0000
0000
0000
0000
0000
0000
0000
0000
0000
,
1000
0001
0010
0100
,
1000
0000
0000
0010
0000
0000
1000
0000
0000
0000
0000
0000
0001
0000
0000
0000
,
0010
0000
0000
0100
0000
0000
0010
0000
0000
0000
0000
0000
0001
0000
0000
0000
,
1000
0000
0000
0001
0000
0000
1000
0000
0000
0000
0000
0000
0000
0000
0000
0000
,
0001
0100
0010
1000
,
0001
0000
0000
0010
0000
0000
0001
0000
0000
0000
0000
0000
0100
0000
0000
0000
,
0010
0000
0000
1000
0000
0000
0010
0000
0000
0000
0000
0000
0100
0000
0000
0000
,
0001
0000
0000
1000
0000
0000
0001
0000
0000
0000
0000
0000
0000
0000
0000
0000
,
1000
0000
0000
0001
0000
0000
1000
0000
0002
0000
0000
0000
0000
0000
0000
0000
,
0103
0000
0000
0100
0000
0000
0010
0000
0000
0000
0000
0000
0000
0000
0000
0000
,
0001
0000
0000
0001
0000
0000
1000
0000
0000
0000
0000
0000
0000
0000
0000
0000
,
0010
0000
0000
0010
0000
0000
0100
0000
0000
0000
0000
0000
0000
0000
0000
0000
,
1000
0000
0000
1000
0000
0000
0001
0000
0000
0000
0000
0000
0000
0000
0000
0000
,
1000
0010
1000
0001
,
0010
0100
1000
0001
,
0100
1000
0100
0001
,
0010
0000
0200
0000
,
1300
0000
0000
0001
0000
0000
1001
0000
0000
0000
0000
0000
0000
0000
0000
0000
;

//--------------- dance-single - forcednature ----------------
#NOTES:
     dance-single:
     forcednature:
     Medium:
     10:
     0,0,0,0,0:
0000
0000
0000
0000
,
0000
0000
0000
0000
,
0000
0000
0000
0000
,
0000
0000
0000
0000
,
0000
0000
0000
0000
,
1000
0001
0010
0001
1000
0010
0100
0000
,
0001
0010
0100
1000
0010
0100
0001
0000
,
1000
0100
1000
0001
0100
0010
0100
0000
,
0020
0000
0100
0000
0130
0010
1000
0001
,
0010
0100
1000
0020
0000
0130
0010
1000
,
0001
0000
0000
0010
0000
0000
0200
0000
0000
0000
0000
0000
1300
0000
0001
0000
,
0100
0000
0000
0010
0000
0000
2000
0000
0000
0000
3001
0000
0010
0000
0001
0000
,
1000
0000
0000
0010
0000
0000
0200
0000
0000
0000
0000
0000
0300
0000
0000
0000
,
0010
1000
0001
0020
0000
0130
1000
0001
,
0100
0000
0000
0010
0000
0000
2000
0000
0000
0000
0000
0000
3001
0000
0010
0000
,
0001
0000
0000
1000
0000
0000
0002
0000
0000
0000
0103
0000
0010
0000
1000
0000
,
0100
0000
0000
0010
0000
0000
0002
0000
0000
0000
0000
0000
0003
0000
0000
0000
,
0100
0010
1000
0001
1000
0000
0001
0100
,
1000
0000
0000
0100
0000
0000
0002
0000
0000
0000
0000
0000
1003
0000
0100
0000
,
0010
0000
0000
0001
0000
0000
0200
0000
0000
0000
0310
0000
1000
0000
0001
0000
,
0010
0000
0000
1000
0000
0000
0020
0000
0000
0000
0000
0000
0030
0000
0000
0000
,
0100
1000
0010
0100
0010
0000
1000
0001
,
0010
0000
0000
0100
0000
0000
0002
0000
0000
0000
0000
0000
0103
0000
1000
0000
,
0010
0000
0000
1000
0000
0000
0002
0000
0000
0000
0103
0000
1000
0000
0100
0000
,
0001
0000
0000
0010
0000
0000
0200
0000
0000
0000
0000
0000
0300
0000
0000
0000
,
2001
0001
0001
0001
,
3001
0000
0000
1000
0000
0000
0010
0000
0200
0000
0000
0000
0000
0000
0000
0000
,
0301
0000
0000
0010
0000
0000
0100
0000
2000
0000
0000
0000
0000
0000
0000
0000
,
3010
0000
0000
1000
0000
0000
0001
0000
0200
0000
0000
0000
0000
0000
0000
0000
,
1300
0000
0000
0100
0000
0000
0010
0000
2000
0000
0000
0000
0000
0000
0000
0000
,
3100
0000
0000
0010
0000
0000
1000
0000
0020
0000
0000
0000
0000
0000
0000
0000
,
0031
0000
0000
1000
0000
0000
0001
0000
0200
0000
0000
0000
0000
0000
0000
0000
,
0310
0000
0000
0001
0000
0000
0010
0000
0200
0000
0000
0000
0000
0000
0000
0000
,
0301
0000
0000
1000
0000
0000
0100
0000
2000
0000
0000
0000
0000
0000
0000
0000
,
3020
1000
0100
0001
,
0130
0000
0000
0010
0000
0000
1000
0000
0000
0000
0001
0000
0010
0000
0000
0000
,
0100
1000
0010
2000
0000
3001
0010
0001
,
0100
0000
0000
0010
0000
0000
2000
0000
0000
0000
0000
0000
3001
0000
0010
0000
,
0100
0000
0000
1000
0000
0000
0002
0000
0000
0000
1003
0000
0010
0000
1000
0000
,
0001
0000
0000
0100
0000
0000
0002
0000
0000
0000
0000
0000
0003
0000
0000
0000
,
0010
0100
0010
0002
0000
1003
0010
1000
,
0001
0000
0000
0010
0000
0000
0200
0000
0000
0000
0000
0000
1300
0000
0001
0000
,
0100
0000
0000
0001
0000
0000
2000
0000
0000
0000
3100
0000
1000
0000
0010
0000
,
0100
0000
0000
0001
0000
0000
0020
0000
0000
0000
0000
0000
0030
0000
0000
0000
,
0100
1000
0001
0100
1000
0000
0100
0010
,
1000
0000
0000
0001
0000
0000
0020
0000
0000
0000
0000
0000
0130
0000
1000
0000
,
0010
0000
0000
0100
0000
0000
2000
0000
0000
0000
3100
0000
0001
0000
1000
0000
,
0100
0000
0000
0010
0000
0000
0002
0000
0000
0000
0000
0000
0003
0000
0000
0000
,
0100
0010
0001
0010
0100
0000
0001
1000
,
0100
0000
0000
0010
0000
0000
0002
0000
0000
0000
0000
0000
0103
0000
1000
0000
,
0100
0000
0000
0010
0000
0000
2000
0000
0000
0000
3001
0000
0010
0000
0100
0000
,
1000
0000
0000
0001
0000
0000
0200
0000
0000
0000
0000
0000
0300
0000
0000
0000
,
0010
0000
0000
1000
0000
0000
0001
0000
0010
0000
0010
0000
0100
0000
0100
0000
,
1000
0000
0000
0001
0000
0000
0200
0000
0000
0000
0010
0000
0010
0000
0010
0000
,
0310
0000
0000
1000
0000
0000
0002
0000
0000
0000
0000
0000
0003
0000
0000
0000
,
1100
0000
0000
0010
0000
0000
0002
0000
0000
0000
1000
0000
1000
0000
1000
0000
,
1003
0000
0000
0010
0000
0000
0200
0000
0000
0000
0000
0000
0301
0000
0000
0000
,
0100
1000
0100
0010
0100
0001
0010
0000
,
0100
0001
0100
1000
0010
1000
0001
0000
,
0010
0001
0100
1000
0100
0001
0010
0000
,
0100
0001
0100
1000
0010
0100
0001
0000
,
1001
0000
0000
0110
0000
0000
2002
0000
0000
0000
0000
0000
0000
0000
0000
0000
,
0000
3003
0000
0000
;

//--------------- dance-single - forcednature ----------------
#NOTES:
     dance-single:
     forcednature:
     Hard:
     13:
     0,0,0,0,0:
0000
0000
0000
0000
,
0000
0000
0000
0000
,
0000
0000
0000
0000
,
0000
0000
0000
0000
,
0000
0000
0000
0000
,
0001
0100
1000
0100
0010
1000
0001
0010
,
1000
0010
0100
1000
0001
1000
0010
0100
,
0001
0010
0100
1000
0100
0001
0100
1000
,
0010
0000
0000
0000
0000
0000
0000
0000
1000
0001
1000
0000
0001
1000
0001
0000
,
0010
0000
0001
0000
0100
0000
0010
0000
0000
0000
1000
0000
0001
0010
0001
0000
,
0100
0000
0000
0110
0000
0000
1001
0000
0000
0000
0000
0000
0010
1000
0010
0000
,
0100
0000
0000
0011
0000
0000
1001
0000
0000
0000
1000
0000
0100
0000
0001
0000
,
0100
0000
0000
0110
0000
0000
2002
0000
0000
0000
0000
0000
3003
0000
0000
0000
,
0001
0000
0100
0000
0001
0000
0010
0000
0000
0000
0100
0000
1000
0010
1000
0000
,
0001
0000
0000
0011
0000
0000
0101
0000
0000
0000
0000
0000
1000
0100
1000
0000
,
0010
0000
0000
0110
0000
0000
0101
0000
0000
0000
0001
0000
0010
0000
1000
0000
,
0010
0000
0000
0110
0000
0000
2200
0000
0000
0000
0000
0000
3300
0000
0000
0000
,
1000
0001
1000
0000
0010
0000
0100
0001
0000
0000
0010
0000
0100
0000
1000
0000
,
0010
0000
0000
0001
0000
0000
0010
0000
0000
0000
0000
0000
0100
0001
0100
0001
,
0100
0000
0000
1000
0000
0000
0100
0000
0000
0000
0010
0000
1000
0000
0100
0000
,
0010
0000
0000
1000
0000
0000
0020
0000
0000
0000
0000
0000
0030
0000
0000
0000
,
0001
1000
0001
0000
0100
0000
0010
1000
0000
0000
0001
0000
0010
0000
0001
0000
,
0100
0000
0000
1000
0000
0000
0100
0000
0000
0000
0000
0000
0010
1000
0010
1000
,
0010
0000
0000
0100
0000
0000
1000
0000
0000
0000
0100
0000
0001
0000
1000
0000
,
0100
0000
0000
0010
0000
0000
0002
0000
0000
0000
0000
0000
0003
0000
0000
0000
,
0100
0110
0000
1001
,
1000
0000
0000
0001
0000
0000
0100
0000
0010
0000
0010
1000
0010
0000
0010
0000
,
0100
0000
0000
0001
0000
0000
0010
0000
0100
0000
0100
1000
0100
0000
0100
0000
,
0010
0000
0000
0001
0000
0000
1000
0000
0001
0000
0001
1000
0001
0000
0001
0000
,
0100
0000
0000
1000
0000
0000
0100
0000
0010
0000
0010
1000
0010
0000
0010
0000
,
1000
0000
0000
0001
0000
0000
0010
0000
0100
1000
0100
0000
0100
1000
0100
0000
,
0010
0000
0000
0001
0000
0000
0100
0000
0001
1000
0001
0000
0001
1000
0001
0000
,
1000
0000
0000
0010
0000
0000
0001
0000
0010
0100
0010
0000
0010
0100
0010
0000
,
1000
0000
0000
0001
0000
0000
0010
0000
0100
1000
0100
0000
0100
1000
0100
0000
,
0020
0001
0001
0001
,
0230
0000
0000
2300
0000
0000
3020
0000
0000
0000
0130
0000
0001
1000
0001
1000
,
0001
0000
0100
0000
0010
0000
1000
0000
0000
0000
0100
0000
0010
0001
0010
0000
,
0100
0000
0000
1100
0000
0000
0011
0000
0000
0000
0000
0000
0001
1000
0001
0000
,
0100
0000
0000
0101
0000
0000
1010
0000
0000
0000
1000
0000
0001
0000
0010
0000
,
1000
0000
0000
0110
0000
0000
0022
0000
0000
0000
0000
0000
0033
0000
0000
0000
,
1000
0000
0100
0000
0001
0000
0100
0000
0000
0000
0010
0000
0001
0100
0001
0000
,
0010
0000
0000
1100
0000
0000
1010
0000
0000
0000
0000
0000
0001
0100
0001
0000
,
0010
0000
0000
0110
0000
0000
1001
0000
0000
0000
1000
0000
0010
0000
0001
0000
,
0010
0000
0000
0110
0000
0000
0202
0000
0000
0000
0000
0000
0303
0000
0000
0000
,
1000
0100
1000
0000
0001
0000
0010
0100
0000
0000
0010
0000
0001
0000
0100
0000
,
1000
0000
0000
0100
0000
0000
0001
0000
0000
0000
0000
0000
1000
0100
1000
0100
,
1000
0000
0000
0010
0000
0000
0001
0000
0000
0000
0010
0000
0100
0000
0001
0000
,
0010
0000
0000
1000
0000
0000
0020
0000
0000
0000
0000
0000
0030
0000
0000
0000
,
0100
1000
0100
0000
0010
0000
0001
1000
0000
0000
0001
0000
0100
0000
0010
0000
,
1000
0000
0000
0100
0000
0000
0001
0000
0000
0000
0000
0000
0100
0010
0100
0010
,
0100
0000
0000
1000
0000
0000
0010
0000
0000
0000
0100
0000
1000
0000
0100
0000
,
0001
0000
0000
0010
0000
0000
0200
0000
0000
0000
0000
0000
1300
0000
0000
0000
,
0001
0000
0000
1000
0000
0000
0001
0000
1000
0010
1000
0010
0100
0001
0100
0001
,
2000
0000
0000
3200
0000
0000
0320
0000
0000
0000
0001
0000
0001
0000
0001
0000
,
0032
0000
0000
0203
0000
0000
2300
0000
0000
0000
0000
0000
3000
0000
0000
0000
,
0201
0000
0000
0320
0000
0000
2030
0000
0000
0000
0100
0000
0100
0000
0100
0000
,
3200
0000
0000
0320
0000
0000
0032
0000
0000
0000
0000
0000
1003
0000
0000
0000
,
0001
0100
1000
0100
0010
1000
0100
0001
,
0100
0010
0001
1000
0010
0001
1000
0100
,
0001
0010
0100
0001
1000
0010
0100
1000
,
0001
0000
0000
0100
0000
0000
0010
0000
1000
0100
1000
0100
0010
0001
0010
0001
,
0100
0000
0000
0110
0000
0000
2002
0000
0000
0000
0000
0000
0000
0000
0000
0000
,
0000
3003
0000
0000
;

//--------------- dance-single - forcednature ----------------
#NOTES:
     dance-single:
     forcednature:
     Challenge:
     15:
     0,0,0,0,0:
0000
0000
0000
0000
,
0000
0000
0000
0000
,
0000
0000
0000
0000
,
0000
0000
0000
0000
,
0000
0000
0000
0000
,
1000
0000
0100
1000
0000
0010
1000
0000
0001
0000
0100
0000
0001
0000
0010
0000
,
0100
0000
0010
0001
0000
0100
0001
0000
1000
0000
0010
0000
1000
0000
0001
0000
,
0010
0000
0100
1000
0000
0100
0010
0000
0001
0000
1000
0000
0010
0000
0100
0000
,
0001
0000
0000
1000
0000
0000
0001
0000
1000
0100
1000
0100
0010
0001
0010
0001
,
0100
0001
1000
0010
1000
0001
0010
0100
0000
0000
1000
0010
1000
0001
0010
0001
,
0100
0000
0000
0110
0000
0000
2001
0000
0000
0000
0000
0000
3001
0010
0100
1000
,
0001
0000
0000
0101
0000
0000
1020
0000
0000
0000
1030
0000
0001
0000
1000
0000
,
0100
0000
0000
0110
0000
0000
0022
0000
0000
0000
0000
0000
0033
0000
0000
0000
,
0001
0100
0001
0010
0100
1000
0010
1000
0000
0000
0001
0100
0001
1000
0100
0010
,
0001
0000
0000
1001
0000
0000
1200
0000
0000
0000
0000
0000
1300
0001
1000
0100
,
0010
0000
0000
0011
0000
0000
0201
0000
0000
0000
0301
0000
1000
0000
0100
0000
,
0010
0000
0000
0011
0000
0000
0202
0000
0000
0000
0000
0000
0303
0000
0000
0000
,
1000
0100
1000
0010
1000
0100
0010
0001
0000
0000
0100
0001
1000
0010
1000
0001
,
0010
0000
0000
0110
0000
0000
1001
0000
0000
0000
0000
0000
0001
0100
0001
0010
,
0100
0000
0000
0110
0000
0000
0011
0000
0000
0000
0001
0000
1000
0000
0010
0000
,
1000
0000
0000
1100
0000
0000
2002
0000
0000
0000
0000
0000
3003
0000
0000
0000
,
0001
0100
0010
1000
0100
1000
0010
0100
0000
0000
0001
0010
0100
1000
0010
0100
,
0001
0000
0000
0011
0000
0000
0101
0000
0000
0000
0000
0000
1000
0100
1000
0001
,
0100
0000
0000
0110
0000
0000
1001
0000
0000
0000
0001
0000
0010
0000
0100
0000
,
1000
0000
0000
1010
0000
0000
0202
0000
0000
0000
0000
0000
0303
0000
0000
0000
,
0002
1000
0000
1000
,
0203
0000
0000
0001
0000
0000
0010
0000
0301
0100
0001
0010
0100
1000
0100
0010
,
0002
0000
0000
0100
0000
0000
0010
0000
1003
0001
1000
0010
0100
0010
1000
0001
,
2000
0000
0000
0100
0000
0000
0010
0000
3100
1000
0001
0100
0001
1000
0100
1000
,
0002
0000
0000
0010
0000
0000
0100
0000
1003
0001
1000
0100
0010
0001
1000
0010
,
0200
0000
0000
0001
0000
0000
0010
0000
0301
0100
0010
0100
0001
1000
0100
0010
,
0002
0000
0000
0100
0000
0000
0010
0000
0103
0001
0010
0100
0010
0001
0100
0010
,
2000
0000
0000
0001
0000
0000
0010
0000
3100
1000
0010
0100
0001
0010
0001
1000
,
0020
0000
0000
0100
0000
0000
1000
0000
0130
0010
1000
0010
0100
0001
1000
0100
,
0020
0001
0001
0001
,
0230
0000
0000
2300
0000
0000
3020
0000
0000
0000
0130
0000
0001
1000
0001
1000
,
0001
0010
0001
1000
0010
1000
0001
0100
0000
0000
0010
1000
0100
0010
0001
0100
,
0010
0000
0000
1010
0000
0000
0201
0000
0000
0000
0000
0000
0301
1000
0100
1000
,
0010
0000
0000
0110
0000
0000
2001
0000
0000
0000
3001
0000
0010
0000
0100
0000
,
1000
0000
0000
1010
0000
0000
0202
0000
0000
0000
0000
0000
0303
0000
0000
0000
,
1000
0001
0100
0001
1000
0100
0010
0001
0000
0000
0100
0010
0100
0001
0010
0001
,
0100
0000
0000
0110
0000
0000
1020
0000
0000
0000
0000
0000
1030
0100
1000
0001
,
0100
0000
0000
0110
0000
0000
1002
0000
0000
0000
1003
0000
0010
0000
1000
0000
,
0001
0000
0000
0011
0000
0000
0220
0000
0000
0000
0000
0000
0330
0000
0000
0000
,
1000
0010
1000
0001
0010
0100
0010
0001
0000
0000
0100
0010
0100
0001
1000
0010
,
1000
0000
0000
1100
0000
0000
0120
0000
0000
0000
0000
0000
0031
0010
0100
1000
,
0001
0000
0000
0101
0000
0000
1020
0000
0000
0000
1030
0000
0001
0000
0010
0000
,
0100
0000
0000
1001
0000
0000
0220
0000
0000
0000
0000
0000
0330
0000
0000
0000
,
0001
0010
0100
0010
0001
1000
0010
1000
0000
0000
0100
1000
0010
1000
0001
0100
,
0001
0000
0000
0011
0000
0000
0201
0000
0000
0000
0000
0000
0301
1000
0100
1000
,
0010
0000
0000
0110
0000
0000
1002
0000
0000
0000
1003
0000
0100
0000
0010
0000
,
0001
0000
0000
0101
0000
0000
2020
0000
0000
0000
0000
0000
3030
0000
0000
0000
,
1000
0000
0000
1100
0000
0000
0011
0000
0001
0100
0010
1000
0001
1000
0100
0010
,
0002
0000
0000
0023
0000
0000
0230
0000
0000
0000
1300
0001
1000
0001
1000
0001
,
2000
0000
0000
3020
0000
0000
0230
0000
0000
0000
0000
0000
0300
0000
0000
0000
,
2001
0000
0000
3020
0000
0000
0230
0000
0000
0000
0301
1000
0001
1000
0001
1000
,
0002
0000
0000
0023
0000
0000
0230
0000
0000
0000
0000
0000
1300
0000
0000
0000
,
1000
0000
0100
1000
0000
0010
0100
0000
0001
0000
0010
0000
0001
0000
1000
0000
,
0010
0000
0100
0001
0000
1000
0100
0000
0010
0000
0001
0000
1000
0000
0010
0000
,
0100
0000
0001
0010
0000
0100
0010
0000
0001
0000
1000
0000
0010
0000
0100
0000
,
0001
0000
0000
1000
0000
0000
0100
0000
1000
0010
1000
0010
0100
0001
0100
0001
,
0010
0001
0100
0010
1000
0100
0010
0002
0000
0000
0000
0000
0000
0000
0000
0000
,
0000
0003
0000
0000
;
