#TITLE:Dance While The Records Spin;
#SUBTITLE:;
#ARTIST:Randall Jones;
#TITLETRANSLIT:;
#SUBTITLETRANSLIT:;
#ARTISTTRANSLIT:;
#GENRE:;
#CREDIT:;
#MUSIC:Dance While The Records Spin.mp3;
#BANNER:;
#BACKGROUND:;
#CDTITLE:;
#SAMPLESTART:44.378;
#SAMPLELENGTH:14.769;
#SELECTABLE:YES;
#OFFSET:1.776;
#BPMS:0.000=130.000;
#STOPS:;
#BGCHANGES:;
#FGCHANGES:;

//--------------- dance-single - OrangeRight ----------------
#NOTES:
     dance-single:
     OrangeRight:
     Beginner:
     3:
     0,0,0,0,0:
0000
0000
0000
0000
,
0000
0000
0000
0000
,
0000
0000
0000
0000
,
0000
0000
0000
0000
,
0000
0000
0000
0000
,
1000
0000
1000
0000
,
0001
0000
0001
0000
,
1000
0000
1000
0000
,
0001
0000
0001
0000
,
1000
0000
0100
0000
,
0010
0000
0000
0000
,
0001
0000
0100
0000
,
0010
0000
0000
0000
,
1000
0000
0010
0000
,
0100
0000
0000
0000
,
0001
0000
0010
0000
,
0100
0000
0000
0000
,
1000
0000
1000
0000
,
0100
0000
0010
0000
,
0001
0000
0001
0000
,
0100
0000
0010
0000
,
1000
0000
1000
0000
,
0001
0000
0100
0000
,
0001
0000
0001
0000
,
1000
0000
0100
0000
,
1000
0000
1000
0000
,
0100
0100
0100
0000
,
0010
0000
0010
0000
,
0001
0001
0001
0000
,
0001
0000
0001
0000
,
0100
0100
0100
0000
,
0010
0000
0010
0000
,
1000
1000
0001
0001
,
1000
0000
1000
0000
,
0100
0000
0100
0000
,
0010
0000
0010
0000
,
0001
0000
0001
0000
,
1000
0000
1000
0000
,
0010
0000
0010
0000
,
0100
0000
0100
0000
,
0001
0000
0001
0000
,
0001
0000
1000
0001
,
1000
0000
1000
0000
,
1000
0000
0001
1000
,
0001
0000
0001
0000
,
0001
0000
1000
0001
,
1000
0000
0100
0000
,
0010
0000
0100
0010
,
0100
0000
1000
0000
,
0001
0000
0000
0000
;

//--------------- dance-single - OrangeRight ----------------
#NOTES:
     dance-single:
     OrangeRight:
     Easy:
     5:
     0,0,0,0,0:
0000
0000
0000
0000
,
0000
0000
0000
0000
,
0000
0000
0000
0000
,
0000
0000
0000
0000
,
0000
0000
0000
0000
,
1000
0000
0000
1000
0000
0000
0000
0000
,
0001
0000
0000
0001
0000
0000
0000
0000
,
1000
0000
0000
1000
0000
0000
0000
0000
,
0001
1000
0001
1000
,
0001
0100
0000
0100
,
0001
0100
0010
1000
,
1000
0100
0000
0100
,
1000
0100
0010
0001
,
0001
1000
0000
0100
,
0010
0001
1000
0001
,
1000
0001
0000
0100
,
1000
0100
0002
0003
,
0001
0001
1000
1000
,
0010
0010
0100
0100
,
0001
0001
1000
1000
,
0100
0010
0001
0001
,
1000
1000
0001
0001
,
0100
0100
0010
0010
,
1000
1000
0001
0001
,
1000
0001
0100
0010
,
1000
0100
0010
0000
,
0001
0100
0010
0000
,
0010
1000
0100
0000
,
0010
0001
0100
0000
,
0001
1000
0100
0000
,
1000
0001
0100
0000
,
0020
0230
0320
0030
,
2000
3002
2003
3000
,
1000
0100
0010
0010
,
0001
0100
0010
0010
,
1000
0100
0010
0010
,
0001
0100
0010
0010
,
1000
0001
0100
0100
,
0001
1000
0100
0100
,
1000
0001
0010
0010
,
0100
1000
0001
0100
,
0010
1000
0001
1001
,
1000
0100
0010
0001
,
0010
0001
1000
1001
,
0100
0010
1000
0001
,
1001
0100
0010
1001
,
1000
0001
0100
0010
,
1001
1000
0002
0203
,
0320
0100
0100
0130
,
0110
0000
0000
0000
;

//--------------- dance-single - OrangeRight ----------------
#NOTES:
     dance-single:
     OrangeRight:
     Medium:
     9:
     0,0,0,0,0:
0000
0000
0000
0000
,
0000
0000
0000
0000
,
0000
0000
0000
0000
,
0000
0000
0000
0000
,
0000
0000
0000
0000
,
1000
0000
0000
0100
0000
0000
0010
0000
,
0001
0000
0000
0100
0000
0000
0010
0000
,
1000
0000
0000
0001
0000
0000
0010
0000
,
0001
1000
0001
1000
0001
1000
0001
0000
,
1000
0000
0100
0010
0000
0010
0001
0000
,
1001
0000
0001
0100
0001
0000
0100
0000
,
0001
0000
0100
0010
0000
0010
1000
0000
,
1000
0001
1000
0001
1000
0001
2000
0000
,
3001
0000
0010
0100
0000
0100
1000
0000
,
1001
0000
1000
0001
0100
0001
1000
0000
,
1000
0000
0010
0100
0000
0100
0001
0000
,
0001
1000
0001
1000
0001
1000
0002
0000
,
1003
0000
0000
1000
0000
0000
0001
0000
1000
0000
0000
0001
0000
0000
1000
0000
,
0010
0000
0000
0100
0000
0000
0001
0000
0010
0000
0000
0100
0000
0000
1000
0000
,
0001
0000
0000
1000
0000
0000
1000
0000
0001
0000
0000
1000
0000
0000
0001
0000
,
1000
0001
1000
0001
1000
0001
2000
0000
,
3001
0000
0000
1000
0000
0000
0001
0000
1000
0000
0000
0010
0000
0000
1000
0000
,
0010
0000
0000
0100
0000
0000
0010
0000
0100
0000
0001
0000
0100
0000
0000
0000
,
0001
0000
0000
0010
0000
0000
0100
0000
1000
0000
0000
0010
0000
0000
0100
0000
,
0001
1000
0001
1000
0001
1000
0002
0000
,
1003
0000
0000
0000
0100
0000
0000
0100
0000
0000
0000
0000
0000
0010
0000
0000
,
0001
0000
0000
0000
0100
0000
0000
0010
0000
0010
0000
0000
0000
1000
0000
0000
,
0001
0000
0000
0000
0100
0000
0000
0100
0000
0000
0000
0000
0000
0010
0000
0000
,
1000
0000
0000
0000
0100
0000
0000
0010
0000
0010
0000
0000
0000
0001
0000
0000
,
1000
0000
0000
0000
0010
0000
0000
0100
0000
0000
0000
0000
0000
0100
0000
0000
,
0010
0000
0000
0000
1000
0000
0000
0001
0000
0001
0000
0000
0000
1000
0000
0000
,
0002
0000
0000
0000
2003
0000
0000
3002
0000
0000
0000
0000
0000
2003
0000
0000
,
3020
0000
0000
0000
0230
0000
0000
0320
0000
0230
0000
0000
0320
0000
0000
0000
,
1030
0000
0100
0000
1000
0000
0000
0001
0000
0000
0100
0000
0000
0000
0100
0000
,
0001
0000
0100
0000
0001
0000
0000
1000
0000
0000
0100
0000
0000
0000
0100
0000
,
1000
0000
0010
0000
1000
0000
0000
0100
0000
0000
0010
0000
0000
0000
0010
0000
,
0001
0000
0100
0000
0010
0000
0000
1000
0000
0000
0001
0000
1000
0000
0001
0000
,
1000
0000
0000
0000
0010
0000
0000
0100
0000
0000
0100
0000
0000
0000
0001
0000
,
1000
0000
0000
0000
0100
0000
0000
0010
0000
0000
0001
0000
0000
0000
1000
0000
,
0001
0000
0000
0000
0010
0000
0000
0100
0000
0000
0100
0000
0000
0000
1000
0000
,
0001
0000
0000
0000
0100
0000
0000
0010
0000
0000
1000
0000
0000
0000
0001
0000
,
2000
0000
0001
0000
3010
1000
0100
0000
,
1000
0000
0000
0000
0100
0000
0000
0010
0000
0000
0001
0000
0000
0000
1000
0000
,
0002
0000
1000
0000
0103
0001
0010
0000
,
0100
0000
0000
0000
1000
0000
0000
0001
0000
0000
1000
0000
0000
0000
0010
0000
,
1000
0100
0010
0001
1000
0001
1000
0000
,
0001
0000
0000
0000
0100
0000
0000
0010
0000
0000
1000
0000
0000
0000
0001
0000
,
1000
0010
0100
0001
0010
0100
1000
0000
,
0002
0000
2003
0000
3020
0000
0130
0010
,
0110
0000
0000
0000
;

//--------------- dance-single - OrangeRight ----------------
#NOTES:
     dance-single:
     OrangeRight:
     Hard:
     11:
     0,0,0,0,0:
0000
0000
0000
0000
,
0000
0000
0000
0000
,
0000
0000
0000
0000
,
0000
0000
0000
0000
,
0000
0000
0000
0000
,
1000
0000
0100
0020
0000
0031
1000
0001
,
0100
0000
0010
2000
0001
3001
1000
0001
,
1000
0000
0010
0200
0000
0301
1000
0001
,
1000
0010
0010
0100
0100
0001
0001
0100
,
0001
0000
0000
0001
0010
0000
0100
0000
1000
0000
0010
0000
1000
0000
0000
0000
,
1020
0000
0130
0001
0010
1000
0010
0000
,
0001
0000
0000
0001
0100
0000
0010
0000
1000
0000
0001
0000
0010
0000
0000
0000
,
0001
0010
0010
0100
0100
1000
2100
0000
,
3001
0000
0000
1000
0100
0000
0010
0000
0001
0000
0100
0000
0001
0000
0000
0000
,
0021
0000
0130
1000
0010
0001
0010
0000
,
1000
0000
0000
1000
0010
0000
0100
0000
0001
0000
1000
0000
0100
0000
0000
0000
,
0010
0001
0001
1000
1000
0100
0210
0000
,
0310
0000
0000
0010
0100
0000
1000
0000
0010
0000
0000
0010
0100
0000
0001
0000
,
0010
0000
0000
0010
0100
0000
1000
0000
0010
0000
0100
0000
0110
0000
0000
0000
,
0001
0000
0000
0001
0100
0000
0010
0000
1000
0000
0000
1000
0100
0000
0010
0000
,
0001
0010
0010
0100
0100
1000
1200
0000
,
0310
0000
0000
0010
0100
0000
1000
0000
0001
0000
0000
0001
0100
0000
0010
0000
,
0100
0000
0000
0100
0010
0000
1000
0000
0001
0000
0010
0000
0011
0000
0000
0000
,
0001
0000
0000
0001
0010
0000
0100
0000
0010
0000
0000
0010
0100
0000
1000
0000
,
0001
1000
1000
0001
0001
0100
0120
0000
,
1030
0000
0000
0000
0100
0000
0000
0100
0010
0000
0000
0000
0001
0100
0000
0000
,
0002
0000
0000
0000
0103
0000
0000
0001
0000
1000
0000
0000
0100
1000
0000
0000
,
0001
0000
0000
0000
0100
0000
0000
0100
0010
0000
0000
0000
1000
0100
0000
0000
,
2000
0000
0000
0000
3100
0000
0000
0010
0000
0001
0000
0000
0100
0010
0000
0000
,
0010
0000
0000
0000
1000
0000
0000
0001
0010
0000
0000
0000
0100
0010
0000
0000
,
0100
0000
0000
0000
1000
0000
0000
0001
0000
0100
0000
0000
0100
0010
0000
0000
,
2000
0000
0000
0000
3002
0000
0000
0203
0000
0000
0000
0000
0000
0320
0000
0000
,
2030
0000
0000
0000
3200
0000
0000
0320
0000
0032
0000
0000
1003
0000
0000
0000
,
1001
0000
0000
0000
0100
0000
0000
0010
0000
0000
0001
0000
0000
0000
0100
0000
,
0010
0000
0000
0000
1000
0000
0000
0100
0000
0000
0010
0000
0000
0000
0001
1000
,
0001
0000
0000
0000
1000
0000
0000
0100
0000
0000
0001
0000
0000
0000
0100
0000
,
1000
0000
0000
0000
0010
0000
0000
0100
0000
0000
0001
0000
0000
0000
1000
0001
,
1000
0000
0000
0000
1100
0000
0000
0110
0000
0000
0011
0000
0000
0000
0001
0000
,
1000
0000
0000
0000
0101
0000
0000
0110
0000
0000
1010
0000
0000
0000
1000
0001
,
1000
0000
0000
0000
1100
0000
0000
0101
0000
0000
1001
0000
0000
0000
0100
0000
,
0110
0000
0000
0000
0011
0000
0000
0101
0000
0000
0110
0000
0000
0000
1000
0001
,
2000
0000
0000
0000
3001
0000
0100
0010
0100
0000
0001
0000
1001
0000
0000
0000
,
0100
0000
0000
0000
1000
0000
0000
0010
0000
0000
0100
0000
0000
0000
0010
0100
,
0002
0000
0000
0000
1003
0000
0001
1000
0001
0000
0010
0000
0011
0000
0000
0000
,
0001
0000
0000
0000
0100
0000
0000
0010
0000
0000
1000
0000
0001
0000
1000
0010
,
2000
0000
0000
0000
3010
0000
0100
0001
0100
0000
0010
0000
0110
0000
0000
0000
,
0010
0000
1000
0000
0100
0000
0010
0001
0000
0001
0010
0000
0100
0000
1000
0001
,
2000
0000
0000
0000
3010
0000
0100
0010
0100
0010
0100
0000
0101
0000
0000
0000
,
0002
0100
0203
0010
0320
1000
1030
0001
,
1001
0000
0000
0000
;

//--------------- dance-double - OrangeRight ----------------
#NOTES:
     dance-double:
     OrangeRight:
     Easy:
     3:
     0,0,0,0,0:
00000000
00000000
00000000
00000000
,
00000000
00000000
00000000
00000000
,
00000000
00000000
00000000
00000000
,
00000000
00000000
00000000
00000000
,
00000000
00000000
00000000
00000000
,
10000000
00000000
00000000
10000000
00000000
00000000
00000000
00000000
,
00010000
00000000
00000000
00010000
00000000
00000000
00000000
00000000
,
00100000
00000000
00000000
01000000
00000000
00000000
00000000
00000000
,
10000000
00010000
10000000
00010000
,
10000000
00000000
01000000
00000000
,
00100000
00010000
01000000
00000000
,
00001000
00000000
00010000
00000000
,
00001000
00010000
00001000
00010000
,
00001000
00000000
00010000
00000000
,
00001000
00010000
00000100
00000000
,
00001000
00000000
00000100
00000000
,
00000010
00000001
00000200
00000300
,
00000001
00000001
00001000
00001000
,
00000100
00000100
00010000
00010000
,
00001000
00001000
01000000
01000000
,
00010000
10000000
00010000
10000000
,
00010000
00010000
10000000
10000000
,
01000000
01000000
00100000
00100000
,
00001000
00001000
00010000
00010000
,
00000100
00001000
00000100
00001000
,
00000001
00000100
00000010
00000000
,
00000100
00000010
00001000
00000000
,
00000001
00001000
00000010
00000000
,
00010000
00000010
00001000
00000000
,
00000100
00010000
00001000
00000000
,
01000000
00001000
00010000
00000000
,
00002000
00023000
00032000
00003000
,
00020000
00032000
00023000
00030000
,
00001000
00001000
00100000
00010000
,
01000000
01000000
00100000
10000000
,
01000000
01000000
00100000
00010000
,
01000000
01000000
00001000
00010000
,
00001000
00010000
00000100
00001000
,
00000010
00000100
00000001
00001000
,
00000100
00000010
00000001
00001000
,
00000010
00010000
00001000
00010000
,
00002000
00000000
01003000
00010000
,
10000000
00010000
01000000
00100000
,
20000000
00000000
31000000
00100000
,
00010000
00000000
01000000
00000000
00001000
00001000
00001000
00000000
,
00020000
00000000
00030100
00001000
,
00000001
00001000
00000100
00000010
,
00000002
00000000
00000103
00000010
,
00000200
00000010
00000010
00000310
,
00000110
00000000
00000000
00000000
;

//--------------- dance-double - OrangeRight ----------------
#NOTES:
     dance-double:
     OrangeRight:
     Medium:
     8:
     0,0,0,0,0:
00000000
00000000
00000000
00000000
,
00000000
00000000
00000000
00000000
,
00000000
00000000
00000000
00000000
,
00000000
00000000
00000000
00000000
,
00000000
00000000
00000000
00000000
,
10000000
00000000
00000000
00010000
00000000
00000000
01000000
00000000
,
00001000
00000000
00000000
00010000
00000000
00000000
00000100
00000000
,
00001000
00000000
00000000
00000001
00000000
00000000
00000100
00000000
,
00000001
00001000
00000001
00001000
00000001
00001000
00000001
00000000
,
00001000
00000000
00000010
00000100
00000001
00000000
00001000
00000000
,
00001001
00000000
00000001
00001000
00000100
00000000
00010000
00000000
,
00001000
00000000
00100000
00001000
00010000
00000000
00001000
00000000
,
00011000
00000000
00001000
00100000
00010000
00000000
10000000
00000000
,
00010000
00000000
00100000
01000000
10000000
00000000
00010000
00000000
,
10010000
00000000
10000000
00010000
00100000
00000000
00001000
00000000
,
00010000
00000000
00000100
00010000
00001000
00000000
00010000
00000000
,
00011000
00000000
00010000
00000010
00001000
00000010
00000100
00000000
,
00000010
00000000
00000000
00000010
00000000
00000000
00000010
00000000
00000100
00000000
00000000
00000100
00000000
00000000
00000100
00000000
,
00000001
00000000
00000000
00000001
00000000
00000000
00000001
00000000
00001000
00000000
00000000
00000100
00000000
00000000
00001000
00000000
,
00000010
00000000
00000000
00000010
00000000
00000000
00000010
00000000
00010000
00000000
00000000
00010000
00000000
00000000
00010000
00000000
,
00001000
00010000
00001000
00010000
00001000
00010000
00002000
00000000
,
01003000
00000000
00000000
01000000
00000000
00000000
01000000
00000000
00100000
00000000
00000000
00100000
00000000
00000000
00100000
00000000
,
10000000
00000000
00000000
10000000
00000000
00000000
10000000
00000000
00010000
00000000
00000000
01000000
00000000
00000000
00010000
00000000
,
10000000
00000000
00000000
10000000
00000000
00000000
10000000
00000000
01000000
00000000
00000000
01000000
00000000
00000000
01000000
00000000
,
00100000
01000000
00100000
01000000
00100000
01000000
00100000
00000000
,
00010000
00000000
00000000
00000000
01000000
00000000
00000000
00100000
00000000
00000000
00000000
00000000
00000000
10000000
00000000
00000000
,
00010000
00000000
00000000
00000000
10000000
00000000
00000000
01000000
00000000
00100000
00000000
00000000
00000000
00010000
00000000
00000000
,
01000000
00000000
00000000
00000000
00001000
00000000
00000000
00010000
00000000
00000000
00000000
00000000
00000000
00000100
00000000
00000000
,
00001000
00000000
00000000
00000000
00000010
00000000
00000000
00000100
00000000
00000001
00000000
00000000
00000000
00001000
00000000
00000000
,
00001000
00000000
00000000
00000000
00000010
00000000
00000000
00000100
00000000
00000000
00000000
00000000
00000000
00000001
00000000
00000000
,
00001000
00000000
00000000
00000000
00000010
00000000
00000000
00010000
00000000
00001000
00000000
00000000
00000000
00010000
00000000
00000000
,
00002000
00000000
00000000
00000000
00023000
00000000
00000000
00032000
00000000
00000000
00000000
00000000
00000000
00023000
00000000
00000000
,
00032000
00000000
00000000
00000000
02003000
00000000
00000000
03200000
00000000
20300000
00000000
00000000
00000000
30020000
00000000
00000000
,
10030000
00000000
00000000
00000000
10000000
00000000
00000000
01000000
00000000
00000000
00100000
00000000
00000000
00000000
00100000
00000000
,
01000000
00000000
00000000
00000000
00100000
00000000
00000000
00010000
00000000
00000000
01000000
00000000
00000000
00000000
00001000
00000000
,
00010000
00000000
00000000
00000000
00001000
00000000
00000000
00010000
00000000
00000000
00000100
00000000
00000000
00000000
00010000
00000000
,
00000010
00000000
00000000
00000000
00000100
00000000
00000000
00000001
00000000
00000000
00000010
00000000
00000000
00000000
00000100
00000000
,
00001000
00000000
00000000
00000000
00001000
00000000
00000000
00000010
00000000
00000000
00000100
00000000
00000000
00000000
00000100
00000000
,
00000010
00000000
00000000
00000000
00000100
00000000
00000000
00000001
00000000
00000000
00000010
00000000
00000000
00000000
00000100
00000000
,
00001000
00000000
00000000
00000000
00000100
00000000
00000000
00010000
00000000
00000000
00001000
00000000
00000000
00000000
00001000
00000000
,
01000000
00000000
00000000
00000000
00100000
00000000
00000000
10000000
00000000
00000000
01000000
00000000
00000000
00000000
00100000
00000000
,
02100000
10000000
00010000
03100000
,
00100000
00000000
00000000
00000000
00001000
00000000
00000000
00010000
00000000
00000000
00000100
00000000
00000000
00000000
00000010
00000000
,
00000120
00000001
00001000
00000130
,
00000100
00000000
00000000
00000000
00010000
00000000
00000000
00001000
00000000
00000000
00100000
00000000
00000000
00000000
00010000
00000000
,
01020000
00000000
00130000
00000000
00100000
00010000
00110000
00000000
,
00100000
00000000
00001000
00000000
00010000
00000000
00000000
00000100
00000000
00000000
00001000
00000000
00000000
00000000
00000010
00000000
,
00002010
00000000
00003100
00001000
00000100
00010000
00001000
00100000
,
00020000
00000000
00230000
00000000
02300000
00000000
13000000
00010000
,
10010000
00000000
00000000
00000000
;

//--------------- dance-double - OrangeRight ----------------
#NOTES:
     dance-double:
     OrangeRight:
     Hard:
     11:
     0,0,0,0,0:
00000000
00000000
00000000
00000000
,
00000000
00000000
00000000
00000000
,
00000000
00000000
00000000
00000000
,
00000000
00000000
00000000
00000000
,
00000000
00000000
00000000
00000000
,
20000000
00000000
30010000
02000000
00000000
00000000
03010000
00000000
,
00200000
00000000
00301000
00020000
00000000
00000000
00030100
00000000
,
00002000
00000000
00003100
00000020
00000000
00000000
00000031
00000000
,
00000001
00000100
00000100
00000010
00000010
00001000
00000001
00001000
,
00000001
00000000
00000000
00000001
00001000
00000000
00000100
00000000
00010000
00000000
00001000
00000000
00010000
00000000
00000000
00000000
,
00012000
00000000
00103000
00010000
01000000
10000000
01000000
00000000
,
00010000
00000000
00000000
00010000
10000000
00000000
01000000
00000000
00100000
00000000
00010000
00000000
01000000
00000000
00000000
00000000
,
00100000
00100000
10000000
10000000
00010000
00010000
10020000
00000000
,
10030000
00000000
00000000
10000000
00010000
00000000
00100000
00000000
00001000
00000000
00010000
00000000
00001000
00000000
00000000
00000000
,
00021000
00000000
00030100
00001000
00000010
00000001
00000010
00000000
,
00001000
00000000
00000000
00001000
00000001
00000000
00000100
00000000
00000010
00000000
00001000
00000000
00000100
00000000
00000000
00000000
,
00000010
00000010
00000001
00000001
00001000
00001000
00002001
00000000
,
00003001
00000000
00000000
00000100
00000000
00000000
00000010
00000000
00001000
00000000
00000000
00000100
00000000
00000000
00010000
00000000
,
00001000
00000000
00000000
00100000
00000000
00000000
00010000
00000000
01000000
00000000
00100000
00000000
01100000
00000000
00000000
00000000
,
10000000
00000000
00000000
01000000
00000000
00000000
00100000
00000000
00010000
00000000
00000000
01000000
00000000
00000000
00100000
00000000
,
10000000
10000000
00010000
00010000
10000000
10000000
10020000
00000000
,
10030000
00000000
00000000
10000000
01000000
00000000
00100000
00000000
00010000
00000000
00000000
00010000
01000000
00000000
00001000
00000000
,
00010000
00000000
00000000
00010000
00000100
00000000
00001000
00000000
00000010
00000000
00000100
00000000
00000110
00000000
00000000
00000000
,
00000001
00000000
00000000
00000001
00001000
00000000
00000010
00000000
00010000
00000000
00000000
00010000
00001000
00000000
01000000
00000000
,
00010000
10000000
10000000
00010000
00010000
10000000
01200000
00000000
,
10300000
00000000
00000000
00000000
01000000
00000000
00000000
00100000
00010000
00000000
00000000
00000000
00010000
01000000
00000000
00000000
,
02000000
00000000
00000000
00000000
03100000
00000000
00000000
01000000
00000000
00010000
00000000
00000000
00100000
00001000
00000000
00000000
,
00010000
00000000
00000000
00000000
00001000
00000000
00000000
00010000
00000100
00000000
00000000
00000000
00001000
00000010
00000000
00000000
,
00000200
00000000
00000000
00000000
00000301
00000000
00000000
00000010
00000000
00000100
00000000
00000000
00001000
00000001
00000000
00000000
,
00000001
00000000
00000000
00000000
00000100
00000000
00000000
00000010
00001000
00000000
00000000
00000000
00001000
00000100
00000000
00000000
,
00000200
00000000
00000000
00000000
00000310
00000000
00000000
00000100
00000000
00001000
00000000
00000000
00000010
00010000
00000000
00000000
,
00002000
00000000
00000000
00000000
02003000
00000000
00000000
03020000
00000000
00000000
00000000
00000000
00000000
00230000
00000000
00000000
,
02300000
00000000
00000000
00000000
23000000
00000000
00000000
30020000
00000000
20030000
00000000
00000000
30010000
10000000
00010000
00000000
,
10000000
00000000
00000000
00000000
01000000
00000000
00000000
00100000
00000000
00000000
00010000
00000000
00000000
00000000
01000000
00000000
,
00001000
00000000
00000000
00000000
00010000
00000000
00000000
00000100
00000000
00000000
00001000
00000000
00000000
00000000
00000010
00001000
,
00000001
00000000
00000000
00000000
00000100
00000000
00000000
00000010
00000000
00000000
00001000
00000000
00000000
00000000
00000100
00000000
,
00010000
00000000
00000000
00000000
00001000
00000000
00000000
01000000
00000000
00000000
00010000
00000000
00000000
00000000
00100000
00010000
,
10000000
00000000
00000000
00000000
10010000
00000000
00000000
01100000
00000000
00000000
10010000
00000000
00000000
00000000
10000000
00000000
,
00001000
00000000
00000000
00000000
00011000
00000000
00000000
00101000
00000000
00000000
00010100
00000000
00000000
00000000
00010000
00000100
,
00001000
00000000
00000000
00000000
00001001
00000000
00000000
00000110
00000000
00000000
00001001
00000000
00000000
00000000
00000001
00000000
,
00001000
00000000
00000000
00000000
00000110
00000000
00000000
00000101
00000000
00000000
00001001
00000000
00000000
00000000
00001000
00000001
,
00002000
00000000
00000000
00000000
00003100
00000000
00010000
00001000
00010000
00000000
00001000
00000000
01001000
00000000
00000000
00000000
,
01000000
00000000
00010000
00000000
00100000
00000000
00010000
01000000
00010000
00000000
00100000
00000000
00001000
00000000
00010000
00001000
,
00020000
00000000
00000000
00000000
00030100
00000000
00001000
00000010
00001000
00000000
00000001
00000000
00001001
00000000
00000000
00000000
,
00000001
00000000
00000100
00000000
00000010
00000000
00001000
00000001
00001000
00000000
00000100
00000000
00010000
00000000
00001000
00010000
,
00002000
00000000
00000000
00000000
00103000
00000000
00010000
01000000
00010000
00000000
00100000
00000000
01100000
00000000
00000000
00000000
,
00100000
00000000
00010000
00000000
01000000
00000000
00001000
00010000
00000000
00001000
00010000
00000000
00000100
00000000
00010000
00001000
,
00020000
00000000
00000000
00000000
00030100
00000000
00001000
00000001
00001000
00000001
00001000
00000000
00001001
00000000
00000000
00000000
,
00000002
00001000
00002003
00000100
00003200
00010000
00010300
00001000
,
00011000
00000000
00000000
00000000
;
