#TITLE:Crash;
#SUBTITLE:;
#ARTIST:RAM;
#TITLETRANSLIT:;
#SUBTITLETRANSLIT:;
#ARTISTTRANSLIT:;
#GENRE:;
#CREDIT:;
#MUSIC:Crash.mp3;
#BANNER:crash.png;
#BACKGROUND:crash-bg.png;
#CDTITLE:;
#SAMPLESTART:60.995;
#SAMPLELENGTH:14.769;
#SELECTABLE:YES;
#OFFSET:-0.072;
#BPMS:0.000=130.000;
#STOPS:;
#BGCHANGES:;
#FGCHANGES:;

//--------------- dance-single - eataninja ----------------
#NOTES:
     dance-single:
     eataninja:
     Beginner:
     3:
     0,0,0,0,0:
0000
0000
0000
0000
,
0000
0000
0000
0000
,
0000
0000
0000
0000
,
0000
0000
0000
0000
,
0000
0000
0000
0000
,
1001
0000
0000
0000
,
0100
0000
0000
0000
,
0010
0000
0000
0000
,
1001
0000
0000
0000
,
0001
0000
0100
0000
,
0010
0000
0100
0000
,
0001
0000
0100
0000
,
1000
0000
0100
0000
,
0010
0000
1000
0000
,
0100
0000
0010
0000
,
0001
0000
1000
0000
,
0100
0100
0100
0000
,
1001
0000
0000
0000
,
0010
0000
0100
0000
,
0001
0000
0000
0000
,
0010
0000
0100
0000
,
0010
0000
0000
0000
,
0001
0000
1000
0000
,
0010
0000
0010
0000
,
0100
0100
0100
0000
,
0002
0000
0003
0000
,
0001
0000
0000
0000
,
2000
0000
3000
0000
,
1000
0000
0000
0000
,
0100
0000
0001
0000
,
0100
0000
1000
0000
,
0010
0000
0100
0000
,
1001
0000
0000
0000
,
1000
0000
0010
0000
,
0100
0000
0010
0000
,
1000
0000
0010
0000
,
0001
0000
0010
0000
,
0100
0000
0001
0000
,
0010
0000
0100
0000
,
1000
0000
0001
0000
,
0100
0100
0100
0000
,
0001
0000
0010
0000
,
0100
0000
0010
0000
,
0001
0000
0010
0000
,
1000
0000
0010
0000
,
0100
0000
1000
0000
,
0010
0000
0100
0000
,
0001
0000
1000
0000
,
0010
0010
0010
0000
,
2002
0000
3003
0000
,
0001
0000
1000
0000
,
0200
0000
0300
0000
,
0010
0000
0010
0000
,
2002
0000
3003
0000
,
1000
0000
0001
0000
,
0200
0000
0300
0000
,
0010
0000
0010
0000
,
1000
0001
1000
0000
,
0001
0100
0001
0000
,
0001
1000
0001
0000
,
1000
0100
1000
0000
,
0010
0000
0001
0000
,
0010
0000
1000
0000
,
0001
0010
0001
0000
,
1000
0010
1000
0000
,
1001
0000
0000
0000
;

//--------------- dance-single - MEGAtive ----------------
#NOTES:
     dance-single:
     MEGAtive:
     Easy:
     5:
     0.190968,0.239882,0,0.155821,0,163,163,0,19,0,0,0.190968,0.239882,0,0.155821,0,163,163,0,19,0,0:
0000
0000
0000
0000
,
0000
0000
0000
0000
,
0000
0000
0000
0000
,
0000
0000
0000
0000
,
0000
0000
0000
0000
,
1000
0000
1000
0000
,
0001
0000
0001
0000
,
0010
0000
0100
0000
,
2000
0000
0000
0000
,
3001
0100
0001
1000
,
0100
0010
0001
1000
,
0001
0010
0001
1000
,
0010
0100
0001
1000
,
0001
0100
0001
1000
,
0100
0010
0001
1000
,
0001
0010
0001
1000
,
0020
0000
0000
0000
,
1030
0001
0000
0001
,
1000
0100
0000
0100
,
0010
0001
0000
0001
,
0100
0010
0000
0010
,
1000
0001
0000
0001
,
1000
0100
0000
0100
,
0010
0001
0000
0001
,
1000
0001
1000
0001
,
2000
0000
0000
0000
,
3002
0000
0000
0000
,
0023
0000
0000
0000
,
0230
0000
0000
0000
,
2300
0000
0000
0000
,
3002
0000
0000
0000
,
0203
0000
0000
0000
,
0320
0000
0000
0000
0000
0030
0000
0000
,
1000
0100
1000
0001
,
0100
0010
1000
0001
,
1000
0010
1000
0001
,
0010
0100
1000
0001
,
1000
0100
1000
0001
,
0100
0010
1000
0001
,
1000
0010
1000
0001
,
0010
0100
1000
0001
,
1000
0010
1000
0001
,
0010
0100
1000
0001
,
1000
0100
1000
0001
,
0100
0010
1000
0001
,
1000
0010
1000
0001
,
0010
0100
1000
0001
,
1000
0100
1000
0001
,
0200
0000
0000
0000
,
0301
0010
0000
0010
,
0001
0100
0000
0100
,
0001
0010
0000
0010
,
0001
0100
0000
0001
,
1000
0100
0000
0100
,
1000
0010
0000
0010
,
1000
0100
0000
0100
,
1000
0001
1000
0000
,
0002
0000
0000
0000
,
2003
0000
0000
0000
,
3020
0000
0000
0000
,
0230
0000
0000
0000
,
0302
0000
0000
0000
,
2003
0000
0000
0000
,
3200
0000
0000
0000
,
0320
0000
0000
0000
,
0031
0000
0000
0000
;

//--------------- dance-single - MEGAtive ----------------
#NOTES:
     dance-single:
     MEGAtive:
     Medium:
     8:
     0.370221,0.426457,0.114815,0.254234,0,316,302,14,31,0,0,0.370221,0.426457,0.114815,0.254234,0,316,302,14,31,0,0:
0000
0000
0000
0000
,
0000
0000
0000
0000
,
0000
0000
0000
0000
,
0000
0000
0000
0000
,
0000
0000
0000
0000
,
0001
0001
0001
0001
,
1000
1000
1000
1000
,
0100
0100
0010
0010
,
0002
0000
0000
0000
,
1003
0100
1000
0000
0001
0100
0001
0000
,
1000
0100
0010
0001
1000
0010
0100
0000
,
0001
0010
0001
0000
1000
0010
1000
0000
,
0001
0010
0100
1000
0001
0100
0010
0000
,
1000
0100
1000
0000
0001
0100
0001
0000
,
1000
0100
0010
0001
1000
0010
0100
0000
,
0001
0010
0001
0000
1000
0010
1000
0000
,
0002
0100
1000
0100
,
1003
0000
1100
0000
0100
1000
0001
0100
,
0001
0000
0101
0000
0100
0001
1000
0100
,
1000
0000
1100
0000
0100
1000
0001
0100
,
0001
0000
0101
0000
0100
0001
1000
0000
,
0001
0000
0011
0000
0010
0001
1000
0010
,
1000
0000
1010
0000
0010
1000
0001
0010
,
0001
0000
0011
0000
0010
0001
1000
0010
,
1000
1000
0001
0001
,
0002
0000
0000
0000
,
2003
0000
0000
0000
,
3020
0000
0000
0000
,
0230
0000
0000
0000
,
0301
1000
0001
1000
,
0100
0010
0100
0010
,
0001
1000
0001
1000
,
0002
0000
0000
0000
,
1003
0010
1000
0000
0001
0010
0001
0000
,
1000
0010
0100
0001
1000
0100
0010
0000
,
0001
0100
0001
0000
1000
0100
1000
0000
,
0001
0100
0010
1000
0001
0010
0100
0000
,
1000
0010
1000
0000
0001
0010
0001
0000
,
1000
0010
0100
0001
1000
0100
0010
0000
,
0001
0100
0001
0000
1000
0100
1000
0000
,
0001
0100
0010
1000
0001
0010
0001
0000
,
1000
0100
1000
0000
0001
0100
0001
0000
,
1000
0100
0010
0001
1000
0010
0100
0000
,
0001
0010
0001
0000
1000
0010
1000
0000
,
0001
0010
0100
1000
0001
0100
0010
0000
,
1000
0100
1000
0000
0001
0100
0001
0000
,
1000
0100
0010
0001
1000
0010
0100
0000
,
0001
0010
0001
0000
1000
0010
1000
0000
,
0002
0100
0000
0100
0000
0000
1000
0000
,
1003
0000
1100
0000
0100
1000
0001
0000
,
1000
0000
1010
0000
0010
1000
0001
0010
,
0001
0000
0011
0000
0010
0001
1000
0000
,
0001
0000
0101
0000
0100
0001
1000
0100
,
1000
0000
1100
0000
0100
1000
0001
0000
,
1000
0000
1010
0000
0010
1000
0001
0010
,
0001
0000
0011
0000
0010
0001
1000
0000
,
0001
0010
0001
0010
0001
0000
1000
0000
,
0020
0000
0130
0020
0000
2030
0000
3002
,
0000
2003
0000
3200
0000
0320
0000
0130
,
0020
0000
0130
2000
0000
0000
0000
3001
,
0010
0001
0010
0200
0000
0320
0000
0000
,
0032
0000
1003
0020
0000
0230
0000
0302
,
0000
2003
0000
3200
0000
0320
0000
0032
,
0000
1003
0020
0000
0230
0000
0302
0000
,
2003
0000
0000
0000
,
3001
0000
0000
0000
;

//--------------- dance-single - MEGAtive ----------------
#NOTES:
     dance-single:
     MEGAtive:
     Hard:
     11:
     0.469805,0.541272,0.131217,0.237832,0.118916,401,385,16,29,0,0,0.469805,0.541272,0.131217,0.237832,0.118916,401,385,16,29,0,0:
0000
0000
0000
0000
,
0000
0000
0000
0000
,
0000
0000
0000
0000
,
0000
0000
0000
0000
,
0000
0000
0000
0000
,
0001
0000
0000
0001
0000
0000
0001
0000
0000
0000
0001
0000
0001
0000
0000
0000
,
1000
0000
0000
1000
0000
0000
1000
0000
0000
0000
1000
0000
1000
0000
0000
0000
,
0001
0000
0000
0001
0000
0000
0001
0000
0000
0000
0001
0000
0001
0000
0000
0000
,
2000
0000
0000
0000
,
3001
0010
0001
1000
0100
0010
0100
1000
,
0001
0100
0010
0100
0001
1000
0001
0000
,
1000
0100
1000
0001
0010
0100
0010
0001
,
1000
0010
0100
0010
1000
0001
1000
0000
,
0001
0100
0001
1000
0010
0100
0010
1000
,
0001
0010
0100
0010
0001
1000
0001
0000
,
1000
0010
1000
0001
0100
0010
0100
0001
,
1000
0000
0000
1000
0000
0000
1000
0000
0000
0001
0000
0000
0001
0000
0010
0000
,
0001
0000
0000
0011
0000
0000
0011
0000
0000
0001
1000
0000
0010
0000
0100
0000
,
0001
0000
0000
0101
0000
0000
0101
0000
0000
0100
0001
0000
1000
0000
0100
0000
,
0010
0000
0000
0110
0000
0000
0110
0000
0000
0100
1000
0000
0001
0000
0100
0000
,
0010
0000
0000
0110
0000
0000
0110
0000
0000
0100
0010
0000
1000
0000
0001
0000
,
1000
0000
0000
1100
0000
0000
1100
0000
0000
1000
0001
0000
0100
0000
0010
0000
,
1000
0000
0000
1010
0000
0000
1010
0000
0000
0010
1000
0000
0001
0000
0010
0000
,
0100
0000
0000
0110
0000
0000
0110
0000
0000
0010
0001
0000
1000
0000
0010
0000
,
0100
0000
0000
0110
0000
0000
0110
0000
0000
0010
0100
0000
0001
0000
1000
0000
,
0002
0010
0000
0010
,
2003
0010
0000
0010
,
3002
0100
0000
0100
,
2003
0100
0000
0100
,
3002
0010
0010
0010
,
2003
0010
0010
0010
,
3002
0100
0100
0100
,
2000
0000
0000
0000
3003
0001
1000
0001
,
1000
0100
0010
0100
1000
0010
0001
0010
,
1000
0100
0010
0001
1000
0001
1000
0000
,
0001
0100
0010
0100
0001
0010
1000
0010
,
0001
0100
0010
1000
0001
1000
0001
0000
,
1000
0010
0100
0010
1000
0100
0001
0100
,
1000
0010
0100
0001
1000
0001
1000
0000
,
0001
0010
0100
0010
0001
0100
1000
0100
,
0001
0010
0100
1000
0001
1000
0001
0000
,
1000
0100
0010
0100
1000
0010
0001
0010
,
1000
0100
0010
0001
1000
0001
1000
0000
,
0001
0100
0010
0100
0001
0010
1000
0010
,
0001
0100
0010
1000
0001
1000
0001
0000
,
1000
0010
0100
0010
1000
0100
0001
0100
,
1000
0010
0100
0001
1000
0001
1000
0000
,
0001
0010
0100
0010
0001
0100
1000
0100
,
0001
0010
0000
0010
0001
1000
0001
0000
,
1000
0000
0000
0010
1000
0000
0001
0000
0010
0000
0001
0000
1000
0000
0001
0000
,
1000
0000
0000
0100
1000
0000
0001
0000
0100
0000
0001
0000
1000
0000
0000
0000
,
0001
0000
0000
0100
0001
0000
1000
0000
0100
0000
1000
0000
0001
0000
1000
0000
,
0001
0000
0000
0010
0001
0000
1000
0000
0010
0000
1000
0000
0001
0000
0000
0000
,
1000
0000
0000
0100
1000
0000
0001
0000
0100
0000
0001
0000
1000
0000
0001
0000
,
1000
0000
0000
0010
1000
0000
0001
0000
0010
0000
0001
0000
1000
0000
0000
0000
,
0001
0000
0000
0010
0001
0000
1000
0000
0010
0000
1000
0000
0001
0000
1000
0000
,
0001
0000
0010
0000
0100
0000
1000
0000
0001
0000
0000
0100
0001
0000
1000
0000
,
0002
0000
0013
0002
0000
2003
0000
3020
,
0000
0230
0000
0302
0000
2003
0000
3100
,
0020
0000
0130
2000
0000
3002
0000
0103
,
0010
0100
0001
2000
0000
3100
0010
0100
,
2000
0000
0000
0000
0000
0000
0000
0000
0000
0000
0000
0000
0000
0000
0000
0000
0000
0000
0000
0000
0000
0000
0000
0000
0000
0000
0000
0000
0000
0000
0000
0000
0000
0000
0000
0000
0000
0000
0000
0000
0000
0000
0000
0000
0000
0000
0000
0000
3010
0000
0000
0000
0000
0000
0000
0000
0000
0000
0000
0000
0000
0000
0000
0000
0000
0000
0000
0000
0000
0000
0000
0000
2000
0000
0000
0000
0000
0000
0000
0000
0000
0000
0000
0000
0000
0000
0000
0000
0000
0000
0000
0000
0000
0000
0000
0000
0000
0000
0000
0000
0000
0000
0000
0000
0000
0000
0000
0000
0000
0000
0000
0000
0000
0000
0000
0000
0000
0000
0000
0000
3002
0000
0000
0000
0000
0000
0000
0000
0000
0000
0000
0000
0000
0000
0000
0000
0000
0000
0000
0000
0000
0000
0000
0000
0000
0000
0000
0000
0000
0000
0000
0000
0000
0000
0000
0000
0000
0000
0000
0000
0000
0000
0000
0000
0000
0000
0000
0003
0020
0000
0000
0000
0000
0000
0000
0000
0000
0000
0000
0000
0000
0000
0000
0000
0000
0000
0000
0000
0000
0000
0000
0000
,
0000
0130
1000
0200
0000
1300
0001
0200
,
0000
0310
1000
0001
1000
0100
0010
0002
,
0000
1003
0010
0200
0000
0310
1000
0001
,
2000
0000
0000
0000
,
3000
0000
0000
0000
;

//--------------- dance-single - MEGAtive ----------------
#NOTES:
     dance-single:
     MEGAtive:
     Challenge:
     13:
     0.565875,0.622463,0.024603,0.459261,0.332144,483,480,3,56,0,0,0.565875,0.622463,0.024603,0.459261,0.332144,483,480,3,56,0,0:
0000
0000
0000
0000
,
0000
0000
0000
0000
,
0000
0000
0000
0000
,
0000
0000
0000
0000
,
0000
0000
0000
0000
,
0001
0000
0000
0001
0000
0000
0001
0000
0010
0001
0010
0000
0001
0000
0000
0000
,
1000
0000
0000
1000
0000
0000
1000
0000
0010
1000
0010
0000
1000
0000
0000
0000
,
0001
0000
0000
0001
0000
0000
0001
0000
0100
0001
0100
0000
0001
0000
0000
0000
,
2002
0000
0000
3003
,
0001
0000
0100
0010
0100
0000
0001
0000
0010
0000
0001
0000
1000
0000
0100
0000
,
1000
0001
0100
0001
1000
0010
1000
0001
,
1000
0000
0010
0100
0010
0000
1000
0000
0100
0000
1000
0000
0001
0000
0010
0000
,
0001
1000
0010
1000
0001
0100
0001
0000
,
1000
0000
0010
0100
0010
0000
1000
0000
0100
0000
1000
0000
0001
0000
0010
0000
,
0001
1000
0010
1000
0001
0100
0001
1000
,
0001
0000
0100
0010
0100
0000
0001
0000
0010
0000
0001
0000
1000
0000
0100
0000
,
1000
0000
0001
0010
0001
0000
1000
0100
1000
0000
0010
0100
0010
0000
1000
0000
,
0001
0000
0000
0001
1000
0000
0010
0000
0100
0000
1000
0000
0100
0000
0010
0100
,
0001
0000
0000
0001
1000
0000
0100
0000
1000
0001
1000
0000
0010
0000
0100
0010
,
1000
0000
0000
1000
0001
0000
0010
0000
0100
0000
0001
0000
0100
0000
0010
0100
,
1000
0000
0000
1000
0001
0000
0100
0000
0001
1000
0001
0000
0010
0000
0100
0010
,
0001
0000
0000
0001
1000
0000
0010
0000
0100
0000
1000
0000
0100
0000
0010
0100
,
0001
0000
0000
0001
1000
0000
0100
0000
1000
0001
1000
0000
0010
0000
0100
0010
,
1000
0000
0000
1000
0001
0000
0010
0000
0100
0000
0001
0000
0100
0000
0010
0100
,
1000
0000
0010
0100
0010
0000
1000
0001
0010
0001
0000
1000
0100
0010
0001
1000
,
0002
0000
0000
0100
0000
0000
1000
0000
0000
0000
0010
0000
0010
0000
0000
0000
,
2003
0000
0000
0100
0000
0000
0001
0000
0000
0000
0010
0000
0010
0000
0000
0000
,
3002
0000
0000
0010
0000
0000
1000
0000
0000
0000
0100
0000
0100
0000
0000
0000
,
2003
0000
0000
0010
0000
0000
0001
0000
0000
0000
0100
0000
0100
0000
0000
0000
,
3001
0000
0000
0100
0001
0000
1000
0000
0100
0000
0000
0100
1000
0000
0001
0000
,
0100
0000
0000
0100
0001
0000
1000
0000
0100
0000
0000
0010
0001
0000
1000
0000
,
0010
0000
0000
0010
1000
0000
0001
0000
0010
0000
0000
0010
0001
0000
1000
0000
,
0020
0000
0000
0000
0000
0130
0010
0100
,
0001
0000
0100
0010
0100
0000
1000
0000
0100
0000
0010
0000
0100
0000
0001
0000
,
0010
0100
0010
1000
0010
0100
0010
0001
,
1000
0000
0010
0100
0010
0000
0001
0000
0010
0000
0100
0000
0010
0000
1000
0000
,
0100
0010
0100
0001
0100
0010
0001
0100
,
0010
0000
0001
0010
0100
0000
0001
0000
0010
0000
1000
0000
0010
0000
0001
0000
,
0100
0010
0001
0010
0100
0001
1000
0000
,
0100
0000
0001
0100
0010
0000
0001
0000
0100
0000
1000
0000
0100
0000
0001
0000
,
0010
0100
0001
0100
0010
0001
1000
0000
,
0001
0000
0100
0010
0100
0000
1000
0000
0100
0000
0010
0000
0100
0000
0001
0000
,
0010
0100
0010
1000
0010
0100
0010
0001
,
1000
0000
0010
0100
0010
0000
0001
0000
0010
0000
0100
0000
0010
0000
1000
0000
,
0100
0010
0100
0001
0100
0010
0001
0100
,
0010
0000
0001
0010
0100
0000
0001
0000
0010
0000
1000
0000
0010
0000
0001
0000
,
0100
0010
0001
0010
0100
0001
1000
0000
,
0100
0000
0001
0100
0010
0000
0001
0000
0100
0000
1000
0000
0100
0000
0001
0000
,
0010
0000
0100
0010
0100
0000
1000
0001
1000
0000
0001
0100
0001
0000
0000
0000
,
1010
0000
0010
1000
0001
0000
0010
0100
0000
0010
0100
0000
1000
0000
0001
0000
,
1000
0000
0010
0100
0001
0000
0010
0100
0000
0010
0100
0000
1000
0000
0000
0000
,
0001
0000
0010
0001
1000
0000
0010
0100
0000
0010
0100
0000
0001
0000
1000
0000
,
0001
0000
0010
0100
1000
0000
0010
0100
0000
0010
0100
0000
0001
0000
0000
0000
,
1000
0000
0010
1000
0001
0000
0010
0100
0000
0010
0100
0000
1000
0000
0001
0000
,
1000
0000
0010
0100
0001
0000
0010
0100
0000
0010
0100
0000
1000
0000
0000
0000
,
0001
0000
0010
0001
1000
0000
0010
0100
0000
0010
0100
0000
0001
0000
1000
0000
,
0001
0000
0010
0100
0010
0000
0001
1000
0001
0000
0000
0100
0010
0000
1000
0000
,
1002
0000
0023
2030
0000
3020
0000
0230
,
0000
2300
0000
3002
0000
0203
0000
0320
,
2030
0000
3200
0302
0000
0203
0000
0320
,
0032
0203
0320
2030
0000
3020
0230
0320
,
2030
0000
3200
0302
0000
0203
0000
0320
,
0000
0032
2003
3020
0000
0230
0320
0230
,
0302
0023
2030
3020
0032
0203
0320
0230
,
2300
3200
0320
2030
3200
0320
0032
2003
,
0002
0000
0000
0000
,
3003
0000
0000
0000
;

//--------------- dance-double - forcednature ----------------
#NOTES:
     dance-double:
     forcednature:
     Easy:
     6:
     0,0,0,0,0:
00000000
00000000
00000000
00000000
,
00000000
00000000
00000000
00000000
,
00000000
00000000
00000000
00000000
,
00000000
00000000
00000000
00000000
,
00000000
00000000
00000000
00000000
,
00001000
00010000
00000100
00001000
,
00000010
00010000
00001000
00100000
,
00010000
01000000
00001000
00010000
,
00001000
00000000
00000000
00000000
,
00100000
00010000
01000000
00001000
,
00100000
00010000
01000000
00000000
,
00001000
00010000
00000010
00001000
,
00000100
00000010
00000001
00000000
,
00000100
00000010
00001000
00000001
,
00001000
00000100
00010000
00000000
,
00001000
00100000
00010000
10000000
,
00200000
00000000
00000000
00300000
,
01000000
00000000
00010000
00100000
,
00001000
00010000
00000100
00000000
,
00001000
00000000
00000010
00010000
,
00001000
01000000
00010000
00000000
,
00100000
00000000
00010000
01000000
,
00001000
00010000
00000100
00000000
,
00001000
00000000
00000001
00000010
,
00000100
00001000
00001000
00000000
,
00001002
00000000
00000000
00000000
,
00000203
00000000
00000000
00000000
,
00000320
00000000
00000000
00000000
,
00020030
00000000
00000000
00000000
,
00031000
00001000
01000000
01000000
,
00010000
00010000
10000000
10000000
,
01000000
01000000
00100000
00100000
,
00022000
00000000
00000000
00033000
,
00010000
00000100
00001000
00000001
,
00000100
00000010
00001000
00000000
,
00010000
01000000
00100000
10000000
,
00010000
10000000
01000000
00000000
,
00100000
00010000
00100000
00001000
,
00010000
00000100
00001000
00000000
,
00000001
00000100
00000001
00001000
,
00000010
00010000
00001000
00000000
,
00100000
00001000
00010000
00001000
,
01000000
00010000
10000000
00000000
,
00100000
10000000
00010000
10000000
,
01000000
00100000
00010000
00000000
,
00100000
00001000
00010000
00000100
,
00001000
00000001
00001000
00000000
,
00000010
00010000
00001000
00010000
,
00000010
00001000
00000001
00000000
,
00001001
00000000
00000001
00000100
,
00001000
00010000
00100000
00000000
,
10010000
00000000
10000000
01000000
,
00010000
00001000
00000010
00000000
,
00001001
00000000
00000001
00000100
,
00001000
00010000
00100000
00000000
,
10010000
00000000
10000000
01000000
,
00010000
00001000
00000010
00000000
,
00000100
00001000
00000001
00000100
,
00000010
00010000
00001000
00000000
,
00100000
00010000
01000000
00001000
,
00010000
00001000
00100000
00000000
,
01000000
10000000
00010000
01000000
,
00001000
00010000
00000010
00000000
,
00001000
00000100
00000010
00000001
,
00000200
00000000
00000000
00002300
00000000
00000000
00023000
00000000
,
00130000
00000000
00000000
00000000
;

//--------------- dance-double - forcednature ----------------
#NOTES:
     dance-double:
     forcednature:
     Medium:
     8:
     0,0,0,0,0:
00000000
00000000
00000000
00000000
,
00000000
00000000
00000000
00000000
,
00000000
00000000
00000000
00000000
,
00000000
00000000
00000000
00000000
,
00000000
00000000
00000000
00000000
,
00002000
00023000
02030000
03200000
,
00302000
00023000
00230000
02300000
,
03002000
00023000
02030000
03200000
,
00302000
00000000
00000000
00003000
,
00011000
00000000
00010000
00000010
00000000
00000100
00000001
00000000
,
00000010
00000100
00001000
00000000
00000001
00000100
00000010
00000000
,
00010000
00000000
00001000
00100000
00000000
00010000
10000000
00000000
,
00100000
01000000
00010000
00000000
00100000
01000000
10000000
00000000
,
00010000
00000000
01000000
00001000
00000000
00010000
00000100
00000000
,
00001000
00000001
00000100
00000000
00000010
00010000
00001000
00000000
,
00100000
00000000
00010000
10000000
00000000
00100000
01000000
00000000
,
00010000
00100000
00000000
01000000
00000000
10000000
10000000
00000000
,
10010000
00000000
00010000
00000000
01000000
00001000
00010000
00000000
,
00000100
00001000
00000001
00000000
,
00000100
00000000
00001000
00000000
00010000
00100000
01000000
00000000
,
00010000
10000000
01000000
00000000
,
00010000
00000000
00001000
00000000
00000010
00000100
00001000
00000000
,
00000001
00000100
00000010
00000000
,
00010000
00000000
00001000
00000000
00100000
00010000
01000000
00000000
,
00100000
00000000
10000000
00000000
00100000
00000000
10000000
00000000
00010000
00000000
00000000
00010000
00000000
00000000
00010000
00000000
,
00200000
00000000
00000000
00000000
,
00302000
00000000
00000000
00000000
,
00023000
00000000
00000000
00000000
,
00030200
00000000
00000000
00000000
,
00000310
00000010
00000001
00000001
,
00000100
00000100
00001000
00001000
,
00010000
00010000
01000000
01000000
,
20020000
00000000
00000000
30030000
,
10000000
00000000
01000000
00100000
00010000
01000000
00001000
00000000
,
00010000
00000100
00001000
00000000
00000010
00010000
00001000
00000000
,
00000010
00000000
00000100
00001000
00000001
00000100
00000010
00000000
,
00010000
00001000
00100000
00000000
00001000
00010000
00100000
00000000
,
01000000
00000000
00010000
10000000
01000000
00100000
00010000
00000000
,
01000000
00001000
00010000
00000000
00000010
00010000
00001000
00000000
,
00000010
00000000
00000100
00001000
00000001
00000100
00000010
00000000
,
00001000
00000100
00000010
00000000
00000100
00010000
00001000
00000000
,
00011000
00000000
00001000
00100000
00010000
01000000
00100000
00000000
,
10000000
01000000
00100000
00000000
01000000
10000000
00010000
00000000
,
01000000
00000000
00001000
00010000
00100000
01000000
00001000
00000000
,
00010000
00000100
00001000
00000000
00000010
00010000
00001000
00000000
,
00000010
00000000
00000100
00001000
00000001
00001000
00000010
00000000
,
00010000
00001000
00100000
00000000
00001000
00010000
01000000
00000000
,
00100000
00000000
00010000
10000000
00100000
01000000
00001000
00000000
,
00010000
00000000
00000000
00000100
00000000
00000000
00001000
00000000
,
00001001
00000001
00000100
00000010
,
00001000
00000000
00010000
01000000
00100000
10000000
00010000
00000000
,
10000000
01000000
00100000
00010000
,
00001000
00000000
00000100
00000010
00000001
00001000
00000001
00000000
,
00000100
00000010
00001000
00010000
,
01000000
00000000
00100000
10000000
00010000
10000000
01000000
00000000
,
00100000
00010000
00001000
00000100
,
00000010
00000000
00000001
00000000
00000010
00000000
00000001
00000000
00000100
00000000
00000000
00000100
00000000
00000000
00000100
00000000
,
00000010
00010000
00001000
01000000
,
00010000
00000000
10000000
00000000
00010000
00100000
01000000
00000000
,
10000000
00010000
01000000
00001000
,
00010000
00000000
00000100
00000000
00001000
00000010
00000100
00000000
,
00000001
00000010
00000100
00010000
,
00001000
00000000
01000000
00000000
00010000
10000000
00100000
00000000
,
10000000
01000000
00100000
00010000
,
00002000
00000000
00000000
00003200
00000000
00000310
00000001
00000000
,
00001001
00000000
00000000
00000000
;

//--------------- dance-double - forcednature ----------------
#NOTES:
     dance-double:
     forcednature:
     Hard:
     10:
     0,0,0,0,0:
00000000
00000000
00000000
00000000
,
00000000
00000000
00000000
00000000
,
00000000
00000000
00000000
00000000
,
00000000
00000000
00000000
00000000
,
00000000
00000000
00000000
00000000
,
00010000
00000000
00000000
00010000
00000000
00000000
00010000
00000000
00001000
00000000
00000000
00001000
00000000
00000000
00001000
00000000
,
00000100
00000000
00000000
00000100
00000000
00000000
00000100
00000000
00000001
00000000
00000000
00000001
00000000
00000000
00000001
00000000
,
00000010
00000000
00000000
00000010
00000000
00000000
00000010
00000000
00001000
00000000
00000000
00001000
00000000
00000000
00001000
00000000
,
00022000
00000000
00000000
00033000
,
01000000
00010000
00100000
01000000
10000000
00010000
01000000
00100000
,
10000000
01000000
00010000
00001000
01000000
00010000
00100000
00000000
,
00001000
00010000
00000010
00010000
00001000
00000010
00000100
00001000
,
00000001
00000100
00000010
00010000
00001000
00010000
00000100
00000000
,
00001000
00000010
00010000
00001000
00100000
00010000
01000000
00001000
,
00010000
00100000
01000000
00010000
10000000
01000000
00100000
00000000
,
01000000
10000000
00010000
01000000
00001000
00010000
00000100
00010000
,
00002000
00000000
00000000
00003200
00000000
00000000
00000320
00000000
00000000
00000000
00000000
00000000
00000030
00000000
00000000
00000000
,
00001001
00000000
00000000
00000101
00000000
00000000
00001100
00000000
00000000
00000000
00000010
00000000
00010000
00000000
00001000
00000000
,
00100000
00000000
00000000
00110000
00000000
00000000
11000000
00000000
00000000
00000000
10000000
00000000
00010000
00000000
01000000
00000000
,
00001000
00000000
00000000
00011000
00000000
00000000
00010100
00000000
00000000
00000000
00000100
00000000
00001000
00000000
00000010
00000000
,
00000100
00000000
00000000
00000110
00000000
00000000
00001001
00000000
00000000
00000000
00000001
00000000
00000010
00000000
00001000
00000000
,
00010000
00000000
00000000
00010100
00000000
00000000
00101000
00000000
00000000
00000000
01000000
00000000
00010000
00000000
10000000
00000000
,
01000000
00000000
00000000
01100000
00000000
00000000
10010000
00000000
00000000
00000000
00010000
00000000
01000000
00000000
00001000
00000000
,
00010000
00000000
00000000
00010100
00000000
00000000
00001010
00000000
00000000
00000000
00000001
00000000
00000010
00000000
00000100
00000000
,
00001000
00000000
00010000
00000000
00100000
00000000
01000000
00000000
10000000
00000000
00000000
10000000
00000000
00000000
10000000
00000000
,
20010000
00000000
00000000
00000000
,
32000000
00000000
00000000
00000000
,
03200000
00000000
00000000
00000000
,
00302000
00000000
00000000
00000000
,
00023000
00000100
00000010
00000100
,
00032000
01000000
00100000
01000000
,
00023000
00000100
00000010
00000100
,
00002000
00000000
00000000
00000000
00030000
00010000
00010000
00013000
,
00001000
01000000
00010000
00100000
01000000
10000000
00010000
01000000
,
00001000
00010000
00000100
00001000
00000010
00010000
00001000
00000000
,
00000010
00000100
00001000
00000001
00000100
00000010
00010000
00001000
,
00010000
00000100
00001000
00000001
00000100
00000010
00010000
00000000
,
00001000
00100000
00010000
01000000
00001000
00010000
00100000
01000000
,
00010000
10000000
01000000
00100000
01000000
10000000
00010000
00000000
,
01000000
00001000
00010000
00000100
00001000
00000100
00010000
00001000
,
00100000
00010000
00100000
00001000
00010000
00000010
00001000
00000000
,
00000001
00000010
00000100
00001000
00000010
00000100
00001000
00010000
,
00000100
00010000
00001000
01000000
00010000
00100000
01000000
00000000
,
10000000
00100000
01000000
00010000
00100000
01000000
00010000
00001000
,
00100000
00010000
01000000
00001000
00010000
00000100
00001000
00000000
,
00000001
00000100
00000010
00001000
00000010
00000100
00001000
00010000
,
00000100
00001000
00000010
00010000
00001000
00100000
00010000
00000000
,
10000000
01000000
00100000
00010000
01000000
00100000
00010000
00001000
,
00200000
00320000
00000000
02030000
00000000
00000000
03000000
00000000
,
00100000
00000000
00000000
10000000
00000000
00000000
01000000
00000000
00100000
00000000
00010000
00000000
10000000
00000000
00010000
00000000
,
01000000
00000000
00000000
00001000
00000000
00000000
00010000
00000000
00000100
00000000
00001000
00000000
00000010
00000000
00010000
00000000
,
00001000
00000000
00000000
00000010
00000000
00000000
00000100
00000000
00001000
00000000
00000001
00000000
00000100
00000000
00000010
00000000
,
00001000
00000000
00000000
00000001
00000000
00000000
00000010
00000000
00001000
00000000
00010000
00000000
00000100
00000000
00001000
00000000
,
00000010
00000000
00000000
00000100
00000000
00000000
00001000
00000000
00010000
00000000
00100000
00000000
01000000
00000000
00010000
00000000
,
10000000
00000000
00000000
01000000
00000000
00000000
00100000
00000000
00010000
00000000
01000000
00000000
00010000
00000000
00100000
00000000
,
00001000
00000000
00000000
00010000
00000000
00000000
00000010
00000000
00010000
00000000
00001000
00000000
00000010
00000000
00000100
00000000
,
00010000
00000000
01000000
00000000
00010000
00000000
00001000
00000000
00010000
00000000
00000000
00100000
00000000
00000000
10000000
00000000
,
10020000
00000000
00230000
02300000
00000000
03020000
00000000
00032000
,
00000000
00003020
00000000
00000230
00000000
00002300
00000000
00003002
,
00000203
00000000
00000320
00020030
00000000
00032000
00000000
00003020
,
00000000
00000230
00000000
00002300
00000000
00003002
00000000
00000203
,
00002300
00000000
00023000
00230000
00000000
20300000
00000000
32000000
,
00000000
03020000
00032000
00003020
00000000
00001030
00010000
00100000
,
00010000
00001000
00010000
01000000
00100000
00001000
00010000
00100000
,
10000000
01000000
00100000
02000000
00000000
03010000
00001000
00000000
,
00000110
00000000
00000000
00000000
;

//--------------- dance-double - forcednature ----------------
#NOTES:
     dance-double:
     forcednature:
     Challenge:
     13:
     0,0,0,0,0:
00000000
00000000
00000000
00000000
,
00000000
00000000
00000000
00000000
,
00000000
00000000
00000000
00000000
,
00000000
00000000
00000000
00000000
,
00000000
00000000
00000000
00000000
,
00001000
00000000
00000000
00010000
00000000
00000000
01000000
00000000
00010000
00000000
00000000
00001000
00000000
00000000
00010000
00000000
,
01000000
00000000
00000000
10000000
00000000
00000000
01000000
00000000
00010000
00000000
00000000
01000000
00000000
00000000
10000000
00000000
,
00100000
00000000
00000000
00010000
00000000
00000000
00100000
00000000
10000000
00000000
00000000
00100000
00000000
00000000
00010000
00000000
,
00022000
00000000
00000000
00033000
,
00000100
00001000
00000010
00010000
00001000
00000010
00000100
00001000
,
00000001
00000100
00001000
00010000
01000000
00100000
00001000
00000000
,
00010000
00100000
10000000
01000000
00010000
00001000
01000000
00010000
,
00100000
01000000
00010000
00001000
00000010
00000100
00001000
00000000
,
00000001
00000100
00001000
00010000
00000100
00001000
00000010
00000100
,
00001000
00010000
01000000
00100000
00001000
00010000
00100000
00000000
,
10000000
01000000
00010000
00001000
01000000
00010000
00100000
01000000
,
00020000
00000000
00000000
00030200
00000000
00000000
00000320
00000000
00000000
00000000
00000001
00000000
00000031
00000000
00000000
00000000
,
00001001
00000000
00000000
00010000
00000000
00000000
01000000
00000000
00100000
00000000
00001000
00000000
00010000
00000000
00100000
00000000
,
10000000
00000000
00000000
00010000
00000000
00000000
00001000
00000000
00000100
00000000
00000010
00000000
00000001
00000000
00001000
00000000
,
00000010
00000000
00000000
00010000
00000000
00000000
00100000
00000000
01000000
00000000
00001000
00000000
00010000
00000000
01000000
00000000
,
00100000
00000000
00000000
00001000
00000000
00000000
00000010
00000000
00000100
00000000
00001000
00000000
00000001
00000000
00000100
00000000
,
00000010
00000000
00000000
00010000
00000000
00000000
00100000
00000000
01000000
00000000
00001000
00000000
00010000
00000000
01000000
00000000
,
00100000
00000000
00000000
00001000
00000000
00000000
00010000
00000000
00100000
00000000
10000000
00000000
00010000
00000000
10000000
00000000
,
01000000
00000000
00000000
00001000
00000000
00000000
00000100
00000000
00000010
00000000
00000001
00000000
00001000
00000000
00000001
00000000
,
00000100
00000000
00001000
00000000
00100000
00000000
00010000
00000000
10000000
00000000
00000000
01000000
00100000
00010000
00100000
00010000
,
00200000
00000000
00000000
00000000
,
00302000
00000000
00000000
00000000
,
00003020
00000000
00000000
00000000
,
00000230
00000000
00000000
00000000
,
00002300
00000100
00000001
00000010
,
00023000
01000000
10000000
00100000
,
00032000
00000100
00000001
00000010
,
00013000
00000000
00000000
00000000
00000000
00100000
00100000
00100000
,
01000000
00010000
00000100
00010000
00001000
00000100
00000010
00010000
,
00100000
00010000
00001000
00100000
01000000
00010000
00001000
00000000
,
00010000
00100000
10000000
01000000
00010000
00000100
00001000
00000001
,
00000100
00000010
00010000
00001000
00000010
00000001
00001000
00000000
,
00000010
00001000
00010000
01000000
00100000
10000000
00010000
00001000
,
00010000
01000000
00001000
00010000
00000100
00001000
00000010
00000000
,
00100000
00001000
00000010
00000100
00001000
00000001
00001000
00010000
,
00100000
01000000
10000000
00010000
01000000
00001000
00010000
00000000
,
00000010
00000100
00010000
00001000
00000010
00010000
01000000
00100000
,
00001000
00010000
00100000
10000000
00010000
00001000
00010000
00000000
,
01000000
00001000
00000010
00000001
00000100
00010000
01000000
00001000
,
00010000
01000000
10000000
00010000
00001000
00000001
00000100
00000000
,
00000010
00010000
00001000
00000010
00000100
00010000
00100000
01000000
,
00001000
00010000
00000010
00000100
00010000
00100000
00001000
00000000
,
01000000
00100000
00010000
00001000
00000100
00000010
00010000
00001000
,
00000010
00000000
00000001
00000000
00000000
00000000
00000100
00000000
00000000
00000000
00000010
00000000
00000010
00000000
00000100
00000001
,
00001000
00000000
00000100
00000000
00000010
00000000
00000100
00000000
00010000
00000000
00001000
00010000
00100000
00000000
01000000
00000000
,
00010000
00000000
10000000
00000000
01000000
00000000
00010000
00000000
00001000
00000000
01000000
00010000
00100000
00000000
00000000
00000000
,
00001000
00000000
00010000
00000000
00000010
00000000
00000100
00000000
00001000
00000000
00000100
00000001
00000010
00000000
00000100
00000000
,
00000001
00000000
00000100
00000000
00001000
00000000
00000010
00000000
00010000
00000000
00001000
00100000
00010000
00000000
00000000
00000000
,
01000000
00000000
00010000
00000000
00100000
00000000
01000000
00000000
00010000
00000000
00001000
01000000
00010000
00000000
10000000
00000000
,
01000000
00000000
00010000
00000000
00001000
00000000
00000100
00000000
00000001
00000000
00000010
00000100
00001000
00000000
00000000
00000000
,
00000001
00000000
00000100
00000000
00001000
00000000
00010000
00000000
00100000
00000000
01000000
00010000
00100000
00000000
01000000
00000000
,
00010000
00000000
00000100
00000000
00010000
00000000
00100000
00000000
00010000
00000000
00000000
00001000
00000000
00000000
00000010
00000000
,
00000110
00000100
00001000
00000001
00000100
00001000
00010000
00100000
,
10000000
00010000
10000000
01000000
00010000
00001000
00000010
00000001
,
00001000
00000001
00000100
00001000
00010000
00100000
01000000
00001000
,
00010000
01000000
00100000
00001000
00010000
00100000
10000000
01000000
,
00010000
00001000
00000010
00000100
00010000
00001000
00000100
00000010
,
00001000
00000001
00000100
00000001
00000010
00001000
00010000
00100000
,
00010000
00001000
00010000
01000000
00100000
00001000
00010000
00100000
,
10000000
01000000
00010000
00000200
00000000
00000310
00000001
00000000
,
00001001
00000000
00000000
00000000
;
