#TITLE:Clumsy;
#SUBTITLE:;
#ARTIST:Fergie;
#TITLETRANSLIT:;
#SUBTITLETRANSLIT:;
#ARTISTTRANSLIT:;
#GENRE:;
#CREDIT:;
#MUSIC:Clumsy.ogg;
#BANNER:;
#BACKGROUND:;
#CDTITLE:;
#SAMPLESTART:31.391;
#SAMPLELENGTH:10.435;
#SELECTABLE:YES;
#OFFSET:-0.087;
#BPMS:0.000=92.000;
#STOPS:;
#BGCHANGES:-0.174=Clumsy.avi=1.000=1=0=0,
99999=-nosongbg-=1.000=0=0=0 // don't automatically add -songbackground-
;
#FGCHANGES:;

//--------------- dance-single - eataninja ----------------
#NOTES:
     dance-single:
     eataninja:
     Beginner:
     2:
     0,0,0,0,0:
0000
0000
0000
0000
,
0000
0000
0000
0000
,
0000
0000
0000
0000
,
0000
0000
0000
0000
,
1000
0000
0000
0001
,
0001
0000
0000
0000
,
1001
0000
0000
0100
,
0200
0000
0300
0000
,
0001
0000
0000
1000
,
1000
0000
0000
0000
,
1001
0000
0000
0100
,
0200
0000
0300
0000
,
0000
1000
0000
0001
,
0000
1000
0000
0001
,
0001
0000
1000
0000
,
0020
0000
0030
0000
,
0000
1000
0000
0001
,
0000
1000
0000
0001
,
0001
0000
1000
0000
,
0200
0000
0300
0000
,
0100
0100
0010
0000
,
0010
0010
0001
0000
,
0001
0001
0100
0000
,
0100
0100
0010
0000
,
2000
0000
0000
3000
,
0002
0000
0000
0003
,
0020
0000
0000
0030
,
0200
0000
0000
0300
,
2000
0000
0000
3000
,
0002
0000
0000
0003
,
0200
0000
0000
0300
,
0020
0000
0000
0030
,
0010
0010
0100
0000
,
0100
0100
0001
0000
,
0001
0001
1000
0000
,
1000
1000
1000
0000
,
0100
0100
0010
0000
,
0010
0010
0001
0000
,
0001
0001
0100
0000
,
0100
0100
0100
0000
,
0000
0001
0000
1000
,
0000
0001
0000
1000
,
1000
0000
0100
0000
,
0020
0000
0030
0000
,
0000
0001
0000
1000
,
0000
0001
0000
1000
,
1000
0000
0010
0000
,
0200
0000
0300
0000
,
0001
0001
0000
0000
,
1000
1000
0000
0000
,
1001
0000
0000
0000
;

//--------------- dance-single - eataninja ----------------
#NOTES:
     dance-single:
     eataninja:
     Easy:
     4:
     0,0,0,0,0:
0000
0000
0000
0000
,
0000
0000
0000
0000
,
0000
0000
0000
0000
,
0000
0000
0000
0000
,
1000
2200
3300
1000
,
0001
0202
0303
0100
,
0010
0010
0000
0110
,
2002
3003
1000
0001
,
1000
2020
3030
1000
,
0001
0022
0033
0010
,
0100
0100
0000
0110
,
2002
3003
0010
0100
,
0101
0000
1100
0000
,
0101
0000
1100
0000
,
0100
0001
0010
1000
,
0010
0001
1000
0000
,
1010
0000
0011
0000
,
1010
0000
0011
0000
,
0010
1000
0100
0001
,
0100
0010
0001
0000
,
1000
0010
0100
0100
,
0001
0010
0100
0100
,
1000
0010
0100
0100
,
0001
0010
0100
0000
,
2000
3002
2003
3200
,
0320
0032
2003
3002
,
0203
0320
2030
3020
,
0230
0302
2003
3200
,
0320
0032
0023
0230
,
2300
3002
0203
0302
,
0023
0230
2300
3002
,
0203
0320
1030
0000
,
0001
0100
0010
0010
,
1000
0100
0010
0010
,
0001
0100
0010
0010
,
1000
0100
0010
0000
,
0010
0001
1000
1001
,
0100
0001
1000
1001
,
0010
0001
1000
1001
,
0100
1000
0010
0000
,
1010
0000
0101
0000
,
1010
0000
0101
0000
,
0001
0010
1000
0001
,
0100
1000
0001
0000
,
0011
0000
1100
0000
,
0011
0000
1100
0000
,
1000
0010
0001
1000
,
0100
0001
1000
0000
,
0001
0000
0010
0000
,
0100
0000
1000
0010
,
1001
0000
0000
0000
;

//--------------- dance-single - eataninja ----------------
#NOTES:
     dance-single:
     eataninja:
     Medium:
     7:
     0,0,0,0,0:
0000
0000
0000
0000
,
0000
0000
0000
0000
,
0000
0000
0000
0000
,
0000
0000
0000
0000
,
1000
1000
0000
0000
0001
0001
0000
0000
,
0100
0100
0000
0000
0010
0010
0000
0000
,
0100
0001
1000
0000
0001
0000
0011
0000
,
2200
0000
3300
0000
1000
0010
0100
0001
,
1000
1000
0000
0000
0001
0001
0000
0000
,
0010
0010
0000
0000
0100
0100
0000
0000
,
1100
0100
0010
0000
0001
0000
0101
0000
,
2020
3030
0001
1000
,
0100
0010
0001
0000
0100
0010
1000
0000
,
0100
0010
0001
0000
0100
0010
1000
0000
,
0001
0100
1000
0100
0001
0001
1000
0000
,
0001
0010
0100
0000
1000
0000
1001
0000
,
0010
0100
0001
0000
0010
0100
1000
0000
,
0010
0100
0001
0000
0010
0100
1000
0000
,
0001
0010
1000
0010
0001
0001
1000
0000
,
0010
0110
1001
0000
,
0020
0000
0130
0000
1000
1000
1001
0000
,
0020
0000
0130
0000
0001
0001
1001
0000
,
0020
0000
0130
0000
1000
1000
1001
0000
,
0020
0000
0130
0000
1001
0000
1000
1000
,
0020
0230
0302
2003
,
3200
0320
0032
2003
,
3020
0230
0320
2030
,
3200
0302
0203
2300
,
3002
0203
0320
2030
,
3200
0320
0032
2003
,
3020
0032
0023
2030
,
3002
0023
0130
0000
,
1000
0001
1000
0000
0010
0100
0101
0000
,
0001
1000
0001
0000
0010
0100
1100
0000
,
1000
0001
1000
0000
0010
0100
0101
0000
,
0001
1000
0001
0000
0010
2000
0000
3010
,
0100
1000
0001
0000
0100
0001
1001
0000
,
0010
1000
0001
0000
0010
0001
1001
0000
,
0100
0001
1000
0000
0010
1000
1001
0000
,
0010
1000
0001
0000
0010
0000
0100
0000
,
1000
1000
0010
0000
0010
0010
0001
0000
,
0001
0001
0100
0000
0100
0100
1000
0000
,
0001
0100
1000
0100
0010
1000
0001
0000
,
0010
0100
1000
0000
0001
0001
1001
0000
,
0001
0001
0100
0000
0100
0100
1000
0000
,
1000
1000
0010
0000
0010
0010
0001
0000
,
1000
0100
0001
0100
0010
0001
1000
0000
,
0010
0100
0001
0000
1000
1000
1001
0000
,
0010
0100
0020
0000
0030
0000
1001
0000
,
1000
0000
0010
0000
0001
0010
0100
0000
,
0001
0000
0000
0000
;

//--------------- dance-single - eataninja ----------------
#NOTES:
     dance-single:
     eataninja:
     Hard:
     10:
     0,0,0,0,0:
0000
0000
0000
0000
,
0000
0000
0000
0000
,
0000
0000
0000
0000
,
0000
0000
0000
0000
,
1000
0100
0002
0000
0103
0100
0010
0001
,
1000
0010
0002
0000
0013
0010
0100
0001
,
1000
0100
0001
0100
1000
0000
1010
0000
,
0102
0000
1003
0000
0100
0100
1001
0000
,
0001
0010
2000
0000
3010
0010
0100
1000
,
0001
0100
2000
0000
3100
0100
0010
1000
,
0001
0010
1000
0100
0001
0000
0101
0000
,
2010
0000
0000
0000
3001
0000
0000
0000
0010
0100
0000
0100
1000
0000
0001
0000
,
1000
0000
0010
0000
0000
0210
0000
0000
0301
1000
0100
0000
0000
0120
0000
0000
,
0031
0000
0010
0000
0000
0210
0000
0000
1300
0001
0100
0000
0000
0120
0000
0000
,
1030
1000
0010
0001
1000
0100
0002
0000
,
0013
0100
1000
0000
1001
1001
0100
0000
,
0001
0000
0100
0000
0000
0120
0000
0000
1030
0001
0010
0000
0000
0210
0000
0000
,
1300
0000
0100
0000
0000
0120
0000
0000
0031
1000
0010
0000
0000
0210
0000
0000
,
0301
0001
0100
1000
0001
0010
2000
0000
,
3100
0000
0010
0000
0001
0000
0000
0000
0001
1000
0000
1000
0010
0000
0100
0000
,
0001
0000
0000
1000
0000
0000
0010
0000
1000
0000
0000
0000
0001
0000
0000
1000
0000
0000
0100
0000
0000
0010
0000
0000
,
0001
0000
0000
1000
0000
0000
0100
0000
1000
0000
0000
0000
0001
0000
0000
1000
0000
0000
0010
0000
0000
0010
0000
0000
,
1000
0000
0000
0001
0000
0000
0100
0000
0001
0000
0000
0000
1000
0000
0000
0001
0000
0000
0010
0000
0000
0100
0000
0000
,
1000
0000
0000
0000
0000
0000
0001
0000
0000
0000
0000
0000
0010
0000
0000
0000
0001
0000
0000
0000
0000
0000
0000
0000
1000
0000
0000
0010
0000
0000
0000
0000
0000
0010
0000
0000
0100
0000
0000
0000
0000
0000
0100
0000
0000
0000
0000
0000
,
0002
2003
3200
0302
,
2003
3020
0032
0203
,
2300
3002
0023
2030
,
3020
0032
0203
2300
,
3002
0023
2030
3002
,
0203
2300
3020
0032
,
2003
3200
0302
0023
,
2030
0000
3200
0000
0302
0000
1000
1003
,
0001
0000
0000
0010
0000
0000
0100
0000
1000
0000
0000
0000
1001
0000
0000
0110
0000
0000
0100
0000
0001
0000
0000
0000
,
1000
0000
0000
0010
0000
0000
0100
0000
0001
0000
0000
0000
1001
0000
0000
0110
0000
0000
0100
0000
1000
0000
0000
0000
,
0001
0000
0000
1000
0000
0000
0010
0000
0100
0000
0000
0000
0110
0000
0000
1001
0000
0000
1000
0000
0100
0000
0000
0000
,
1000
0000
0000
0000
0000
0000
0001
0000
0000
0000
0000
0000
0100
0000
0000
0000
0010
0000
0000
0000
0000
0000
0000
0000
0010
0000
0000
0000
0000
0000
0002
0000
0000
0000
0000
0000
0000
0000
0000
0000
0000
0000
0013
0000
0000
0100
0000
0000
,
0001
0000
0000
1000
0000
0000
0100
0000
0010
0000
0000
0000
0011
0000
0000
1001
0000
0000
1000
0000
0010
0000
0000
0000
,
1000
0000
0000
0001
0000
0000
0010
0000
0100
0000
0000
0000
1100
0000
0000
1001
0000
0000
0001
0000
0100
0000
0000
0000
,
0001
0000
0000
1000
0000
0000
0001
0000
0010
0000
0000
0000
0011
0000
0000
1001
0000
0000
1000
0000
0010
0000
0000
0000
,
1000
0000
0000
0000
0000
0000
0001
0000
0000
0000
0000
0000
1000
0000
0000
0000
0100
0000
0000
0000
0000
0000
0000
0000
0010
0000
0000
0001
0000
0000
0000
0000
0000
0001
0000
0000
1000
0000
0000
0000
0000
0000
0010
0000
0000
0000
0000
0000
,
0100
0000
0100
0000
0000
0102
0000
0000
1003
0100
0010
0000
0000
2100
0000
0000
,
3010
0000
0010
0000
0000
2010
0000
0000
3001
0010
0100
0000
0000
0012
0000
0000
,
1003
0010
0001
0001
0010
0100
0001
0010
,
1000
0010
0100
0000
1100
0101
1001
0000
,
1000
0000
1000
0000
0000
1020
0000
0000
0130
0001
1000
0000
0000
0201
0000
0000
,
0301
0000
0001
0000
0000
0021
0000
0000
0130
1000
0001
0000
0000
0201
0000
0000
,
0301
0100
1000
1000
0100
0001
0010
1000
,
0010
0000
0100
0000
1000
0000
0000
0000
1000
0001
0000
0001
0100
0000
0100
0000
,
0010
1000
1010
0000
1000
1000
0001
0000
,
0001
0010
0011
0000
0110
0110
1001
0000
,
0200
0000
0000
0000
,
0300
0000
0000
0000
;
