#TITLE:City Express;
#SUBTITLE:;
#ARTIST:Yoshino Aoki;
#TITLETRANSLIT:;
#SUBTITLETRANSLIT:;
#ARTISTTRANSLIT:;
#GENRE:;
#CREDIT:;
#MUSIC:City Express.mp3;
#BANNER:;
#BACKGROUND:;
#CDTITLE:;
#SAMPLESTART:62.203;
#SAMPLELENGTH:13.617;
#SELECTABLE:YES;
#OFFSET:1.627;
#BPMS:0.000=141.000;
#STOPS:;
#BGCHANGES:;
#FGCHANGES:;

//--------------- dance-single - aboutblank ----------------
#NOTES:
     dance-single:
     aboutblank:
     Beginner:
     2:
     0,0,0,0,0:
0000
0000
0000
0000
,
0000
0000
0000
0000
,
0000
0000
0000
0000
,
0000
0000
0000
0000
,
0000
0000
0000
0000
,
1000
0000
0000
0000
,
1000
0000
0000
0000
,
0001
0000
0000
0000
,
0001
0000
0000
0000
,
0100
0000
0000
0000
,
0100
0000
0000
0000
,
0010
0000
0000
0000
,
0010
0000
0000
0000
,
1000
0000
1000
0000
,
1000
0000
0000
0000
,
0100
0000
0100
0000
,
0100
0000
0000
0000
,
0010
0000
0010
0000
,
0010
0000
0000
0000
,
0001
0000
0001
0000
,
0001
0000
0000
0000
,
1000
0000
1000
0000
,
0001
0000
0000
0000
,
0001
0000
0001
0000
,
1000
0000
0000
0000
,
0100
0000
0100
0000
,
0010
0000
0000
0000
,
0010
0000
0010
0000
,
0100
0000
0000
0000
,
1000
0000
0000
0000
,
0100
0000
0000
0000
,
0001
0000
0000
0000
,
0010
0000
0000
0000
,
1000
0000
0000
0000
,
0100
0000
0000
0000
,
0001
0000
0000
0000
,
0010
0000
0010
0000
,
0000
0000
1000
0000
,
1000
0000
0100
0000
,
0100
0000
0010
0000
,
0000
0000
1001
0000
,
0000
0000
0001
0000
,
0001
0000
0010
0000
,
0010
0000
0100
0000
,
0000
0000
1001
0000
,
0000
0000
1000
0000
,
1000
0000
0100
0000
,
0100
0000
0010
0000
,
0000
0000
1001
0000
,
0000
0000
0001
0000
,
0001
0000
0100
0000
,
0100
0000
0010
0000
,
0000
0000
1001
0000
,
0000
0000
0110
0000
;

//--------------- dance-single - aboutblank ----------------
#NOTES:
     dance-single:
     aboutblank:
     Easy:
     6:
     0,0,0,0,0:
0000
0000
0000
0000
,
0000
0000
0000
0000
,
0000
0000
0000
0000
,
0000
0000
0000
0000
,
0000
0000
0000
0000
,
1000
0000
0100
0100
,
0010
0000
0001
1000
,
0001
0000
0100
0100
,
0010
0000
1000
0010
,
0100
0000
0001
0001
,
1000
0000
0100
0010
,
0001
0000
1000
1000
,
0010
0000
0110
0000
,
0001
0100
0001
0100
,
0010
0100
0010
0100
,
0010
1000
0010
1000
,
0001
0000
1000
0000
0001
1000
0001
0000
,
1000
0100
1000
0100
,
0010
0100
0010
0100
,
0010
0001
1000
0001
,
0100
0000
0001
0000
0100
0010
0100
0000
,
0001
0010
0100
1000
,
0001
1000
0100
0010
,
0001
0100
0010
1000
,
0001
0000
0010
0000
0100
0010
0100
0000
,
1000
0010
0100
0001
,
0010
0100
1000
0001
,
0100
0001
1000
0010
,
1000
0000
0100
0000
0010
0001
0010
0100
,
2000
0001
3001
1001
,
0002
1000
1003
1001
,
2000
0001
3001
1001
,
0002
1000
1003
1001
,
1000
0100
0001
0010
,
1000
0100
0001
0010
,
1000
0100
0010
0001
,
0011
1100
0110
2002
,
0000
3003
1000
0000
,
0001
0000
0100
0100
,
0010
1000
0001
0000
,
1100
0000
0001
1000
,
0100
0100
0010
0001
,
1000
0000
0010
0010
,
0100
0001
0010
0000
,
1001
0000
0001
1000
,
0100
0010
0001
0100
,
0010
0000
1000
1000
,
0001
0100
0010
0000
,
1001
0000
0001
0010
,
0100
1000
0001
0000
,
1000
0000
0100
0100
,
0010
0001
0100
0000
,
1010
0000
0001
1000
,
0100
0010
1001
0000
;

//--------------- dance-single - aboutblank ----------------
#NOTES:
     dance-single:
     aboutblank:
     Medium:
     8:
     0,0,0,0,0:
0000
0000
0000
0000
,
0000
0000
0000
0000
,
0000
0000
0000
0000
,
0000
0000
0000
0000
,
0000
0000
0000
0000
,
1000
0000
0001
0000
0100
0000
0010
1000
,
0100
0010
0100
0100
,
1000
0000
0001
0000
0010
0000
0100
0010
,
0001
0100
0001
0001
,
1000
0000
0010
0000
0100
0000
0001
0010
,
0100
0010
0001
0001
,
1000
0000
0001
0000
0100
0000
0010
1000
,
0001
0000
0001
0000
0001
0100
0001
0000
,
1000
0100
0010
0000
0010
0000
0010
0000
,
0001
0001
1000
1000
,
0010
0000
0010
1000
0010
0000
0100
0001
,
0200
1000
0001
1300
,
0001
0010
0100
0000
0010
0000
0001
0000
,
1000
0010
0100
0001
,
1000
0000
1000
0100
1000
0000
0001
0010
,
0002
1000
0010
1003
,
1001
0000
0100
0000
1000
0001
0100
0000
,
1000
0000
0100
0000
0010
1000
0100
0000
,
0001
0000
0100
0010
0001
0000
1000
0010
,
0200
1000
0010
1300
,
0101
0000
0001
0010
0000
0100
1000
0200
,
0000
0010
0000
0310
0000
0001
1000
0002
,
0000
0000
0100
0000
0103
0001
1000
0100
,
1000
0000
0000
0000
1001
0000
0000
0000
1000
0100
0000
0010
0001
0000
0000
0000
,
2000
0000
3100
0000
0001
0100
1000
0000
,
0002
0000
0013
0000
1000
0010
0001
0100
,
2000
0000
3100
0000
0001
0010
0100
0000
,
0020
0000
0031
0000
0100
0010
1000
0000
,
1001
0000
1001
0000
1000
0100
0010
0000
,
1001
0000
1001
0000
0001
0010
0100
0000
,
1000
0001
0100
0000
1000
0100
0001
0000
,
1000
0100
0001
0010
,
2000
0000
3001
0010
,
1000
0010
0001
1000
,
0100
0010
0100
0010
0002
0000
0013
0000
,
0200
0000
0310
0000
0001
1000
0001
0000
,
0100
0001
0100
0000
0010
0000
1000
0000
,
0100
0001
0100
0010
,
0001
1000
0001
0000
0200
0000
0310
0000
,
2000
3010
0101
1100
,
0001
1000
0100
0000
0010
0000
0001
0000
,
0100
1000
0100
0001
,
0010
0100
1000
0000
0002
0000
0013
0000
,
2000
0000
3100
0000
0001
1000
0100
0000
,
0110
0011
1000
0010
,
0001
0010
0100
0001
,
0010
0100
2000
3100
,
0002
0000
0013
0000
1000
0100
0010
0000
,
0001
0100
0010
0000
1001
0000
0000
0000
;

//--------------- dance-single - aboutblank ----------------
#NOTES:
     dance-single:
     aboutblank:
     Hard:
     11:
     0,0,0,0,0:
0000
0000
0000
0000
,
0000
0000
0000
0000
,
0000
0000
0000
0000
,
0000
0000
0000
0000
,
0000
0000
0000
0000
,
0011
0000
1100
0000
0001
0010
1000
0001
,
0100
0000
0010
0000
0001
1000
0001
0000
,
0101
0000
1010
0000
0001
0100
0010
1000
,
0001
0000
1100
0000
0001
1000
0100
1000
,
0001
0000
0110
0000
1000
0010
0001
1000
,
0100
0000
0101
0000
0001
0010
0100
0000
,
0010
0000
1001
0000
0001
1000
0010
0100
,
0010
0110
1001
0110
,
0001
0000
0001
0000
0001
0100
0001
0000
,
0100
0000
0100
0000
0100
0010
0100
0000
,
0010
1000
0010
0000
1000
0100
1000
0000
,
0001
0000
0010
0000
1000
0000
0010
0000
0001
1000
0000
0000
0101
0000
0000
0000
,
1000
0000
1000
0000
1000
0100
1000
0000
,
0010
0000
0010
0000
0010
1000
0010
0000
,
0100
0001
0010
0000
0100
1000
0010
0000
,
0100
0000
0001
0000
0100
0000
0001
0000
1000
0100
0000
0010
0001
0000
0000
0000
,
1000
0000
1010
0000
1000
0100
0001
0000
,
0100
0000
0011
0000
0010
0001
0100
0000
,
1000
0100
0001
0000
0001
0010
1000
0000
,
0001
0000
0100
0000
1000
0000
0001
0000
0100
0010
0000
0000
1010
0000
0000
0000
,
0010
0000
0101
0000
0001
0010
0100
0000
,
1001
0000
1010
0000
0001
1000
0100
0000
,
1000
0100
0001
0000
0001
0100
1000
0000
,
0010
0000
0100
0000
0010
0000
1000
0000
0001
0010
0001
0010
0001
0000
1000
0000
,
0200
0000
0000
0000
0310
0000
0000
0010
0001
1000
0000
0000
1010
0000
0000
0000
,
0020
0000
0000
0000
0130
0000
0000
0100
0001
1000
0000
0000
1001
0000
0000
0000
,
0200
1000
0000
0000
1300
0000
0000
0000
0200
0010
0000
0000
0310
0000
0000
0000
,
0010
0000
0000
0010
0001
0000
0000
0001
0100
0010
0000
0010
1000
0000
0000
0000
,
0100
0000
0010
0000
0001
0000
0000
0010
0100
0010
0100
0000
1000
0000
0000
0000
,
0010
0000
0100
0000
0001
0000
0000
1000
0100
1000
0100
0000
0001
0000
0000
0000
,
0100
0000
0010
0000
0001
0000
0000
1000
0010
0000
0100
0000
0001
0000
0000
1000
,
0010
0100
0010
0100
0010
0100
0010
0200
,
0020
0330
1001
0110
,
0001
0010
1000
0000
0010
0010
0100
0010
,
0001
0100
0010
1000
0002
0003
0110
0000
,
2000
3000
0110
0000
0001
0100
0010
1000
,
0001
0010
0100
1000
0001
0000
1100
0000
,
0010
0100
0001
0000
1000
0100
0010
0001
,
1000
0010
1000
0001
0200
0300
1001
0000
,
0020
0030
1001
0000
0001
0010
1000
0001
,
0100
0000
0010
0000
0001
1000
0000
0000
0110
0000
0000
0000
0001
0000
0100
0000
,
0010
0000
1100
0000
1000
0100
0001
0100
,
1000
0001
0010
0100
0020
0000
0031
0000
,
0200
1300
1010
0101
,
1000
0100
0010
0000
0012
0000
0103
0000
,
2100
0000
3010
0000
0100
0001
1000
0000
,
0100
0010
0001
1000
0020
0000
1030
0000
,
0200
0301
1100
0011
,
1100
0000
0000
0001
1000
0000
0010
0000
0110
0000
0000
0000
0000
0000
0000
0000
;
