#TITLE:Celia;
#SUBTITLE:;
#ARTIST:Big Idea;
#TITLETRANSLIT:;
#SUBTITLETRANSLIT:;
#ARTISTTRANSLIT:;
#GENRE:;
#CREDIT:;
#MUSIC:08. Celia.mp3;
#BANNER:;
#BACKGROUND:;
#CDTITLE:;
#SAMPLESTART:77.560;
#SAMPLELENGTH:19.073;
#SELECTABLE:YES;
#OFFSET:-0.077;
#BPMS:0.000=151.000;
#STOPS:;
#BGCHANGES:;
#FGCHANGES:;

//--------------- dance-single - UNI4 Step Team ----------------
#NOTES:
     dance-single:
     UNI4 Step Team:
     Beginner:
     8:
     0,0,0,0,0:
0000
0000
0000
0000
,
0000
0000
0000
0000
,
0000
0000
0000
0000
,
0000
0000
0000
0000
,
0000
0000
0000
0000
,
1000
0100
0000
0000
,
0001
0100
0000
0000
,
1000
0100
0000
0001
,
0000
0100
0000
1000
,
0001
0100
0000
0000
,
1000
0100
0000
0000
,
0001
0000
0100
0000
,
1000
0000
0100
0000
,
0001
0100
0000
0000
,
1000
0100
0000
0000
,
0001
0000
0100
0000
,
1000
0000
0100
0000
,
0000
0001
0000
0001
,
0000
1000
0000
1000
,
0100
0001
0100
1000
,
0100
0001
0100
1000
,
0000
0001
0000
0001
,
0000
1000
0000
1000
,
0000
0001
0100
1000
,
0100
0001
0100
1000
,
0100
0000
0001
0000
,
0100
0000
1000
0000
,
0100
0100
0001
0001
,
1000
1000
0100
0000
,
0100
0001
0100
0000
,
0100
1000
0100
0000
,
1000
1000
0001
0001
,
0100
0100
0001
0000
,
1001
0000
1000
1000
,
1001
0000
0001
0001
,
1001
0000
1000
1000
,
1001
0000
0001
0001
,
1001
0000
1000
1000
,
1001
0000
0001
0001
,
1001
0000
1000
1000
,
1001
0000
0001
0001
,
0100
1000
0100
0001
,
0100
1000
0100
0000
,
1000
0100
0001
0100
,
1000
0100
0001
0000
,
1000
1001
0001
0000
,
0001
1001
0001
0000
,
1001
1000
1001
0001
,
1001
1000
1001
0001
,
1001
0100
1000
0100
,
1001
0100
0001
0100
,
1001
0100
1000
0100
,
1000
0001
0100
0000
,
1001
0100
0001
0100
,
1001
0100
1000
0100
,
1001
0100
1001
0100
,
1001
0100
1001
0100
,
1001
1001
0100
0001
,
1001
1001
0100
1000
,
1001
0100
1001
0100
,
1001
0100
1001
0100
,
1001
1001
0100
0001
,
1001
1001
0100
1000
,
1001
0100
1001
0100
,
1001
0100
1001
0100
,
2002
0000
0000
0000
,
3003
0000
0000
0000
;

//--------------- dance-single - UNI4 Step Team ----------------
#NOTES:
     dance-single:
     UNI4 Step Team:
     Easy:
     9:
     0,0,0,0,0:
0000
0000
0000
0000
,
0000
0000
0000
0000
,
0000
0000
0000
0000
,
0000
0000
0000
0000
,
0000
0000
0000
0000
,
1100
1001
1000
0010
,
0101
1001
0001
0010
,
1100
0010
0101
0010
,
1100
0010
0101
0010
,
1001
1010
1000
0010
,
1001
0011
0001
0010
,
1100
0001
0101
1000
,
1010
0001
0011
1000
,
1010
0110
0001
1000
,
0011
0110
0001
1000
,
1010
0100
0011
0100
,
1010
0100
0011
0100
,
1000
1001
1000
1001
,
1000
1001
1000
1001
,
0101
0010
1100
0010
,
0101
0010
1100
0010
,
0001
1001
0001
1001
,
0001
1001
0001
1001
,
0101
0010
1100
0010
,
0101
0010
1100
0010
,
0011
0001
1010
1000
,
0011
0001
1010
1000
,
1010
0001
0101
1000
,
1010
0001
0101
1000
,
0101
0001
1100
1000
,
0101
0001
1100
1000
,
0011
0001
1010
1000
,
0011
1010
0011
1100
,
0101
0010
0000
0010
,
1100
0010
0000
0010
,
0101
0010
0000
0010
,
1100
0010
0000
0010
,
0001
0001
0100
0100
,
1000
1000
0010
0010
,
0001
0100
1000
0010
,
0001
0100
1000
0010
,
0001
0001
0101
0101
,
1000
1000
1100
1100
,
0001
0001
0011
0011
,
1000
1000
1010
1010
,
0001
0011
1000
1010
,
0001
0011
1000
1010
,
0001
0101
1000
1100
,
0001
0101
1000
1100
,
0101
1100
0001
1000
,
1100
0101
1000
0001
,
0011
1010
0001
1000
,
1010
1100
0011
0101
,
1100
0101
1000
0001
,
0011
1010
0001
1000
,
1100
0001
0101
1000
,
1010
0001
0011
1010
,
1010
1100
0001
0100
,
0011
0101
1000
0100
,
1010
0101
0011
1100
,
1010
0101
0011
1100
,
0101
1100
0100
0010
,
0011
1010
0001
1000
,
1010
0100
0011
0100
,
1100
0101
1010
0011
,
2002
0000
0000
0000
,
0000
0000
3003
0000
;

//--------------- dance-single - UNI4 Step Team ----------------
#NOTES:
     dance-single:
     UNI4 Step Team:
     Medium:
     12:
     0,0,0,0,0:
0000
0000
0000
0000
,
0000
0000
0000
0000
,
0000
0000
0000
0000
,
0000
0000
0000
0000
,
0000
0000
0000
0000
0000
0000
0000
0000
0000
1000
0000
0200
,
0001
0000
0000
1300
0000
0000
1000
0000
0000
0001
0000
0200
,
1000
0000
0000
0301
0000
0000
0010
0000
0000
0100
0000
0020
,
0001
0000
0000
0130
0000
0000
0010
0000
0001
0100
0000
0000
,
0010
0000
1000
0100
0000
0000
0010
0000
0001
0100
0000
0000
,
0002
0000
0000
1000
0000
0000
0103
0000
0100
0010
0000
0000
,
2000
0000
0000
0001
0000
0000
3100
0000
0100
0010
0000
0000
,
0001
0000
0001
0000
0000
0000
1000
0000
1000
0000
0000
0000
,
0010
0000
0010
0000
0000
0000
0100
0000
0100
0000
0000
0000
,
0002
0000
0000
0023
0000
0000
0130
0000
0100
0010
0000
0000
,
0002
0000
0000
0203
0000
0000
0310
0000
0010
1000
0000
0000
,
1001
0000
1000
0000
0000
0000
0010
0000
0010
0000
0000
0000
,
0100
0000
0100
0000
0000
0000
0001
0000
0001
1000
0001
0000
,
0100
0100
0010
0010
,
1000
1000
0100
0100
,
0010
0001
0000
0001
0000
0000
0010
0001
0000
0001
0000
0000
,
1000
0100
0000
0100
0000
0000
1000
0100
0000
0100
0000
0000
,
0010
0010
0001
0001
,
1000
1000
0010
0010
,
0100
0001
0000
0001
0000
0000
0100
0001
0000
0001
0000
0000
,
1000
0010
0000
0010
0000
0000
1000
0010
0000
0010
0000
0000
,
1000
0100
0001
0100
,
1000
0100
0001
0100
,
1000
0010
0000
0010
0000
0000
0100
0001
0000
0001
0000
0000
,
1000
0100
0000
0100
0000
0000
0010
0001
0000
0001
0000
0000
,
1000
0001
0100
0010
,
1000
0001
0100
0010
,
1000
0001
0000
0010
0000
0000
0100
0000
0000
1000
0000
0000
,
0001
1000
0000
0010
0000
0000
0100
0000
0000
0001
1000
0000
,
0001
0000
0010
0100
0000
0000
1000
0000
0010
0100
0000
0000
,
0001
0000
0100
0010
0000
0000
1000
0000
0100
0010
0000
0000
,
0001
0000
0010
0100
0000
0000
1000
0000
0010
0100
0000
0000
,
0001
0000
0100
0010
0000
0000
1000
0000
0100
0010
0000
0000
,
0001
0000
0100
0001
0000
0000
1000
0000
0010
1000
0000
0000
,
0001
0000
0010
0001
0000
0000
1000
0000
0100
1000
0000
0000
,
0001
0000
1000
0100
0000
0000
1000
0000
0001
0100
0000
0000
,
0010
0000
1000
0001
0000
0000
1000
0000
0100
0010
0000
0001
,
1000
0000
0000
1000
0000
0000
1010
0000
0000
0010
1000
0100
,
0010
0000
0000
0011
0000
0000
0011
0000
0000
0010
0001
1000
,
0001
0000
0000
1001
0000
0000
1001
0000
0000
1000
0001
0100
,
0010
0000
0000
0110
0000
0000
0110
0000
0000
0010
0000
1000
,
0010
0000
0000
1000
0000
0100
1000
0000
0000
0001
0000
0100
,
0001
0000
0000
0010
0000
0001
0010
0000
0000
0100
0000
0010
,
0100
0000
0000
1000
0000
0001
0100
0000
0000
0001
0000
1000
,
0100
0000
0010
0000
0001
0000
0100
0000
0010
0000
1000
0000
,
0002
0000
0000
0013
0000
0000
1000
0000
0010
0001
0000
0000
,
2000
0000
0000
3010
0000
0000
0001
0000
0010
1000
0000
0000
,
0002
0000
0000
0023
0000
0000
1030
0000
0010
0001
0000
0000
,
1000
0000
0001
0100
0000
0000
0001
0000
1000
0100
0000
0000
,
2000
0000
0000
3200
0000
0000
0301
0000
0100
1000
0000
0000
,
0002
0000
0000
0203
0000
0000
1300
0000
0100
0001
0000
0000
,
2000
0000
0000
3002
0000
0000
0013
0000
0100
1000
0000
0000
,
0010
0000
0100
0001
0000
0000
0010
0000
0100
1000
0000
0000
,
1001
0000
0000
1100
0000
0000
1000
0000
0100
0010
0001
0000
,
1001
0000
0000
0101
0000
0000
0001
0000
0100
0010
1000
0000
,
0001
0000
1000
0100
1000
0000
0001
0000
0100
0001
0100
0000
,
0001
0000
1000
0010
1000
0000
0001
0000
0010
0001
0010
0000
,
0110
0000
0000
1100
0000
0000
0100
0000
0010
0001
0000
0000
,
0110
0000
0000
0101
0000
0000
0100
0000
0010
1000
0000
0000
,
1001
0000
1000
0100
0000
0000
0110
0000
0010
0001
0000
0000
,
0101
0000
0001
0100
0000
0000
0110
0000
0010
1000
0000
0000
,
2002
0000
0000
0000
,
3003
0000
0000
0000
;

//--------------- dance-single - UNI4 Step Team ----------------
#NOTES:
     dance-single:
     UNI4 Step Team:
     Hard:
     16:
     0,0,0,0,0:
0000
0000
0000
0000
,
0000
0000
0000
0000
,
0000
0000
0000
0000
,
0000
0000
0000
0000
,
0000
0000
0000
0000
0000
0000
0000
0000
0000
1000
0001
0010
,
0200
0000
0000
0001
0000
0000
1300
0000
1000
0001
1000
0100
,
0020
0000
0000
1000
0000
0000
0031
0000
0001
1000
0001
0100
,
0020
0000
0000
0001
0000
0000
1030
0000
1000
0001
1000
0100
,
0010
0000
0010
0001
0100
0010
1000
0000
0010
1000
0100
0010
,
0002
0000
0000
0203
0000
0000
1300
0000
0100
0001
1000
0100
,
2000
0000
0000
3200
0000
0000
0301
0000
0100
1000
0001
0100
,
0020
0000
0031
1000
0000
0000
0200
0000
0301
1000
0000
0000
,
0020
0000
1030
0001
0000
0000
0200
0000
0301
1000
0100
0010
,
0002
0000
0000
0023
0000
0000
1030
0001
0000
0100
0010
0001
,
2000
0000
0000
3020
0000
0000
0031
1000
0000
0100
0010
1000
,
0002
0000
0013
0100
0010
0000
2000
0000
3010
0100
0010
0000
,
0002
0000
0103
0010
0100
0000
2000
0000
3100
0010
0100
0001
,
1000
0100
0000
0001
0100
1000
0001
0100
0000
1000
0100
0001
,
1000
0100
0000
0001
0100
1000
0001
0100
0000
1000
0100
0001
,
0000
1200
0000
0001
0000
1300
0000
0201
0000
1000
0000
0301
,
0000
1200
0000
0001
0000
1300
0000
0201
0000
1000
0000
0301
,
1000
0010
0000
0001
0010
1000
0001
0010
0000
1000
0010
0001
,
1000
0010
0000
0001
0010
1000
0001
0010
0000
1000
0010
0001
,
0000
1020
0000
0001
0000
1030
0000
0021
0000
1000
0000
0031
,
0000
1020
0000
0001
0000
1030
0000
0021
0000
1000
0000
0031
,
1000
0100
0000
0001
0100
0010
0001
0100
0000
1000
0100
0010
,
1000
0100
0000
0001
0100
0010
0001
0100
0000
1000
0100
0010
,
1000
0200
0000
0001
0000
1300
0000
1020
0000
0001
0000
1030
,
0000
1200
0000
0001
0000
1300
0000
1020
0000
0001
0000
1030
,
0001
0010
0000
1000
0010
0100
1000
0010
0000
0001
0010
0100
,
0001
0010
0000
1000
0010
0100
1000
0010
0000
0001
0010
0100
,
0001
0020
0030
0020
1030
0001
0100
1000
0000
0010
0001
1000
,
0100
0001
0000
0010
1000
0001
0100
1000
0000
0010
0001
1000
,
0200
0010
0302
0010
,
2003
0100
3002
0010
,
2003
0001
3200
0010
,
2300
0000
0000
0000
0000
0000
3001
0000
0010
0001
0010
0001
,
2000
0100
3020
0001
,
0230
1000
0302
0010
,
0203
0010
0302
1000
,
0023
0000
0000
0000
0000
0000
1000
0000
0000
0030
0000
0000
0010
0000
0000
0000
0001
0000
1000
0000
0100
0000
1000
0000
,
0100
0010
0000
0001
0100
0001
0100
0010
0000
1000
0001
1000
,
0001
0010
0000
0001
1000
0001
1000
0100
0000
1000
0100
0010
,
0100
1000
0000
0001
0100
0010
0100
0001
0000
1000
0001
0010
,
0100
1000
0000
0001
1000
0010
0100
0001
0000
0010
0001
0100
,
0010
1000
0000
0001
1000
0100
0010
0100
0000
0100
1000
0010
,
0100
0001
0000
1000
0001
0100
0010
0100
0000
0001
1000
0100
,
0010
0001
0000
0001
0100
0001
1000
0001
0000
1000
0100
1000
,
0001
1000
0000
0001
1000
0100
0010
0001
0100
0010
1000
0200
,
0001
0000
0000
0010
0000
0000
1300
0000
0001
1000
0010
0200
,
0001
0000
0000
0010
0000
0000
1300
0000
0100
0001
1000
0200
,
0001
0000
0000
0010
0000
0000
1300
0000
0001
0010
0100
2000
,
0001
0000
0000
0000
0000
0000
3001
0100
0010
1000
0100
0020
,
0001
0000
0000
1000
0000
0000
0031
1000
0000
0001
0100
0020
,
1000
0000
0000
0001
0000
0000
1030
0001
0000
1000
0100
0020
,
1000
0000
1030
0001
0100
0020
0001
0000
0031
1000
0010
0200
,
1000
0000
1300
0001
0010
0200
0001
0000
0301
0100
0010
1000
,
0002
0000
0100
2003
0000
0100
3001
1000
0100
1000
0010
0100
,
0002
0000
0010
2003
0000
0010
3001
0100
0001
0010
0100
1000
,
0002
0000
0100
1003
0010
1000
0002
0000
0100
1003
0010
1000
,
0200
0000
0010
1300
0001
1000
0200
0000
0010
1300
0001
1000
,
0020
0000
1000
0230
0000
0001
0310
1000
0001
0100
0010
1000
,
0020
0000
1000
0230
0000
0001
0310
1000
0001
0100
0010
1000
,
0002
0000
0013
1000
0010
0001
2000
0000
3010
0001
0010
1000
,
0002
0000
0103
1000
0100
0010
1000
0100
0010
1000
0010
0002
,
2000
0000
0000
0000
,
0000
0000
3003
0000
;
