#TITLE:Cascade;
#SUBTITLE:;
#ARTIST:Deluka;
#TITLETRANSLIT:;
#SUBTITLETRANSLIT:;
#ARTISTTRANSLIT:;
#GENRE:;
#CREDIT:;
#MUSIC:Cascade.mp3;
#BANNER:;
#BACKGROUND:;
#CDTITLE:;
#SAMPLESTART:0.000;
#SAMPLELENGTH:0.000;
#SELECTABLE:YES;
#OFFSET:1.907;
#BPMS:0.000=120.000;
#STOPS:;
#BGCHANGES:1.907=Cascade.avi=1.000=1=0=0=StretchNoLoop==CrossFade==,
99999.000=-nosongbg-=1.000=0=0=0=StretchNoLoop====
;
#FGCHANGES:;

//--------------- dance-single - ----------------
#NOTES:
     dance-single:
     :
     Beginner:
     2:
     0,0,0,0,0:
0000
0000
0000
0000
,
0000
0000
0000
0000
,
0000
0000
0000
0000
,
0000
0000
0000
0000
,
0000
0000
0000
0000
,
1000
0000
0000
0000
,
0000
0000
0000
0000
,
0010
0000
0000
0000
,
0100
0000
0000
0000
,
0001
0000
0000
0000
,
0001
0000
0001
0000
,
0010
0000
0000
0000
,
0010
0000
0010
0000
,
0100
0000
0000
0000
,
0100
0000
0100
0000
,
1000
0000
0000
0000
,
1000
0000
1000
0000
,
0001
0000
0100
0000
,
1000
0000
0000
0000
,
1000
0000
0100
0000
,
0001
0000
0000
0000
,
0001
0000
0010
0000
,
1000
0000
0000
0000
,
1001
0000
0000
0000
,
0110
0000
0000
0000
,
1000
0000
0100
0000
,
0001
0000
0000
0000
,
0001
0000
0010
0000
,
1000
0000
0000
0000
,
1000
0000
0100
0000
,
0001
0000
0000
0000
,
0001
0000
0010
0000
,
1000
0000
0000
0000
,
1000
0000
0100
0000
,
0010
0000
0000
0000
,
0001
0000
0010
0000
,
0100
0000
0000
0000
,
1000
0000
0010
0000
,
0100
0000
0000
0000
,
1001
0000
0000
0000
,
0001
0000
1000
0000
,
0110
0000
0100
0000
,
0100
0000
0100
0000
,
0001
0000
0001
0000
,
0001
0000
0001
0000
,
0010
0000
0010
0000
,
0010
0000
0010
0000
,
1000
0000
1000
0000
,
0100
0000
0100
0000
;

//--------------- dance-single - ----------------
#NOTES:
     dance-single:
     :
     Easy:
     4:
     0,0,0,0,0:
0000
0000
0000
0000
,
0000
0000
0000
0000
,
0000
0000
0000
0000
,
0000
0000
0000
0000
,
0000
0000
0000
0000
,
1000
1000
1000
0000
,
0001
0001
0001
0000
,
0010
0010
0010
0000
,
0100
0100
0100
0000
,
1000
0000
0001
0000
,
0100
0000
0010
0000
,
1000
0000
0001
0000
,
0010
0000
0100
1000
,
0010
0000
0100
0000
,
0001
0000
1000
0001
,
0101
0000
0001
0000
,
0110
0000
0110
0000
0000
0100
0010
0000
,
1000
0100
0001
0100
,
1000
0010
0001
0000
,
0001
0100
1000
0100
,
0001
0010
1000
0000
,
0001
1000
0010
0100
,
0000
1001
0000
0110
,
0000
0001
1000
0100
,
0010
0100
1000
0010
,
0100
0100
0001
0000
,
0010
0010
1000
0000
,
0100
0100
0001
0000
,
1000
0001
1000
0001
,
0010
0010
1000
0000
,
0101
1010
0101
1010
,
0001
1000
0100
0000
,
0010
0000
0100
0000
1000
0001
1000
0000
,
0100
0100
0001
0000
,
0010
0010
1000
0001
,
1000
1000
0100
0000
,
0001
0001
0010
1000
,
0001
0001
0100
0000
,
1100
0011
1100
0011
,
1000
0001
1000
0010
,
0100
0100
0001
1000
,
0001
0100
1000
0100
,
0001
0100
1000
0000
,
1000
0100
0001
0100
,
1000
0100
0001
0000
,
1000
0010
0001
0010
,
1000
0010
0001
0000
,
0001
0010
1000
0010
,
0001
0010
1000
0000
,
1001
0000
0000
0000
;

//--------------- dance-single - ----------------
#NOTES:
     dance-single:
     :
     Medium:
     9:
     0,0,0,0,0:
0000
0000
0000
0000
,
0000
0000
0000
0000
,
0000
0000
0000
0000
,
0000
0000
0000
0000
,
0000
0000
0000
0000
,
0001
0010
1000
0100
,
0001
0010
1000
0100
,
0001
0100
1000
0010
,
0001
0100
1000
0010
,
0001
0000
0001
0000
0001
0100
0000
0010
,
1000
0000
1000
0000
1000
0010
0000
0100
,
0001
0000
0001
0000
0001
1000
0000
1000
,
0010
0000
0010
0000
1000
0001
0000
0100
,
0010
0010
1001
0001
,
0100
0000
0100
0000
1001
0000
1000
0001
,
0010
0010
1100
0002
,
0023
0000
0230
0000
1300
1000
0001
0000
,
0100
1000
0100
0000
0100
0001
0100
0000
,
0001
0010
0100
1000
,
0010
0001
0010
0000
0010
1000
0010
0000
,
1000
0001
0100
0010
,
1000
0100
1000
0000
0001
0100
0001
0000
,
1001
0000
0110
0000
1000
0010
0001
0000
,
0001
0100
2000
0000
0100
0000
3010
0000
,
0001
1000
0001
1000
0100
0010
0001
0000
,
1000
0010
0001
0100
,
1000
0000
0010
0000
0001
0000
0100
0010
,
0100
0001
0010
1000
,
0100
0000
0001
0000
0010
0000
0100
0010
,
0100
1000
0100
0001
,
1001
0000
0110
0000
1001
0000
0001
1000
,
0001
0010
1000
0100
,
1000
0001
1000
0000
0001
1000
0001
0000
,
0010
0100
1000
0010
,
0100
0000
0001
0000
0010
0000
0100
0010
,
0100
1000
0010
0100
,
0001
0000
1000
0000
0010
0000
0100
0001
,
0100
0001
0010
0100
,
1100
0000
0101
0000
1010
0000
0001
1000
,
0010
0100
0001
0010
,
0100
1000
0100
1000
0001
0010
0100
1000
,
0001
0100
1000
0010
,
1000
0100
0001
0000
,
1000
0100
0001
0010
,
0001
0100
1000
0000
,
0001
0010
1000
0100
,
1000
0010
0001
0000
,
1000
0010
0001
0100
,
0001
0010
1000
0001
,
1001
0000
0000
0000
;

//--------------- dance-single - ----------------
#NOTES:
     dance-single:
     :
     Hard:
     11:
     0,0,0,0,0:
0000
0000
0000
0000
,
0000
0000
0000
0000
,
0000
0000
0000
0000
,
0000
0000
0000
0000
,
0000
0000
0000
0000
,
0001
0010
0100
1000
0001
0010
0100
1000
,
0001
0010
0100
1000
0001
0010
0100
1000
,
0001
0100
0010
1000
0001
0100
0010
1000
,
0001
0100
0010
1000
0001
0100
0010
1000
,
0001
0000
0001
0000
1000
0010
1000
0000
,
0100
0000
0100
0000
0010
0001
0010
0100
,
1000
0000
1000
0000
0001
1000
0100
0000
,
0100
1000
0010
0000
0010
0100
0001
0000
,
0010
0000
0010
0000
0001
0010
0100
0000
,
0100
0000
0100
0000
1000
0001
1000
0000
,
0010
0100
0001
0000
1000
0100
0010
0000
,
0001
0100
1000
0100
0001
0010
0100
1000
,
0001
0000
0101
0000
0001
0100
0001
0000
,
1000
0000
1010
0000
1000
0010
1000
0000
,
0100
0000
0110
0000
0100
0010
0100
0000
,
0010
0000
0011
0000
0010
0001
1000
0001
,
0100
0000
0101
0000
0001
0100
1000
0000
,
0100
0000
1100
0000
1000
0100
0010
0000
,
0002
0000
1000
0000
1000
0000
1000
0003
,
1000
0000
0010
1000
0010
1000
0010
0100
,
0002
0023
2030
3020
,
0032
0000
0013
0100
1000
0100
0010
0001
,
2000
3020
0032
0023
,
2030
0000
3001
0010
0100
1000
0010
0100
,
0002
0203
0320
2030
,
3002
0000
1003
0000
0101
0000
1100
0001
,
2000
3200
0320
0032
,
2003
0000
3010
0100
0001
1000
0100
0010
,
0001
0100
0001
0100
0001
0100
0001
0100
,
0010
1000
0010
1000
0010
1000
0001
0001
,
1000
0100
1000
0100
1000
0100
1000
0100
,
0010
0001
0010
0001
0010
0001
1000
1000
,
0001
1000
0001
1000
0001
1000
0001
1000
,
0010
0110
1001
0110
,
1000
0001
1000
0001
0100
0010
0100
0010
,
1000
0001
1000
0001
0010
0100
0010
0100
,
1000
0000
0000
0000
0101
0000
0000
0000
0001
0010
0000
0000
0100
0000
1000
0000
,
0100
0000
0001
0000
0100
0000
0000
0000
0010
0000
0001
0000
1000
0100
0000
0000
,
0001
0000
0000
0000
0101
0000
0000
0000
0010
0001
0000
0000
1000
0000
0001
0000
,
1000
0000
0010
0000
0100
0000
0000
0000
0001
0000
0010
0000
0100
1000
0000
0000
,
1001
0000
0000
0000
1100
0000
0000
0000
1000
0100
0000
0000
0001
0000
0100
0000
,
1000
0000
0010
0000
0100
0000
0000
0000
1000
0000
0100
0000
0010
1000
0000
0000
,
1010
0000
0000
0000
0101
0000
0000
0000
0001
0010
0000
0000
0100
0000
0010
0000
,
0001
0000
1000
0000
0010
0000
0000
0000
0100
0000
0010
0000
1000
0001
1000
0001
;
