#TITLE:Caribbean Frenzy;
#SUBTITLE:;
#ARTIST:oo39.com;
#TITLETRANSLIT:;
#SUBTITLETRANSLIT:;
#ARTISTTRANSLIT:;
#GENRE:;
#CREDIT:;
#MUSIC:Caribbean Frenzy.mp3;
#BANNER:;
#BACKGROUND:;
#CDTITLE:;
#SAMPLESTART:6.812;
#SAMPLELENGTH:14.085;
#SELECTABLE:YES;
#OFFSET:1.666;
#BPMS:0.000=138.000;
#STOPS:;
#BGCHANGES:;
#FGCHANGES:;

//--------------- dance-single - OrangeRight ----------------
#NOTES:
     dance-single:
     OrangeRight:
     Beginner:
     2:
     0,0,0,0,0:
0000
0000
0000
0000
,
0000
0000
0000
0000
,
0000
0000
0000
0000
,
0000
0000
0000
0000
,
0000
0000
0000
0000
,
1000
0000
0001
0000
,
0000
0000
1000
0000
,
0100
0000
0010
0000
,
0000
0000
0010
0000
,
0001
0000
1000
0000
,
0000
0000
0001
0000
,
0010
0000
0100
0000
,
0000
0000
1000
0000
,
0001
0000
0001
0000
,
0000
0000
1000
0000
,
0010
0000
0100
0000
,
0000
0000
0001
0000
,
1000
0000
1000
0000
,
0000
0000
0001
0000
,
0100
0000
0010
0000
,
0000
0000
1000
0000
,
0010
0000
0000
0000
,
1000
0000
0000
0000
,
0001
0000
0000
0000
,
0010
0000
0000
0000
,
0001
0000
1000
0000
,
0001
0000
1000
0000
,
2002
0000
0000
0000
,
3003
0000
0000
0000
,
1000
0000
0001
0000
,
0000
0000
1000
0000
,
0010
0000
0100
0000
,
0000
0000
0100
0000
,
0001
0000
1000
0000
,
0000
0000
0001
0000
,
0100
0000
0010
0000
,
0000
0000
0010
0000
,
1000
0000
1000
0000
,
0000
0000
0100
0000
,
1000
0000
0010
0000
,
0000
0000
0100
0000
,
0001
0000
0001
0000
,
0000
0000
0010
0000
,
0001
0000
0100
0000
,
0000
0000
0010
0000
,
1000
0000
0000
0000
,
0001
0000
0100
0000
,
0001
0000
0000
0000
,
1000
0000
0100
0000
,
1000
0000
0000
0000
,
0001
0000
0100
0000
,
0001
0000
0000
0000
,
1000
0000
0010
0000
,
0100
0000
0000
0000
,
0001
0000
0000
0000
,
1000
0000
0000
0000
,
0010
0000
0000
0000
,
1000
0000
0001
0000
,
1000
0000
0001
0000
,
2002
0000
0000
0000
,
3003
0000
0000
0000
,
1000
0000
0100
0000
,
0010
0000
0001
0000
,
0100
0000
0100
0000
,
0000
0000
0100
0000
,
0001
0000
0010
0000
,
0100
0000
1000
0000
,
0010
0000
0010
0000
,
0000
0000
0010
0000
,
1000
0000
0000
0000
,
0001
0001
0000
0000
,
1000
1000
1000
0000
,
1001
0000
1001
0000
;

//--------------- dance-single - OrangeRight ----------------
#NOTES:
     dance-single:
     OrangeRight:
     Easy:
     4:
     0,0,0,0,0:
0000
0000
0000
0000
,
0000
0000
0000
0000
,
0000
0000
0000
0000
,
0000
0000
0000
0000
,
0000
0000
0000
0000
,
1000
0001
2000
3000
,
0001
0100
0001
0100
,
0002
0000
2003
0000
,
3001
0010
0001
0000
,
0001
1000
0002
0003
,
1000
0100
1000
0100
,
2000
0000
3002
0000
,
1003
0010
1000
0000
,
1000
0100
2000
3000
,
0001
0100
0010
1000
,
0002
0000
2003
0000
,
3001
1000
0001
0000
,
0001
0010
0002
0003
,
1000
0010
0100
0001
,
2000
0000
3002
0000
,
1003
0100
0010
0000
,
0001
0000
0100
0001
,
1000
0000
0100
0000
,
1000
0000
0100
1000
,
0001
0000
0010
0000
,
0001
0100
0001
0000
,
1000
0001
1000
0001
,
2002
0000
0000
3003
,
0000
1000
0001
0000
,
1000
0100
0020
0030
,
0001
0100
0010
0100
,
0002
0000
2003
0000
,
3001
1000
0001
0000
,
0001
0010
0200
0300
,
1000
0100
0010
0100
,
2000
0000
3002
0000
,
1003
0001
1000
0000
,
0010
1000
0200
0300
,
1000
0001
0100
0001
,
0020
0000
0230
0000
,
1300
1000
0001
0001
,
0010
0001
0200
0300
,
0001
1000
0010
1000
,
0200
0000
0320
0000
,
0031
1000
1000
0001
,
2000
0000
3100
0010
,
0001
0100
0010
0100
,
0001
1000
0002
0003
,
1000
0100
0010
0001
,
0200
0000
0310
1000
,
0100
0010
0001
1000
,
0010
0100
0020
0030
,
1000
0100
0010
0001
,
2000
3000
0010
0100
,
0002
0003
0010
0100
,
2000
3000
0001
1000
,
0200
0300
0010
0001
,
0200
0300
0020
0030
,
1000
0001
1000
0001
,
2002
0000
0000
3003
,
0000
1000
0001
0000
,
1000
0001
0020
0000
,
0130
1000
0001
0100
,
0020
0000
0230
0000
,
0301
0010
0100
1000
,
0001
1000
2002
3003
,
0001
0100
0010
1000
,
0002
0000
2003
0000
,
3001
1000
1000
0001
,
1001
0000
0000
0000
,
0110
0110
0000
0000
,
1001
1001
1001
0000
,
1001
0110
1001
0000
;

//--------------- dance-single - OrangeRight ----------------
#NOTES:
     dance-single:
     OrangeRight:
     Medium:
     9:
     0,0,0,0,0:
0000
0000
0000
0000
,
0000
0000
0000
0000
,
0000
0000
0000
0000
,
0000
0000
0000
0000
,
0000
0000
0000
0000
0000
0000
0000
0001
,
1000
0000
0000
0001
0000
0000
2000
0000
0100
0000
0000
0000
3100
0000
0000
0000
,
0100
1000
0100
1000
0020
0000
0230
0000
,
0302
0000
0000
2000
0000
0000
3003
0000
,
0001
0010
0100
1000
0000
0010
0000
0100
,
0001
0000
0000
1000
0000
0000
0002
0000
0010
0000
0000
0000
0013
0000
0000
0000
,
0010
0001
0010
0001
0200
0000
0320
0000
,
2030
0000
0000
0002
0000
0000
3003
0000
,
1000
0100
0010
0000
0001
0100
0010
0000
,
1000
0000
0000
0100
0000
0000
2000
0000
0001
0000
0000
0000
3001
0000
0000
0000
,
0001
0100
0001
0100
0020
0000
2030
0000
,
3200
0000
0000
0020
0000
0000
0330
0000
,
0010
0001
0010
0000
0100
1000
0100
0000
,
1000
0000
0000
0010
0000
0000
2000
0000
0001
0000
0000
0000
3001
0000
0000
0000
,
1000
0100
1000
0100
0020
0000
0032
0000
,
0203
0000
0000
0020
0000
0000
0330
0000
,
0001
1000
0000
1000
0000
0000
0000
0000
1000
0001
0000
0001
0000
0000
0000
0000
,
2000
0000
3010
0020
0000
0030
0200
0000
,
0302
0000
0013
0020
0000
0030
0100
1000
,
0002
0000
0103
0200
0000
0300
0010
1000
,
0020
0000
0130
0200
0000
0300
0002
0000
,
1003
0100
1000
0001
0000
0100
0001
0000
,
1000
0000
0000
0010
0000
0000
0100
0000
0010
0000
0000
0000
0110
0000
0000
0000
,
2002
0000
0000
3003
,
0000
1000
0001
0100
0010
0000
0110
0000
,
1000
0000
0000
0010
0000
0000
0200
0000
0001
0000
0000
0000
0301
0000
0000
0000
,
0001
0010
0001
0010
0200
0000
2300
0000
,
3002
0000
0000
0200
0000
0000
0303
0000
,
0001
0100
0010
2000
0000
3002
0000
1003
,
0001
0000
0000
0010
0000
0000
0200
0000
1000
0000
0000
0000
1300
0000
0000
0000
,
1000
0010
1000
0010
0200
0000
0302
0000
,
0023
0000
0000
0200
0000
0000
0330
0000
,
0010
0100
1000
0000
0010
0100
0001
0000
,
1000
0000
0000
0001
0000
0000
0200
0000
0001
0000
0000
0000
0301
0000
0000
0000
,
0100
0001
0010
0001
2000
0000
3002
0000
,
0023
0000
0000
0002
0000
0000
0033
0000
,
0001
0100
0010
0000
1000
0100
0010
0000
,
0001
0000
0000
1000
0000
0000
0200
0000
1000
0000
0000
0000
1300
0000
0000
0000
,
0100
1000
0010
1000
0002
0000
2003
0000
,
3020
0000
0000
2000
0000
0000
3030
0000
,
1000
0010
0000
0010
0000
0000
0000
0000
0100
0001
0000
0001
0000
0000
0000
0000
,
1000
0001
1000
0001
1000
0010
0000
0010
,
0100
0000
0100
0001
0000
0001
1000
0100
,
0010
0000
0000
0001
0000
0000
0200
0000
0000
0000
0000
0000
0301
0000
0100
0000
,
0002
0000
1003
0100
0000
0010
0001
0010
,
0001
1000
0001
1000
0001
0100
0000
0100
,
0010
0000
0010
1000
0000
0001
1000
0001
,
0010
0000
0000
0100
0000
0000
2000
0000
0000
0000
0000
0000
3001
0000
1000
0000
,
0001
0100
0010
1000
0100
0010
0100
0000
,
2000
0000
3001
0002
0000
0003
0200
0000
,
0302
0000
1003
2000
0000
3000
0100
1000
,
0020
0000
0130
0200
0000
0300
0001
1000
,
0002
0000
0013
0020
0000
0030
0200
0000
,
1300
0001
0100
0002
0000
1003
0100
0000
,
1000
0000
0000
0001
0000
0000
1000
0000
0010
0000
0100
0000
0010
0000
0000
0000
,
1000
0100
1000
0010
0100
0001
1000
0000
,
0000
0001
1000
0100
0010
0000
0110
0000
,
0001
0000
0000
0100
0000
0000
0010
0000
1000
0000
0100
0000
1000
0000
0000
0000
,
0010
0100
0001
0010
0200
0000
2300
0000
,
3002
0000
0000
0200
0000
0000
0303
0000
,
0001
0010
0100
2000
0000
3020
0000
0130
,
0001
0000
0000
0010
0000
0000
0100
0000
1000
0000
0010
0000
1000
0000
0000
0000
,
0010
0100
0001
1000
0002
0000
2003
0000
,
3200
0000
0000
0020
0000
0000
0330
0000
,
0010
0100
0000
0100
0000
0000
0000
0000
1000
0001
0000
0001
0000
0000
0000
0000
,
1001
1001
0000
0000
0000
0000
0000
0000
,
0110
0000
0000
0110
0000
0000
0000
0000
0000
0000
0000
0000
0000
0000
0000
0000
,
1001
0000
0000
1001
0000
0000
1001
0000
0000
0000
0000
0000
0000
0000
0000
0000
,
0100
0000
0010
0000
1000
0001
0000
1001
0000
0000
0000
0000
0000
0000
0000
0000
;

//--------------- dance-single - OrangeRight ----------------
#NOTES:
     dance-single:
     OrangeRight:
     Hard:
     13:
     0,0,0,0,0:
0000
0000
0000
0000
,
0000
0000
0000
0000
,
0000
0000
0000
0000
,
0000
0000
0000
0000
,
0000
0000
0000
0000
0000
0000
0000
0100
,
2000
0000
0000
3002
0000
0000
0203
0000
0010
0000
0000
0000
0310
0000
0000
0000
,
0010
1000
0100
0010
0002
0000
0203
0000
,
2300
0000
3100
0002
0000
0013
0100
1000
,
0010
0100
0001
0011
0000
0101
0000
1000
,
0002
0000
0000
2003
0000
0000
3020
0000
0100
0000
0000
0000
0130
0000
0000
0000
,
0100
0001
0010
0100
2000
0000
3020
0000
,
0032
0000
0013
2000
0000
3100
0010
0001
,
0100
0000
0000
0010
0000
0000
1000
0000
0000
0000
0000
0000
0001
0000
0010
0000
0100
0000
1000
0000
0000
0001
0000
0000
,
2000
0000
0000
3002
0000
0000
0203
0000
0010
0000
0000
0000
0310
0000
0000
0000
,
0010
1000
0001
1000
0200
0000
0302
0000
,
0203
0000
1300
0020
0000
0031
0010
1000
,
0100
0010
0001
0101
0000
0011
0000
1000
,
0002
0000
0000
2003
0000
0000
3020
0000
0100
0000
0000
0000
0130
0000
0000
0000
,
0100
0001
1000
0001
0020
0000
2030
0000
,
3020
0000
0031
0200
0000
0310
1000
0001
,
0010
0100
0000
0100
1000
0000
0000
0000
0010
0100
0000
0100
0001
0000
0000
0000
,
2001
0000
3100
0120
0000
0031
1000
0001
,
0102
0000
0000
0000
1003
0000
2100
0000
0000
0000
3001
1000
0001
1000
0001
0000
,
1002
0000
0103
0120
0000
1030
0001
1000
,
2010
0000
0000
0000
3100
0000
0012
0000
0000
0000
0103
0001
0100
0001
0100
0000
,
0001
0010
0001
0000
1000
0000
0010
1000
0010
0000
0100
0000
0001
0000
1000
0000
,
0100
0000
0000
0010
0000
0000
0100
0000
1000
0000
0000
0001
1000
0001
1000
0000
,
0001
0100
1000
0100
0001
0010
1000
0010
,
0000
0110
0110
1001
1001
0000
1010
0000
,
0010
0000
1000
0100
1000
0000
0020
0000
0100
0000
0000
0000
0130
0000
0000
0000
,
0001
0100
0010
0100
0101
0000
1010
0000
,
1002
0000
0103
2000
0000
3100
0001
1000
,
0100
0000
0000
0010
0100
0000
1000
0000
0010
0000
0100
0000
0001
0000
0000
0000
,
0010
0000
0001
0100
0001
0000
0020
0000
0100
0000
0000
0000
0130
0000
0000
0000
,
1000
0100
0010
0100
1100
0000
0011
0000
,
2001
0000
3100
0002
0000
0103
1000
0001
,
0100
0000
0000
0010
0000
0000
1000
0000
0000
0000
0000
0000
1000
0000
0100
0000
0010
0000
0001
0000
0000
1000
0000
0000
,
0001
0000
0100
0010
0100
0000
0001
0000
0010
0000
0100
0000
1000
0000
0010
0000
,
0100
0001
0100
1000
1100
0000
0101
0000
,
2001
0000
3010
0002
0000
0013
1000
0100
,
1100
0000
0000
1010
0000
0000
0100
0000
0101
0000
0000
0011
0000
0000
0100
0000
,
1000
0000
0010
0100
0010
0000
1000
0000
0100
0000
0010
0000
0001
0000
0100
0000
,
0010
1000
0010
0001
0011
0000
1010
0000
,
1002
0000
0013
2000
0000
3010
0001
1000
,
0100
0010
0000
0010
0001
0000
0000
0000
0100
0010
0000
0010
1000
0000
0000
0000
,
1000
0100
1000
0100
1000
0100
1000
0100
1000
0000
0020
0000
0000
0000
0031
0000
,
0020
0000
1030
0200
0000
0310
0001
0100
,
0010
0000
0000
1000
0000
0000
0001
1000
0001
1000
0001
1000
0001
0000
0100
0000
,
0010
0000
1000
0100
1000
0100
0010
0000
0001
0000
1000
0000
0010
0000
0100
0000
,
0001
0010
0001
0010
0001
0010
0001
0010
0001
0000
0200
0000
0000
0000
1300
0000
,
0200
0000
0301
0020
0000
0130
1000
0010
,
0100
0000
0000
0001
0000
0000
1000
0100
1000
0100
1000
0100
1000
0000
0010
0000
,
0100
0000
0001
0010
0100
1000
0001
0000
1000
0000
0001
1000
0001
1000
0001
0000
,
1001
0000
0000
1000
0100
0000
0120
0000
0000
0000
0031
0000
0100
0000
0010
0000
,
1010
0000
0000
1000
0100
0000
2100
0000
0000
0000
3001
1000
0001
1000
0001
0000
,
1001
0000
0000
0001
0100
0000
0120
0000
0000
0000
1030
0000
0100
0000
0010
0000
,
0011
0000
0000
0001
1000
0000
1200
0000
0000
0000
1300
0010
0100
0001
1000
0000
,
0001
0010
0001
0000
0100
0000
0010
0100
0010
0000
1000
0000
0001
1000
0001
0000
,
1000
0000
0000
0001
0000
0000
0100
0000
0010
0000
0000
1000
0001
1000
0001
0000
,
1000
0100
0001
0100
1000
0010
0001
0010
,
0000
1010
0110
0101
1001
0000
1100
0000
,
1000
0000
0100
1000
0100
0000
0001
0000
0100
0000
1000
0000
0100
0000
0010
0000
,
0001
0000
0100
0000
1000
0000
0100
0000
0001
0100
0001
0000
1000
0001
1000
0000
,
0100
1000
0100
0000
1000
0000
0010
0100
0010
0100
0001
0000
0010
0000
0100
0000
,
1100
0000
0000
0011
0000
0000
1000
0000
1010
0000
0000
0101
0000
0000
1000
0000
,
0001
0000
0100
0001
0100
0000
1000
0000
0100
0000
0001
0000
0100
0000
0010
0000
,
1000
0000
0100
0000
0001
0000
0100
0000
1000
0100
1000
0000
0001
1000
0001
0000
,
1000
0010
1000
0000
0010
0000
0100
0001
0100
0000
0001
0000
0010
0100
1000
0000
,
0010
1000
0000
1000
0100
0000
0010
0000
0001
0100
0000
0010
1000
0000
0001
0000
,
1001
0000
1001
0000
0000
0000
0000
0000
0100
0010
0100
0010
0100
0000
0000
0000
,
1001
0000
1000
0001
0000
0000
0000
0000
0010
0000
0001
0000
0100
0000
0000
0000
,
0110
0000
0000
1001
0000
0000
0110
0000
0000
0000
0010
0000
1000
0000
0000
0000
,
1001
0000
0110
0000
0001
1000
0000
1001
0000
0000
0000
0000
0000
0000
0000
0000
;

//--------------- dance-double - OrangeRight ----------------
#NOTES:
     dance-double:
     OrangeRight:
     Easy:
     5:
     0,0,0,0,0:
00000000
00000000
00000000
00000000
,
00000000
00000000
00000000
00000000
,
00000000
00000000
00000000
00000000
,
00000000
00000000
00000000
00000000
,
00000000
00000000
00000000
00000000
,
10000000
00010000
02000000
03000000
,
00010000
00100000
00001000
00010000
,
00002000
00003000
00020000
00030000
,
00000100
00001000
00000100
00001000
,
00000001
00001000
00000020
00000030
,
00001000
00000100
00010000
00001000
,
00020000
00030000
00002000
00003000
,
00100000
00010000
10000000
00010000
,
10000000
01000000
20000000
30000000
,
00100000
01000000
00010000
00100000
,
00002000
00003000
00020000
00030000
,
00000010
00001000
00000010
00001000
,
00000001
00000010
00000002
00000003
,
00000100
00000010
00001000
00000100
,
00020000
00030000
00002000
00003000
,
00200000
00300000
00020000
00030000
,
20000000
30000000
01000000
10000000
,
00200000
00300000
01000000
00010000
,
00200000
00300000
00001000
00010000
,
00000200
00000300
00001000
00000100
,
00000010
00000001
00000100
00000010
,
00001000
00001000
00000001
00000001
,
00002002
00000000
00000000
00003003
,
00000000
00001000
00000001
00000000
,
00000001
00001000
00000200
00000300
,
00010000
00001000
00100000
00010000
,
02000000
03000000
00200000
00300000
,
01000000
00100000
01000000
00100000
,
10000000
00010000
00200000
00300000
,
00001000
00010000
00000100
00001000
,
00000020
00000030
00000200
00000300
,
00000001
00001000
00000010
00000100
,
00000001
00000010
00000200
00000300
,
00001000
00000100
00010000
00001000
,
00200000
00300000
00020000
00030000
,
10000000
10000000
00010000
00010000
,
10000000
01000000
00200000
00300000
,
00010000
00100000
00001000
00010000
,
00000200
00000300
00002000
00003000
,
00000110
00000000
00001001
00000000
,
00002000
00000000
00003100
00010000
,
00001000
00100000
00010000
01000000
,
00100000
10000000
00020000
00030000
,
02000000
03000000
00010000
10000000
,
00020000
00000000
00130000
00001000
,
00010000
00000100
00001000
00000001
,
00000100
00000010
00002000
00003000
,
00000002
00000003
00002000
00003000
,
00000002
00000003
00000010
00000001
,
00000200
00000300
00000010
00001000
,
00000200
00000300
00010000
00001000
,
00200000
00300000
00010000
00100000
,
01000000
10000000
00100000
01000000
,
00010000
00010000
10000000
10000000
,
20020000
00000000
00000000
30030000
,
00000000
10000000
00010000
00000000
,
00010000
01000000
00020000
00030000
,
00100000
00001000
00010000
00000100
,
00002000
00003000
00000002
00000003
,
00001000
00001000
00000001
00000001
,
00001000
00000010
00002000
00003000
,
00000100
00010000
00001000
00100000
,
00020000
00030000
20000000
30000000
,
01100000
00000000
10010000
00000000
,
10010000
00000000
00000000
00000000
,
00011000
00011000
00000000
00000000
,
00001001
00001001
00001001
00000000
,
00000110
00001001
00000110
00000000
;

//--------------- dance-double - OrangeRight ----------------
#NOTES:
     dance-double:
     OrangeRight:
     Medium:
     10:
     0,0,0,0,0:
00000000
00000000
00000000
00000000
,
00000000
00000000
00000000
00000000
,
00000000
00000000
00000000
00000000
,
00000000
00000000
00000000
00000000
,
00000000
00000000
00000000
00000000
00000000
00000000
00000000
10000000
,
00010000
00000000
00000000
01000000
00000000
00000000
00020000
00000000
00100000
00000000
00000000
00000000
00130000
00000000
00000000
00000000
,
00010000
00100000
00001000
00100000
00020000
00000000
02030000
00000000
,
03002000
00000000
00000000
00020000
00000000
00000000
00033000
00000000
,
00001000
00010000
00000100
00001000
00000000
00000010
00000000
00000100
,
00000001
00000000
00000000
00000010
00000000
00000000
00000002
00000000
00000100
00000000
00000000
00000000
00000103
00000000
00000000
00000000
,
00000001
00000100
00000010
00001000
00000200
00000000
00000320
00000000
,
00000032
00000000
00000000
00002000
00000000
00000000
00003003
00000000
,
00001000
00000001
00000100
00000000
00000001
00001000
00000100
00000000
,
00001000
00000000
00000000
00000100
00000000
00000000
00002000
00000000
00000010
00000000
00000000
00000000
00003010
00000000
00000000
00000000
,
00001000
00000010
00010000
00000010
00002000
00000000
00003200
00000000
,
00020300
00000000
00000000
00002000
00000000
00000000
00033000
00000000
,
00010000
00001000
01000000
00010000
00000000
00100000
00000000
01000000
,
10000000
00000000
00000000
00100000
00000000
00000000
20000000
00000000
01000000
00000000
00000000
00000000
31000000
00000000
00000000
00000000
,
10000000
01000000
00100000
00010000
02000000
00000000
03200000
00000000
,
20300000
00000000
00000000
00020000
00000000
00000000
30030000
00000000
,
10000000
01000000
00000000
01000000
00000000
00000000
00000000
00000000
00100000
00010000
00000000
00010000
00000000
00000000
00000000
00000000
,
20000000
00000000
30100000
00200000
00000000
00000000
02300000
00000000
,
03020000
00000000
00130000
00200000
00000000
00000000
00301000
00010000
,
00002000
00000000
00013000
00020000
00000000
00000000
00030100
00001000
,
00000200
00000000
00001000
00002300
00000000
00000000
00003002
00000000
,
00001003
00000010
00001000
00000001
00000000
00000010
00000001
00000100
,
00000010
00000000
00000000
00001000
00000000
00000000
00000100
00000000
00000010
00000000
00000000
00000000
00000110
00000000
00000000
00000000
,
00002002
00000000
00000000
00003003
,
00000000
00000001
00001000
00000010
00000100
00000000
00000101
00000000
,
00000001
00000000
00000000
00000010
00000000
00000000
00000002
00000000
00000100
00000000
00000000
00000000
00000103
00000000
00000000
00000000
,
00000001
00000100
00000010
00001000
00000200
00000000
00020300
00000000
,
00032000
00000000
00000000
00020000
00000000
00000000
00033000
00000000
,
00001000
00100000
00010000
00100000
00000000
00010000
00000000
01000000
,
00100000
00000000
00000000
10000000
00000000
00000000
02000000
00000000
00100000
00000000
00000000
00000000
03100000
00000000
00000000
00000000
,
00100000
01000000
10000000
00010000
02000000
00000000
03200000
00000000
,
20300000
00000000
00000000
00020000
00000000
00000000
30030000
00000000
,
10000000
00010000
00100000
00000000
00010000
10000000
01000000
00000000
,
10000000
00000000
00000000
00010000
00000000
00000000
00200000
00000000
01000000
00000000
00000000
00000000
01300000
00000000
00000000
00000000
,
01000000
10000000
00100000
01000000
00020000
00000000
00230000
00000000
,
00302000
00000000
00000000
00020000
00000000
00000000
00033000
00000000
,
00001000
00010000
00000100
00000000
00001000
00000100
00000010
00000000
,
00000001
00000000
00000000
00001000
00000000
00000000
00000020
00000000
00000100
00000000
00000000
00000000
00000130
00000000
00000000
00000000
,
00000100
00000001
00000010
00000100
00002000
00000000
00003020
00000000
,
00020030
00000000
00000000
00002000
00000000
00000000
00033000
00000000
,
00001000
00100000
00000000
00100000
00000000
00000000
00000000
00000000
00010000
01000000
00000000
01000000
00000000
00000000
00000000
00000000
,
00010000
00100000
00010000
00100000
00010000
02000000
00000000
03001000
,
00020000
00000000
00030100
00002000
00000000
00003001
00001000
00000001
,
00000100
00000000
00000000
00000010
00000000
00000000
00001000
00000000
00000001
00000000
00001000
00000000
00000001
00000000
00000010
00000000
,
00000200
00000000
00001300
00000020
00000000
00000130
00000001
00001000
,
00000001
00000010
00000001
00000010
00000001
00000200
00000000
00000310
,
00002000
00000000
00003100
00020000
00000000
00031000
00100000
00010000
,
01000000
00000000
00000000
00100000
00000000
00000000
10000000
00000000
00010000
00000000
10000000
00000000
00010000
00000000
00100000
00000000
,
01000000
10000000
00100000
01000000
00010000
10000000
00010000
00000000
,
10020000
00000000
01030000
02000000
00000000
00000000
03002000
00000000
,
00023000
00000000
00030100
00000200
00000000
00000000
00001300
00000001
,
00002001
00000000
00003010
00000020
00000000
00000000
00010030
00001000
,
00012000
00000000
00103000
00200000
00000000
00000000
00310000
10000000
,
00010000
00100000
01000000
10000000
00100000
01000000
00010000
10000000
,
00100000
00000000
00000000
01000000
00000000
00000000
00100000
00000000
10000000
00000000
00000000
00000000
10010000
00000000
00000000
00000000
,
02200000
00000000
00000000
03300000
,
00000000
00100000
01000000
10000000
00010000
00000000
01010000
00000000
,
00010000
01000000
00010000
00100000
00010000
10000000
00010000
00100000
,
00001000
00010000
00000100
00001000
00000002
00000000
00002003
00000000
,
00003002
00000000
00000000
00000200
00000000
00000000
00000303
00000000
,
00000001
00000000
00000000
00000001
00000000
00000000
00000100
00000000
00000010
00000000
00000000
00001000
00000000
00000000
00000001
00000000
,
00001000
00000100
00001000
00000010
00001000
00000001
00001000
00000010
,
00001000
00000100
00010000
00001000
00200000
00000000
00320000
00000000
,
20030000
00000000
00000000
00200000
00000000
00000000
30300000
00000000
,
10000000
00010000
00000000
00010000
00000000
00000000
00000000
00000000
00100000
01000000
00000000
01000000
00000000
00000000
00000000
00000000
,
10010000
10010000
00000000
00000000
00000000
00000000
00000000
00000000
,
00011000
00000000
00000000
00011000
00000000
00000000
00000000
00000000
00000000
00000000
00000000
00000000
00000000
00000000
00000000
00000000
,
00001001
00000000
00000000
00001001
00000000
00000000
00001001
00000000
00000000
00000000
00000000
00000000
00000000
00000000
00000000
00000000
,
00000100
00000000
00000010
00000000
00000001
00001000
00000000
00001001
00000000
00000000
00000000
00000000
00000000
00000000
00000000
00000000
;

//--------------- dance-double - OrangeRight ----------------
#NOTES:
     dance-double:
     OrangeRight:
     Hard:
     13:
     0,0,0,0,0:
00000000
00000000
00000000
00000000
,
00000000
00000000
00000000
00000000
,
00000000
00000000
00000000
00000000
,
00000000
00000000
00000000
00000000
,
00000000
00000000
00000000
00000000
00000000
00000000
00000000
10000000
,
00020000
00000000
00000000
02030000
00000000
00000000
03002000
00000000
00010000
00000000
00000000
00000000
00013000
00000000
00000000
00000000
,
00010000
00000100
00001000
00000010
00000110
00000000
00000101
00000000
,
00000012
00000000
00000103
00000020
00000000
00001030
00000001
00000000
,
00001000
00000100
00001000
00000010
00000000
00000001
00000000
00000010
,
00002000
00000000
00000000
00003200
00000000
00000000
00020300
00000000
00001000
00000000
00000000
00000000
00031000
00000000
00000000
00000000
,
00001000
00100000
00010000
01000000
01100000
00000000
10100000
00000000
,
20010000
00000000
31000000
00200000
00000000
00310000
10000000
00000000
,
00010000
00000000
00000000
01000000
00000000
00000000
00010000
00000000
00000000
00000000
00000000
00000000
10000000
00000000
01000000
00000000
10000000
00000000
01000000
00000000
00000000
00000000
00000000
00000000
,
20000000
00000000
00000000
30200000
00000000
00000000
02300000
00000000
00010000
00000000
00000000
00000000
03010000
00000000
00000000
00000000
,
00010000
00100000
00001000
00010000
00011000
00000000
00010100
00000000
,
00002100
00000000
00003001
00000200
00000000
00000310
00001000
00000001
,
00001000
00000000
00000000
00000100
00000010
00000000
00000001
00000000
00000100
00000000
00000000
00000100
00000010
00000000
00001000
00000000
,
00000002
00000000
00000000
00000023
00000000
00000000
00000230
00000000
00001000
00000000
00000000
00000000
00001300
00000000
00000000
00000000
,
00001000
00000100
00010000
00001000
00011000
00000000
00101000
00000000
,
00120000
00000000
10030000
00200000
00000000
01300000
00010000
10000000
,
00010000
10000000
00000000
10000000
00010000
00000000
00000000
00000000
01000000
00100000
00000000
00100000
01000000
00000000
00000000
00000000
,
01200000
00000000
10300000
00020000
00000000
00130000
00002000
00000000
,
00023000
00000000
00030100
00002000
00000000
00003010
00000100
00000001
,
00000102
00000000
00001003
00000200
00000000
00010300
00001000
00010000
,
00012000
00000000
00103000
00020000
00000000
01030000
00100000
10000000
,
00010000
00100000
00010000
00000000
10000000
00000000
00010000
01000000
00010000
00000000
10000000
00000000
00100000
01000000
00100000
00000000
,
10000000
00000000
00000000
00010000
00000000
00000000
10000000
00000000
00010000
00000000
00000000
01000000
00100000
01000000
00100000
00000000
,
10000000
01000000
00010000
01000000
10000000
00100000
00010000
00100000
,
00000000
10100000
01100000
01010000
10010000
00000000
01100000
00000000
,
00100000
00000000
10000000
01000000
10000000
00000000
00200000
00000000
01000000
00000000
00000000
00000000
01300000
00000000
00000000
00000000
,
01000000
00010000
00100000
00001000
00020000
00000000
00030200
00000000
,
00002300
00000000
00003010
00000002
00000000
00000013
00001000
00000000
,
00000001
00000000
00000000
00001000
00000010
00000000
00000100
00000000
00000001
00000000
00000000
00000001
00001000
00000000
00000100
00000000
,
00000010
00000000
00000001
00000100
00000001
00000000
00000020
00000000
00000100
00000000
00000000
00000000
00000130
00000000
00000000
00000000
,
00000100
00001000
00000010
00010000
00002000
00000000
02003000
00000000
,
03020000
00000000
00130000
20000000
00000000
30100000
00010000
00000000
,
10000000
00000000
00000000
00010000
00000000
00000000
10000000
00000000
00000000
00000000
00000000
00000000
00100000
00000000
01000000
00000000
00100000
00000000
01000000
00000000
00000000
00000000
00000000
00000000
,
00010000
00000000
01000000
00100000
01000000
00000000
00020000
00000000
00100000
00000000
00000000
00000000
00130000
00000000
00000000
00000000
,
00010000
00100000
00001000
00010000
00011000
00000000
00010100
00000000
,
00002100
00000000
00003010
00000200
00000000
00000301
00001000
00000000
,
00001001
00000000
00000000
00000110
00000000
00000000
00001000
00000000
00001001
00000000
00000000
00000110
00000000
00000000
00000001
00000000
,
00001000
00000000
00000010
00000100
00000010
00000000
00002000
00000000
00000100
00000000
00000000
00000000
00003100
00000000
00000000
00000000
,
00001000
00000100
00010000
00001000
00011000
00000000
00101000
00000000
,
00120000
00000000
01030000
00200000
00000000
10300000
00010000
00000000
,
01000000
00001000
00000000
00001000
00010000
00000000
00000000
00000000
00010000
00000100
00000000
00000100
00001000
00000000
00000000
00000000
,
00000001
00000100
00000001
00000100
00000001
00000100
00000001
00000100
00000001
00000000
00002000
00000000
00000000
00000000
00003100
00000000
,
00020000
00000000
00031000
00200000
00000000
00310000
01000000
00100000
,
10000000
00000000
00000000
00010000
00000000
00000000
10000000
01000000
10000000
01000000
10000000
01000000
10000000
00000000
00100000
00000000
,
01000000
00000000
00010000
01000000
00010000
01000000
00010000
00000000
10000000
00000000
01000000
00000000
00100000
00000000
00010000
00000000
,
10000000
00100000
10000000
00100000
10000000
00100000
10000000
00100000
10000000
00000000
00020000
00000000
00000000
00000000
00130000
00000000
,
00002000
00000000
00013000
00000200
00000000
00001300
00000010
00000100
,
00000001
00000000
00000000
00001000
00000000
00000000
00000001
00001000
00000001
00001000
00000001
00001000
00000001
00000000
00000100
00000000
,
00000010
00000000
00001000
00000010
00000100
00000001
00001000
00000000
00000001
00000000
00001000
00000001
00001000
00000001
00001000
00000000
,
00002001
00000000
00003100
00020000
00000000
00031000
00200000
00000000
,
00320000
00000000
00000000
00000000
01030000
00000000
00200000
00000000
00000000
00000000
01300000
00100000
01000000
00100000
10000000
00000000
,
20100000
00000000
30010000
00200000
00000000
00301000
00010000
00001000
,
00021000
00000000
00000000
00000000
00030100
00000000
00002000
00000000
00000000
00000000
00003010
00000100
00000001
00000100
00000010
00000000
,
00001000
00000100
00001000
00000000
00000010
00000000
00000100
00000010
00000100
00000000
00000001
00000000
00001000
00000001
00001000
00000000
,
00000001
00000000
00000000
00001000
00000000
00000000
00000001
00000000
00001000
00000000
00000000
00000010
00000100
00000010
00000100
00000000
,
00000001
00000010
00001000
00000010
00000001
00000100
00001000
00000100
,
00000000
00000101
00000110
00001010
00001001
00000000
00000110
00000000
,
00000010
00000000
00001000
00000100
00001000
00000000
00000010
00000000
00010000
00000000
00001000
00000000
00100000
00000000
00010000
00000000
,
01000000
00000000
00100000
00000000
10000000
00000000
00010000
00000000
10000000
01000000
10000000
00000000
00010000
00100000
00010000
00000000
,
10000000
00100000
00010000
10000000
01000000
00010000
00100000
01000000
,
11000000
00000000
00000000
00110000
00000000
00000000
10000000
00000000
01010000
00000000
00000000
10100000
00000000
00000000
00010000
00000000
,
00100000
00000000
00010000
01000000
00010000
00000000
00100000
00000000
00001000
00000000
00010000
00000000
00000100
00000000
00001000
00000000
,
00000010
00000000
00000001
00000000
00000010
00000000
00001000
00000000
00000100
00000010
00000100
00000000
00001000
00000001
00001000
00000000
,
00000001
00000100
00001000
00000001
00000010
00001000
00000100
00010000
,
00001000
00100000
00000000
00100000
00010000
00000000
01000000
00000000
00010000
01000000
00000000
01000000
00001000
00000000
00010000
00000000
,
00010100
00000000
00010100
00000000
00000000
00000000
00000000
00000000
00010000
00001000
00010000
00001000
00010000
00000000
00000000
00000000
,
00101000
00000000
00100000
00001000
00000000
00000000
00000000
00000000
00001000
00000000
00100000
00000000
00010000
00000000
00000000
00000000
,
00110000
00000000
00000000
01010000
00000000
00000000
01001000
00000000
00001000
00000000
00010000
00000000
00000100
00000000
00000000
00000000
,
00001100
00000000
00000110
00000000
00000001
00001000
00000000
00001001
00000000
00000000
00000000
00000000
00000000
00000000
00000000
00000000
;
