#TITLE:CROSSROAD;
#SUBTITLE:-Right Story-;
#ARTIST:jun feat. TAHIRIH;
#TITLETRANSLIT:;
#SUBTITLETRANSLIT:;
#ARTISTTRANSLIT:;
#GENRE:;
#CREDIT:;
#MUSIC:CROSSROAD Right Story.ogg;
#BANNER:;
#BACKGROUND:;
#CDTITLE:;
#SAMPLESTART:48.421;
#SAMPLELENGTH:11.294;
#SELECTABLE:YES;
#OFFSET:0.991;
#BPMS:0.000=170.000;
#STOPS:;
#BGCHANGES:;
#FGCHANGES:;

//--------------- dance-single - about-blank ----------------
#NOTES:
     dance-single:
     about-blank:
     Beginner:
     3:
     0,0,0,0,0:
0000
0000
0000
0000
,
0000
0000
0000
0000
,
0000
0000
0000
0000
,
0000
0000
0000
0000
,
0000
0000
0000
0000
,
2000
0000
0000
0000
,
3000
0000
0000
0000
,
0002
0000
0000
0000
,
0003
0000
0000
0000
,
0010
0000
0000
0000
,
0010
0000
1000
0000
,
0001
0000
0001
0000
,
1000
0000
1000
0000
,
0110
0000
0000
0000
,
1001
0000
0000
0000
,
0110
0000
0000
0000
,
0001
0000
0001
0000
,
0200
0000
0000
0300
,
1000
0000
0000
0000
,
0100
0000
0000
0000
,
0001
0000
0000
0000
,
0010
0000
0000
0000
,
1000
0000
1000
0000
,
0001
0000
0001
0000
,
0010
0000
0010
0000
,
0100
0000
0100
0000
,
1000
0000
0000
0000
,
1001
0000
0000
0000
,
0001
0000
0000
0000
,
1001
0000
0000
0000
,
0010
0000
0000
0000
,
0010
0000
0100
0000
,
1000
0000
0000
0000
,
0200
0000
0000
0000
,
0310
0000
0010
0000
,
1001
0000
0000
0000
,
0001
0000
0100
0000
,
1000
0000
0100
0000
,
0001
0000
0001
0000
,
1000
0000
0000
0000
,
1000
0000
0100
0000
,
0001
0000
0100
0000
,
1000
0000
0010
0000
,
0110
0000
0000
0000
,
0100
0000
0001
0000
,
0010
0000
0100
0000
,
1000
0000
0001
0000
,
1001
0000
0000
0000
,
1000
0000
0010
0000
,
0100
0000
0001
0000
,
0100
0000
0010
0000
,
1001
0000
0000
0000
,
1000
0000
0000
0000
,
1001
0000
0000
0000
,
0001
0000
0000
0000
,
0100
0000
0100
0000
,
0010
0000
0010
0000
,
1000
0000
0001
0000
,
0010
0010
0010
0010
,
1000
0000
0000
0000
,
0001
0000
0001
0000
,
1000
0000
0010
0000
,
0100
0000
0000
0000
,
0001
0000
0010
0000
,
0100
0000
0000
0000
,
1000
0000
0100
0000
,
0010
0000
0010
0000
,
1001
0000
0000
0000
,
0001
0000
1000
0000
,
0010
0000
0100
0000
,
0001
0000
0000
0000
,
1000
0000
0100
0000
,
0010
0000
0000
0000
,
0001
0000
0010
0000
,
0110
0000
0000
0000
,
1001
0000
0000
0000
;

//--------------- dance-single - about-blank ----------------
#NOTES:
     dance-single:
     about-blank:
     Easy:
     5:
     0,0,0,0,0:
0000
0000
0000
0000
,
0000
0000
0000
0000
,
0000
0000
0000
0000
,
0000
0000
0000
0000
,
0000
0000
0000
0000
,
1000
0000
0000
0000
,
0001
0000
0000
0000
,
1000
0000
0001
0000
,
0110
0000
0110
0000
,
1000
0000
0000
0001
,
1000
0000
1000
0010
,
0100
0001
0010
0000
,
0100
1000
0010
0000
,
1001
0000
0001
0000
,
1000
1000
1000
0000
,
0110
0000
0001
0000
,
0010
0010
0010
0000
,
0220
0000
0000
0330
,
1000
0000
0000
0000
,
0100
0000
0000
0000
,
0001
0000
0000
0000
,
0010
0000
0010
0000
,
1000
0000
0000
0000
,
0001
0000
0100
0000
,
0010
0000
0010
0000
,
1000
0000
1000
0000
,
0001
0000
0010
0000
,
0100
1000
0001
0000
,
2000
0000
3001
0000
,
0002
0000
1003
0000
,
0001
0000
0010
0000
,
0100
1000
0100
0000
,
0010
0000
0001
0000
,
1000
0010
1000
0000
,
0001
1001
1000
1001
,
0010
0000
0000
0001
,
0010
0000
0010
1000
,
0100
0000
0100
0010
,
0001
1000
0010
0000
,
0001
0000
0001
1000
,
0100
0000
0100
0001
,
0010
0000
0010
0100
,
1000
1000
0001
0001
,
0010
0000
0010
0000
,
1000
0100
1000
0000
,
0001
0000
1000
0000
,
0010
0100
0001
0000
,
2000
0000
3200
0000
,
0302
0000
0023
0000
,
1030
0000
0001
0010
,
0100
0100
1000
1000
,
0001
0000
0010
0000
,
0000
0000
0010
0000
,
1000
0000
0010
0000
,
0000
0000
0010
0000
,
0002
0000
0000
0000
,
2003
0000
0000
0000
,
3020
0000
0230
0000
,
0301
0001
1000
1000
,
1001
0000
0000
0001
,
1000
0000
1000
0010
,
0100
0000
0100
0001
,
0010
0100
1000
0000
,
1000
0000
0100
0010
,
0100
0000
1000
0010
,
0100
0000
0001
0010
,
0100
0100
1000
1000
,
0001
0100
0001
0000
,
1000
0010
1000
0000
,
0001
0010
0100
1000
,
0010
0100
0001
0000
,
1100
0000
0011
0000
,
1000
0010
0100
1000
,
0100
0000
0001
0010
,
0100
0100
1000
0001
,
2002
0000
0000
0000
,
3003
0000
0000
0000
;

//--------------- dance-single - about-blank ----------------
#NOTES:
     dance-single:
     about-blank:
     Medium:
     9:
     0,0,0,0,0:
0000
0000
0000
0000
,
0000
0000
0000
0000
,
0000
0000
0000
0000
,
0000
0000
0000
0000
,
0000
0000
0000
0000
,
1000
0000
0000
0000
,
0001
0000
0000
0000
,
0100
0000
0010
0000
,
1100
0000
0011
0000
,
1000
0001
0001
0000
,
0100
0010
0010
1000
,
0001
0010
1000
0010
,
0001
1000
0010
0000
,
0101
0001
1100
1000
,
0010
0100
0010
0000
0010
0000
1000
0000
,
0011
1000
1010
0010
,
0100
0001
0100
0000
0010
1000
0010
0000
,
2002
0000
0000
3003
,
0001
0000
0000
0001
0000
0000
0000
0000
,
1000
0000
0000
1000
0000
0000
0000
0000
,
0100
0000
0000
0100
0000
0000
0000
0000
,
0010
0000
0000
0010
0000
0000
0001
0000
,
1001
0000
0000
0010
0000
0000
0000
0000
,
1001
0000
0000
0100
0000
0000
1000
0000
,
0001
0010
0100
1000
,
0001
0100
0001
0000
1000
0010
1000
0000
,
1001
1000
0100
0001
,
0010
0000
1000
0000
0100
0010
0100
0000
,
0010
0001
0100
0010
,
0100
0000
0001
0000
1000
0001
1000
0000
,
0011
0100
1000
0001
,
1000
0010
1000
0010
0100
0000
0001
0000
,
0100
1001
0010
1001
,
1000
0100
0010
0001
0100
0010
1000
0001
,
0200
0310
0020
0130
,
1001
1000
0100
0001
,
0010
0000
1000
0001
1000
0000
0001
0100
,
0010
1100
0010
0101
,
0001
0000
1000
0100
0010
0000
0001
0000
,
0201
1000
0010
0301
,
1200
0001
0010
1300
,
0001
0000
1000
0000
0010
0100
0010
0000
,
1010
1001
1100
0011
,
0001
1000
0010
0100
,
0001
0000
1000
0001
1000
0000
0001
0000
,
0010
0110
1000
1001
,
0001
0000
0100
0001
0100
0000
0001
0000
,
0010
1000
0100
0001
,
0010
0001
0100
1000
,
0001
1001
0100
1001
,
0011
0011
1100
1100
,
0001
0000
0010
0000
,
1000
0000
0100
0000
,
0001
0000
0100
0000
,
1000
0000
0010
0000
,
0002
1000
1003
0000
,
2000
0010
3010
0000
,
0200
0010
0310
0000
,
0011
1100
1010
0101
,
0001
0000
0001
0000
0001
0000
1000
0100
,
0001
0100
0100
0010
,
0100
1000
0010
0001
,
1000
0001
1000
0000
,
0101
1000
0010
0100
,
0001
0001
0010
0100
,
1000
0100
0010
0001
,
1000
0001
1000
0001
1000
0000
0110
0000
,
0001
0000
0001
0000
0010
0001
0100
0000
,
1000
0000
1000
0000
0010
1000
0100
0000
,
0001
0110
1000
0110
,
0001
0000
1000
0001
1000
0000
0010
0000
,
0100
0000
0100
0000
1000
0100
0001
0000
,
0010
0000
0010
0000
1000
0010
0001
0000
,
0100
1001
0010
1001
,
1000
0001
1000
0001
0100
0010
0100
0010
,
0220
0000
0000
0000
,
0330
0000
0000
0000
;

//--------------- dance-single - about-blank ----------------
#NOTES:
     dance-single:
     about-blank:
     Hard:
     10:
     0,0,0,0,0:
0000
0000
0000
0000
,
0000
0000
0000
0000
,
0000
0000
0000
0000
,
0000
0000
0000
0000
,
0000
0000
0000
0000
,
2000
0000
0000
0000
,
3002
0000
0000
0000
,
0023
0000
0230
0000
,
1300
0000
0000
1000
0000
0000
1000
0000
0001
0000
0000
0001
0000
0000
0001
0000
,
1010
0000
0010
0000
0100
0001
0100
0000
,
0001
0010
1000
0010
,
0001
0000
1000
0000
0010
0100
0010
0000
,
0110
0011
1100
0000
,
0001
0100
1000
0100
,
0001
0010
1000
0010
,
0001
1000
0001
0000
0010
0100
0010
0000
,
0001
0100
0010
1000
0100
0010
0001
0200
,
0020
0000
0000
0330
,
0201
0000
0000
0301
0000
0000
0000
0000
,
1200
0000
0000
1300
0000
0000
0000
0000
,
0021
0000
0000
0031
0000
0000
0000
0000
,
1020
0000
0000
1030
0000
0000
0000
0000
,
2002
0000
3000
1003
0001
0000
0000
0000
,
0220
0000
0030
0310
0100
0000
1000
0001
,
1000
0100
1000
0100
0010
0001
0010
0001
,
1000
1000
0010
0010
0100
0100
0001
0001
,
1000
0100
0010
0100
1000
0000
0001
0000
,
0100
0000
0001
0000
1000
0010
1000
0000
,
0001
0010
0100
0010
0001
0000
0100
0000
,
0001
0000
1000
0000
0010
1000
0100
0000
,
0001
0000
0100
1000
0100
0000
0010
0000
,
0011
1001
0101
1010
,
1000
0000
0100
1000
0100
0000
0010
0000
,
0110
0000
0001
2000
0002
0000
3003
0000
,
1001
0110
0110
1001
,
0011
0000
0100
0010
1000
0000
0001
0000
,
0100
0000
0010
1000
0001
0000
1000
0100
,
0010
0101
1000
0011
,
0001
0000
1000
0010
1000
0000
0101
0000
,
0020
0001
1000
0031
,
0200
1000
0001
1300
,
1010
0000
0001
0010
1000
0000
0010
0000
,
1100
0000
1000
0100
0010
0001
0100
0000
,
0110
0000
1000
0000
0100
0000
0010
0001
,
0010
0000
0100
0000
0100
0000
1000
0001
,
0100
0110
1000
0110
,
0001
0000
0010
0100
1000
0000
0010
0000
,
0200
1000
0320
0031
,
1000
0000
0100
0001
0010
0000
1001
0000
,
0021
0130
1020
0130
,
0001
1000
0001
1000
0010
0100
0010
0100
,
0002
0000
1000
0000
,
2003
0000
0001
0000
,
3020
0000
0100
0000
,
0230
0000
0010
0000
,
0301
0001
1000
1000
,
0010
0010
0100
0100
,
0001
0001
1000
1000
,
0110
0110
1001
1001
,
0001
0000
0000
0101
0000
0000
0001
0000
,
1000
0000
0000
1010
0000
0000
1000
0000
,
0001
0010
0100
1000
,
0010
0100
0001
1000
,
0100
0000
0000
0100
0010
0000
0100
0000
,
0010
0000
0000
0010
0001
0000
0010
0000
,
1000
1000
0010
0010
,
0001
1000
0001
1000
0001
1000
0001
0000
,
0011
1000
0010
0100
,
0001
0010
0100
0010
0001
0000
1000
0001
,
0100
1010
0100
0011
,
0001
0000
0010
0100
1000
0000
0010
0000
,
0002
0010
0013
1000
,
0100
0000
0010
0001
1000
0000
0010
0000
,
0100
1001
0010
1001
,
1000
0100
0010
0001
0100
0010
1000
0001
,
2002
0000
0000
0000
,
3003
0000
0000
0000
;

//--------------- dance-single - about-blank ----------------
#NOTES:
     dance-single:
     about-blank:
     Challenge:
     13:
     0,0,0,0,0:
0000
0000
0000
0000
,
0000
0000
0000
0000
,
0000
0000
0000
0000
,
0000
0000
0000
0000
,
0000
0000
0000
0000
,
0000
0000
1000
0000
0000
1000
0000
0000
0010
0000
0000
0010
0000
0000
0100
0000
,
0000
0000
0002
0003
,
2000
0000
0010
0000
3000
0010
0000
0000
0001
0000
0000
0001
0000
0000
1000
0000
,
0100
0000
0000
0100
0000
0000
0100
0000
0011
0000
0000
0011
0000
0000
0011
0000
,
1000
0000
0001
0000
0010
0001
0100
0000
,
1010
0000
0001
0000
0100
0001
1000
0000
,
1001
0000
0000
0000
0010
0000
0000
0000
0100
0000
0000
1000
0000
0000
0001
0000
,
0101
0000
0001
0010
0200
0000
1000
0000
,
0310
0001
0100
0000
0010
1000
0001
0000
,
1000
0100
0001
1000
0010
0000
0110
0000
,
0001
0100
0010
0000
0010
1000
0001
0000
,
0001
0010
0100
1000
0010
0100
0001
1000
,
0020
0100
0100
0130
,
1002
0000
0000
0013
0000
0000
0000
0000
,
2010
0000
0000
3100
0000
0000
0000
0000
,
0120
0000
0000
0031
0000
0000
0000
0000
,
0201
0000
0000
1300
0000
0000
0000
0000
,
0101
0000
1000
0020
0000
0000
0130
0000
,
0011
0000
0010
0100
1000
0000
0001
0000
,
0011
0020
1000
0031
,
1000
0000
0001
0000
1000
0000
0001
0000
0100
0010
0100
0010
0100
0010
0100
0000
,
1001
0000
0001
0100
0010
1000
0010
1000
,
0001
0010
0001
0010
0001
1000
0001
1000
,
0001
0010
0100
1000
0001
1000
0100
0010
,
0001
0100
1000
0100
0001
0010
0100
0000
,
1010
0000
1000
0001
0100
0000
0011
0000
,
2010
0001
0100
3001
,
0110
0000
1000
0100
0010
0000
0001
1000
,
0020
0001
0100
1030
,
1001
0110
0110
1001
,
0001
0010
1000
0010
0001
0100
1000
0100
,
0010
0001
0010
1000
0100
0001
0100
0010
,
0001
1000
0010
0100
0001
1000
0100
0010
,
0001
0100
0010
1000
0001
0010
0100
0000
,
1000
0010
0001
0010
1000
0100
0010
0001
,
1000
0001
0010
0001
0100
0001
0010
0100
,
2000
0010
3001
0110
,
1001
0000
1000
0001
0101
0000
1100
0000
,
0001
0100
0001
0001
1000
0010
0100
0001
,
0010
0100
1000
0100
0010
0001
1000
0010
,
0001
1000
0100
0010
0100
0001
0010
0001
,
1000
0001
0100
0010
1000
0100
0010
0001
,
2000
0001
0010
3010
,
1000
0010
0100
0010
0001
1000
0100
0010
,
1001
0000
0010
1000
0001
0000
0110
0000
,
0001
0010
0001
0000
1000
0100
1000
0000
0001
0010
0001
0000
1000
0100
1000
0000
,
1001
0000
0100
0001
1000
0000
0010
0000
,
0100
0100
0001
0010
,
0001
0000
0100
1000
0100
0000
0001
0000
,
1000
1000
0010
0100
,
0002
0010
0010
0013
,
2000
0100
0100
3100
,
0002
0103
2000
3010
,
1001
0000
0110
0000
1001
0000
0100
0010
,
1002
0000
0000
0000
0000
1003
0000
1000
,
0010
0000
0100
0001
0000
0000
0010
0001
,
0020
0000
0000
0000
0130
0000
0000
0000
1000
0000
0000
0001
0000
0000
0100
0000
,
0010
0000
0000
1000
0000
0000
0001
0000
0001
0000
0000
0000
0100
0000
0000
0000
,
2001
0000
0010
3010
,
0001
0000
1000
0100
0010
0000
1001
0000
,
0001
0100
0001
0100
0010
1000
0010
0100
,
0001
0010
0001
0010
0001
0010
0001
0010
0100
1000
0100
1000
0100
1000
0100
1000
,
0002
0000
0100
0000
0103
0010
0100
1000
,
0001
0010
1000
0010
1000
0100
0001
0100
,
0010
0001
0010
1000
0010
0001
0100
1000
,
0100
0001
0010
0100
1000
0000
0110
0000
,
0001
1000
0010
0001
0010
0100
0010
1000
,
0100
0001
0100
1000
0100
0010
0100
1000
,
0002
1003
0110
1001
,
0100
0001
0100
0000
0010
1000
0010
0000
0100
0001
0100
0000
0010
1000
0010
0000
,
2002
0000
0000
0000
,
0000
0000
0000
0000
,
3003
0000
0000
0000
;
