#TITLE:CLASSIC PARTY triathlon;
#SUBTITLE:;
#ARTIST:Hideyuki Ono;
#TITLETRANSLIT:;
#SUBTITLETRANSLIT:;
#ARTISTTRANSLIT:;
#GENRE:;
#CREDIT:;
#MUSIC:CLASSIC PARTY triathlon.ogg;
#BANNER:CLASSIC PARTY triathlon.png;
#BACKGROUND:;
#CDTITLE:;
#SAMPLESTART:87.335;
#SAMPLELENGTH:15.993;
#SELECTABLE:YES;
#OFFSET:-0.017;
#BPMS:0.000=173.494
,8.000=174.494
,9.000=175.494
,10.000=173.494
,11.000=187.494
,12.000=148.494
,12.500=177.494
,13.000=175.494
,14.000=170.494
,14.500=174.494
,16.500=170.494
,18.000=179.494
,19.000=170.494
,20.000=173.913
,20.500=175.913
,21.500=173.913
,23.500=170.913
,24.000=179.913
,24.500=173.913
,25.500=169.913
,26.000=175.913
,28.000=170.913
,29.000=171.913
,30.000=173.913
,31.000=175.913
,32.000=177.913
,33.000=169.913
,34.000=173.913
,35.000=173.300
,56.000=175.300
,80.000=172.249
,94.000=175.249
,96.000=182.249
,98.000=173.703
,114.000=174.545
,130.000=169.014
,134.000=152.542
,136.000=125.000
,138.000=54.054
,144.000=54.217
,146.000=53.892
,148.000=53.571
,150.000=52.326
,152.000=51.873
,154.000=52.174
,156.000=117.839
,164.000=118.421
,168.000=123.711
,176.000=123.924
,184.000=124.138
,188.000=125.436
,189.000=115.436
,190.000=112.436
,191.000=99.436
,192.000=152.784
,192.146=153.784
,195.000=163.636
,196.000=175.824
,212.000=176.039
,228.000=178.218
,244.000=180.000
;
#STOPS:;
#DISPLAYBPM:52.000:180.000;
#BGCHANGES:;
#FGCHANGES:;

//--------------- dance-single - blank ----------------
#NOTES:
     dance-single:
     blank:
     Beginner:
     5:
     0,0,0,0,0:
0000
0000
0000
0000
,
0000
0000
0000
0000
,
0000
0000
0000
0000
,
1000
1000
1000
0000
,
0100
0100
0100
0000
,
0010
0010
0010
0000
,
0001
0001
0001
0000
,
1001
0000
0000
0000
,
0100
0100
0100
0000
,
1001
0000
0000
0000
,
0010
0010
0010
0000
,
0110
0000
0000
0000
,
0110
0000
0000
0000
,
0110
0000
0110
0000
,
1000
0001
1000
0001
,
0000
0000
0000
0000
,
0000
0000
0000
0000
,
0000
0000
0000
0000
,
0000
0000
0000
0000
,
1000
0100
1000
0000
,
0001
0100
0001
0000
,
1000
0010
1000
0000
,
4004
3003
0000
0000
0001
0000
0000
0000
,
1000
0000
0010
0010
,
0010
0000
0100
0000
,
0100
0000
0001
0000
,
0001
0000
0010
0000
,
0010
0000
1000
0000
,
1000
0000
0001
0001
,
1001
0000
1000
1000
,
1001
0000
1000
0001
,
1000
0001
0100
0100
,
0100
0000
0000
0000
,
0001
0000
0010
0000
,
0100
0000
1000
0000
,
1000
0000
0001
0000
,
0001
0000
0100
0001
,
0010
0000
1000
1000
0001
0000
0010
0010
,
0100
0000
1000
1000
0001
0000
0001
0000
,
1001
0000
1001
0000
,
0110
0000
0110
0000
,
0001
0000
1000
1000
,
0100
0000
0001
0001
,
0010
0000
1000
1000
,
0100
0000
0001
0001
,
0010
0000
0001
1000
,
0001
0001
0100
0000
,
1000
1000
0010
0000
,
0000
0000
0000
0000
,
0001
0000
1000
0000
,
0010
0010
0010
0000
,
1000
0000
0100
0000
,
0001
0010
1000
0000
,
1001
0000
1001
0000
,
0100
0100
0100
0000
,
1001
0000
1001
0000
,
0010
0010
0010
0000
,
0110
0000
0110
0000
,
0001
0001
0001
0000
,
0110
0000
0110
0000
,
1000
1000
1000
0000
,
0001
0100
1000
0000
,
1000
0100
0001
0000
,
1001
0000
1001
0000
,
1001
1001
1001
0000
,
1000
0100
0001
0000
,
0001
0100
1000
0000
,
1001
0000
1001
0000
,
0110
0110
0110
0000
,
1001
0000
0000
0000
;

//--------------- dance-single - blank ----------------
#NOTES:
     dance-single:
     blank:
     Easy:
     11:
     0,0,0,0,0:
0000
0000
0000
0000
,
0000
0000
0000
0000
,
0000
0000
0000
0000
,
1000
1000
0001
0001
,
0010
0000
0010
0000
0100
1000
0001
0000
,
0100
1000
0100
0001
,
0101
0000
1100
0000
0001
1000
0001
0000
,
1000
0100
0010
0001
,
1000
0010
1000
0010
1000
0010
1000
0000
,
1100
0101
1010
0011
,
1000
0100
0010
0001
1000
0000
0000
0000
,
1001
0000
0000
0000
0001
0001
0000
0000
,
1001
0000
0000
0000
1000
1000
0000
0000
,
0010
0010
0000
0000
0100
0100
0000
0000
,
0001
1000
0001
1000
,
0020
0000
0000
0000
,
0230
0000
0000
0000
,
0302
0000
0000
0000
,
2003
0000
0001
3001
,
1100
0000
0101
0000
1000
0000
0010
1000
,
0001
0000
0101
0000
1100
0000
0001
1000
,
0100
1100
0110
0011
,
2002
0000
0000
3003
0001
0000
0110
0000
,
1000
0000
0110
0000
0001
1000
0001
1000
,
0001
0000
1000
1000
,
1000
0000
0100
0010
0001
0000
0011
0000
,
1100
0000
0000
0000
0001
1000
0001
0000
,
1000
0000
1010
0000
0001
0100
0001
0000
,
0010
0001
0010
0000
0100
0000
0110
0000
,
1001
0000
0100
0110
,
1001
0000
1000
0001
,
0010
0000
0100
0000
0010
0001
0100
0000
,
0010
1010
0101
0011
,
0001
0000
1000
0000
0001
0010
0001
0010
,
0100
1000
0100
1000
0002
0000
1003
0010
,
0100
0000
0001
0010
0001
0000
0010
0100
,
1000
0001
0000
1000
0001
0000
0000
0000
2000
0000
0000
0001
3001
0000
0000
0000
,
0002
0000
0000
1000
1003
0000
0010
0000
0220
0000
0330
0100
0010
0000
0000
0000
,
0220
0000
0330
0010
0100
0000
0001
0000
2002
0000
3003
1000
0001
0000
1000
0000
,
0001
0010
1000
0100
,
0001
0010
1000
0100
,
1001
0000
0000
0000
,
2000
0000
0000
3200
0000
0000
0301
0000
0000
0100
0000
0100
,
0010
0000
0000
0001
0000
0001
1000
0000
0000
0001
0000
0000
,
0022
0033
2200
3300
,
0001
0000
0000
1000
0000
0000
0010
0000
0010
0000
0010
0000
,
0200
0320
0030
0001
,
1000
0000
0000
0010
0000
0000
0100
0000
0000
0001
0000
1000
,
0000
0000
0000
0001
,
1000
0010
0100
0001
,
0010
0010
0010
0100
,
1000
0010
0100
0001
,
0011
1001
0101
0100
,
0010
0010
1000
0001
,
0011
0110
1100
0001
,
1000
0100
0010
0001
,
1010
0110
0101
1000
,
0100
0001
0100
0010
,
0011
0110
1100
0001
,
1000
0001
1000
0010
,
1010
0110
0101
0000
,
1000
1100
0022
0033
,
0001
0101
2020
3030
,
0001
1000
0001
0000
1000
0001
1000
0000
,
0110
0000
0110
0000
0100
0010
0100
0000
,
0001
0101
2020
3030
,
1000
1100
0022
0033
,
0001
1000
0001
0000
1000
0100
1000
0000
,
0010
0100
0010
0100
0001
1000
0001
1000
,
0001
0000
0000
0000
;

//--------------- dance-single - blank ----------------
#NOTES:
     dance-single:
     blank:
     Medium:
     12:
     0.499134,0.596527,0.383481,0.127827,0.080957,410,365,45,15,0,0,0.499134,0.596527,0.383481,0.127827,0.080957,410,365,45,15,0,0:
0000
0000
0000
0000
,
0000
0000
0000
0000
,
0000
0000
0000
0000
,
1000
0100
0001
0100
,
1000
0000
0010
0000
0100
0001
0010
0000
,
0001
0010
1000
0010
,
0011
0000
1100
0000
0001
1000
0010
0000
,
0110
1001
0110
1001
,
1000
0001
1000
0010
0100
0001
0010
0000
,
0110
1001
0110
1001
,
0001
0010
0100
1000
0020
0000
0130
0000
,
0002
0000
0000
0010
0010
0013
0000
0000
,
2000
0000
0000
0100
0100
3100
0000
0001
,
0100
1010
0000
1000
1100
0011
0000
1000
,
0001
0100
1000
0100
0001
0010
1000
0010
,
0001
1000
0010
0100
,
0001
0010
0100
0010
,
0001
1000
0010
0100
,
0002
0000
1000
1003
,
0011
0000
0011
0000
0010
0100
1000
0000
,
1010
0000
0010
0100
0001
1000
0010
0000
,
0101
0000
0101
0000
0100
0001
1000
0100
,
2000
0000
0000
0000
3001
0100
0010
0000
,
1000
0100
0010
0000
0001
1000
0010
0100
,
0001
0000
0000
0000
0001
0000
0001
0100
,
0001
0101
1100
0011
,
2200
0000
3300
0000
1000
0100
0010
0001
,
1000
0010
0100
0001
1000
0010
1000
0010
,
0100
0001
0100
0001
1000
0000
1100
0000
,
1001
0000
0001
0101
,
1001
0000
0000
0000
0001
0010
0100
0000
,
1000
0010
0100
0001
0010
0100
1000
0001
,
1000
1010
0101
1010
,
0011
0000
1100
0000
0001
0010
0100
1000
,
0001
0100
0010
1000
0002
0000
0103
0000
,
0001
0001
1000
0000
2000
0000
3001
0000
,
0100
0010
0000
0100
0010
0000
0000
0000
2000
0000
0000
0100
3001
0000
0000
0000
,
0002
0000
0000
0010
1003
0000
0001
0000
1001
0000
0000
1001
1100
0000
0000
0000
,
0001
0010
0000
0100
1000
0000
0000
0000
0001
0000
0000
1001
0101
0000
0000
0000
,
0001
1000
0100
0010
,
0001
1000
0010
0100
,
1001
0000
1000
0001
,
0010
0000
0010
0100
0000
0000
0001
0000
0000
0100
0000
0000
,
1000
0000
1000
0001
0000
0000
0100
0000
0000
0010
0000
0000
,
1000
0000
1000
0010
0000
0000
0100
0000
0100
0001
0000
0000
,
0010
0000
0001
1000
0000
0001
0100
0000
0010
0000
1000
0000
,
1100
0000
0000
0101
0000
0000
1000
0000
0001
0100
0000
0000
,
0011
0000
0000
1010
0000
0000
1000
0000
0001
0100
0000
0010
,
0000
0000
0000
0000
0000
0000
1000
0100
,
0010
0000
0001
0100
0010
0000
1000
0001
,
0010
0100
0010
0100
0010
0000
0001
0100
,
0010
1000
0001
0010
1000
0010
0001
1000
,
0010
0000
0100
0100
0100
0000
0001
0100
,
0010
0000
1000
0100
0010
0001
1000
0010
,
0001
0010
1000
0010
0000
0000
1000
0100
,
0010
0000
0001
0010
0100
0001
0100
0010
,
0001
0100
0001
0010
0001
0000
1000
0001
,
0010
0000
0100
0010
0001
1000
0010
0100
,
0001
0100
0010
0100
0001
0000
1000
0001
,
0010
0000
0100
1000
0100
0010
0001
1000
,
0010
0100
0001
1000
0010
1000
0001
0000
,
0101
1100
2000
3001
,
1000
0100
0001
0100
2000
0000
3010
0000
,
0100
0100
0100
0000
0001
0001
0001
0000
,
1000
0001
1000
0001
1000
0001
1000
0000
,
0001
0110
2200
3300
,
0001
0100
1000
0100
0001
0000
0010
0000
,
0100
0100
0100
0000
1000
1000
1000
0000
,
0001
1000
0001
1000
0100
0100
0010
0010
,
0001
0000
0000
0000
;

//--------------- dance-single - blank ----------------
#NOTES:
     dance-single:
     blank:
     Hard:
     16:
     0.743832,0.911407,0.528352,0.298263,0.575222,611,549,62,35,0,0,0.743832,0.911407,0.528352,0.298263,0.575222,611,549,62,35,0,0:
0000
0000
0000
0000
,
0000
0000
0000
0000
,
0000
0000
0000
0000
,
1000
0100
0010
0001
1000
0100
0010
0100
,
1000
0010
0100
0001
1000
0001
0200
0000
,
0301
0010
0100
1000
0001
0100
0010
1000
,
1100
0000
0001
0000
0101
0000
0010
0000
1000
0001
1000
0001
1000
0000
0000
0000
,
0011
0000
0000
0000
1100
0000
0000
0000
0110
0000
0000
0000
0001
1000
0001
1000
,
0001
0100
0010
0100
1000
0100
0001
0000
,
1100
0011
1010
0101
,
1000
0100
1000
0100
0010
0001
0010
0001
2000
0000
0000
0000
3001
0000
0000
0000
,
0020
0000
0030
1100
0101
1100
0000
0000
,
0020
0000
0000
0000
0030
0000
0101
0000
1100
0000
0101
0000
0000
0000
0001
0010
,
0100
0000
1001
0000
0000
0000
1000
0010
0100
0000
1001
0000
0000
0000
0001
0010
,
0100
0000
1000
0000
0100
0000
0001
0000
0100
0000
1000
0000
0001
1000
0001
1000
,
0002
0000
0010
0000
0013
0100
1000
0001
,
2000
0000
0010
0000
3010
0100
0001
1000
,
0002
0000
0000
0000
0100
0000
0000
0000
0103
0000
0010
0000
1000
0000
0100
0010
,
0002
0000
0000
0000
0003
0000
1000
0010
1000
0000
0010
0000
0100
0000
0001
0010
,
0001
0000
0001
0010
0001
0000
0001
0100
0010
0000
1000
0000
0001
0000
1000
0100
,
1000
0000
1000
0100
0010
0000
0001
0010
0100
0000
1000
0000
0001
0000
0100
0010
,
0100
0000
0100
0010
0100
0000
0100
0001
1000
0000
0100
0000
0010
0000
0001
1000
,
0002
0000
0000
0003
0000
0100
0010
1000
0100
0000
0010
0000
1001
0000
0000
0000
,
0010
0100
1001
0000
1010
0001
0100
0010
,
1001
0000
0000
0000
0002
0000
0000
0000
0013
0000
0100
0000
1000
0000
0001
0100
,
0010
0100
0010
0000
1000
0000
0100
0000
0010
0000
0001
0000
1000
0000
0010
0100
,
0010
0100
0001
0000
1001
0000
0000
0000
1000
0000
0100
0000
0001
0000
0100
0000
,
1000
0010
0001
0010
1000
1000
0001
0001
,
0100
0000
0010
0000
1000
0000
0001
0000
1000
0100
0010
0000
0001
0100
0010
0000
,
1000
0100
0010
0000
1001
0000
0000
0000
0001
0010
0100
0000
1000
0010
0100
0000
,
0001
0010
0100
0000
1001
0000
0000
0000
0001
0000
0010
0000
2000
0000
0000
0000
,
3001
0100
0010
0001
1000
0010
0100
0001
,
0010
1001
1010
0101
,
0011
0000
1100
0000
0001
0001
1000
1000
,
0010
0000
0100
0000
0001
0000
1000
0000
0002
0000
0000
1003
0010
0000
0100
0000
,
0001
2000
0000
3100
0010
0000
0001
1000
0002
0000
0000
0103
0010
0000
1000
0000
,
2000
0000
0000
0100
0000
0000
0000
0000
0000
3100
0000
0000
0001
0000
0000
0000
0000
0000
1000
0000
0000
0000
0000
0000
0020
0000
0000
0000
0000
0000
0000
0000
0000
0031
1000
0001
1000
0000
0000
0000
0000
0000
0000
0000
0000
0000
0000
0000
,
0002
1000
0003
0010
0100
0000
0101
0000
2200
3300
0000
0101
1100
0000
0001
0000
,
1100
0011
0000
1010
0101
0000
0100
0000
2200
0000
3300
0101
1100
0000
1000
0001
,
0010
0010
0010
0100
0100
0100
1000
1000
1000
0001
0001
0001
,
0100
0010
1000
0001
0010
0100
1000
0010
0100
0001
1000
0001
,
1000
0000
0020
0000
0030
0000
0110
0000
0000
1001
0000
0000
,
1000
0001
1000
0010
0100
0001
0020
0000
0130
0000
0000
0000
,
0001
0000
0100
1000
0000
0000
0010
0000
0100
0001
0000
0001
,
0200
0000
1300
0001
0000
0020
1000
0030
0100
0010
0000
0001
,
1000
0000
1000
0100
0000
0000
0010
0000
0110
0000
1001
0000
,
0001
0000
0100
1000
0000
0100
0002
0000
1003
0000
0000
0100
,
0010
0000
0000
0000
0010
0000
0002
0000
0000
0000
0000
0000
0203
0000
0000
0000
0000
0000
2300
0000
0000
3000
1001
0000
,
0000
0000
0000
0000
0000
0000
0000
0000
0000
0000
0000
0000
1000
0001
1000
0001
,
0010
0000
0100
0000
1000
0100
1000
0100
0010
0000
0001
0000
1000
0010
1000
0010
,
0100
0001
0100
0010
0100
0001
0100
0010
1000
0000
0000
0000
0001
0000
0010
0000
,
0100
0010
0100
0000
1000
0000
0010
0000
0100
0010
0100
0000
0001
0000
1000
0000
,
1001
0000
0000
0000
0001
0010
1000
0010
0001
0000
0000
0000
1000
0000
0001
0000
,
0110
0000
0001
1000
0110
0001
1000
0001
,
0101
1000
1100
0001
0101
1000
0001
1000
,
0110
0000
1000
0001
0110
1000
0001
1000
,
1100
0000
0100
0010
0001
0000
0100
0010
1000
0000
0000
0000
0100
0000
0010
0000
,
1001
0000
0010
0100
1001
0100
0010
0100
,
0011
0100
1010
0100
0011
0100
0010
0100
,
1001
0000
0100
0010
1001
0100
0010
0100
,
1010
0000
0010
0100
0001
0000
0010
0100
1000
0000
0001
0000
1000
0001
1000
0001
,
1000
0000
1000
0100
0001
0000
0100
0000
0020
0000
0000
0000
0031
0000
1000
0000
,
0001
0000
0001
0100
1000
0000
0100
0000
0020
0000
0000
0000
1030
0000
0001
0000
,
0010
1000
0010
1000
0010
0000
0001
0000
0100
1000
0100
1000
0100
0000
0001
0000
,
1000
0001
1000
0001
1000
0001
1000
0002
2000
0000
0000
0000
3003
0000
0000
0000
,
0001
0000
0001
0010
1000
0000
0010
0000
0200
0000
0000
0000
1300
0000
0001
0000
,
1000
0000
1000
0010
0001
0000
0010
0000
0200
0000
0000
0000
0301
0000
1000
0000
,
0100
0001
0100
0001
0100
0000
1000
0000
0010
0001
0010
0001
0010
0000
1000
0000
,
0001
0010
0100
1000
0010
0100
0001
1000
0001
1000
0001
1000
0001
1000
0001
1000
,
0001
0000
0000
0000
;
