#TITLE:CANDY (UFO mix);
#SUBTITLE:;
#ARTIST:The Sweetest;
#TITLETRANSLIT:;
#SUBTITLETRANSLIT:;
#ARTISTTRANSLIT:;
#GENRE:;
#CREDIT:;
#MUSIC:CANDY (UFO mix).ogg;
#BANNER:CANDY (UFO mix).png;
#BACKGROUND:CANDY (UFO mix)-bg.png;
#CDTITLE:./CDTITLES/Dance Dance Revolution HOTTEST PARTY.png;
#SAMPLESTART:36.063;
#SAMPLELENGTH:15.000;
#SELECTABLE:YES;
#OFFSET:0.000;
#BPMS:0.000=180.000
,268.000=90.000
;
#STOPS:;
#BGCHANGES:;
#FGCHANGES:;

//--------------- dance-single - about-blank ----------------
#NOTES:
     dance-single:
     about-blank:
     Beginner:
     4:
     0,0,0,0,0:
0000
0000
0000
0000
,
0000
0000
0000
0000
,
0000
0000
0000
0000
,
0000
0000
0000
0000
,
0000
0000
0000
0000
,
1000
0000
1000
0000
,
0001
0000
0001
0000
,
0010
0000
0001
0000
,
0100
0000
1001
0000
,
0001
0000
0000
0000
,
1000
0000
0000
0000
,
0010
0000
0000
0000
,
0000
0000
0000
0000
,
0100
0000
0000
0000
,
0000
0000
0000
0000
,
0001
0000
0000
0000
,
0000
0000
0000
0000
,
1000
0000
0000
0000
,
0000
0000
0000
0000
,
0010
0000
0010
0000
,
0010
0000
0000
0000
,
0100
0000
0100
0000
,
0100
0000
0000
0000
,
0001
0000
0000
0000
,
0010
0000
0000
0000
,
1000
0000
0000
0000
,
1001
0000
0000
0000
,
1000
0000
0100
0000
,
1000
0000
0000
0000
,
0001
0000
0100
0000
,
0001
0000
0000
0000
,
0010
0000
0000
0000
,
0001
0000
0000
0000
,
0100
0000
0001
0000
,
1000
0000
0000
0000
,
0001
0000
0010
0000
,
1000
0000
0000
0000
,
1000
0000
0010
0000
,
0001
0000
0000
0000
,
1001
0000
0000
0000
,
0110
0000
0000
0000
,
0001
0000
1000
0000
,
0010
0000
0000
0000
,
0200
0000
0000
0000
,
0000
0000
0000
0000
,
0000
0000
0000
0000
,
0000
0000
0300
0000
,
0001
0000
0001
0000
,
1000
0000
1000
0000
,
0010
0000
0100
0000
,
0001
0000
0000
0000
,
1000
0000
1000
0000
,
0100
0000
0000
0000
,
0001
0000
0001
0000
,
0100
0000
0000
0000
,
0010
0000
0000
0000
,
0001
0000
0000
0000
,
0100
0000
0010
0000
,
1000
0000
0000
0000
,
0001
0000
0001
0000
,
0010
0000
0000
0000
,
1000
0000
1000
0000
,
0010
0000
0000
0000
,
0001
0000
0000
0000
,
0010
0000
0000
0000
,
0100
0000
1000
0000
,
0010
0000
0000
0000
,
0100
0000
0100
0000
,
0010
0000
0010
0000
,
1000
0000
0000
0000
,
0001
0000
1000
0000
,
1001
0000
0000
0000
;

//--------------- dance-single - about-blank ----------------
#NOTES:
     dance-single:
     about-blank:
     Easy:
     7:
     0,0,0,0,0:
0000
0000
0000
0000
,
0000
0000
0000
0000
,
0000
0000
0000
0000
,
0000
0000
0000
0000
,
0000
0000
0000
0000
,
1000
1000
1000
0000
,
0001
0001
0001
0000
,
0010
0000
0000
1001
0000
0000
0100
0000
,
0000
1001
0000
0000
0001
0000
1000
0000
,
0100
0000
0000
0100
0000
0000
0100
0000
,
0010
0000
0000
0010
0000
0000
0010
0000
,
0001
0000
0000
0000
,
0001
0000
0000
0001
0000
0000
0001
0000
,
1000
0000
0000
0000
,
1000
0000
0000
1000
0000
0000
1000
0000
,
0010
0000
0000
0000
,
0010
0000
0000
0010
0000
0000
0100
0000
,
0001
0000
0000
0000
0000
1000
0000
0000
,
0100
0000
0000
0010
0000
0000
0001
0000
,
1000
1000
1000
0000
,
0010
0010
0010
0000
,
0100
0100
0100
0000
,
0001
0001
0001
0000
,
0010
0000
0001
0000
,
1000
0000
0100
0000
,
1000
0000
0010
0100
,
0001
0000
1000
0100
,
0010
0001
0100
0000
,
0010
0100
0001
0000
,
1000
0100
0010
0000
,
0010
0100
1000
0000
,
0020
0000
0130
0000
,
2000
0000
3001
0000
,
0001
0000
0010
0000
0100
0000
0000
1000
,
0000
0010
0100
0000
,
0001
1000
0010
0000
,
0001
0010
1000
0000
,
1000
0001
0100
0000
,
1000
0100
0001
0000
,
0020
0000
0130
0000
,
2000
0000
3001
0000
,
0100
0010
1000
0000
,
0100
0010
0001
0000
,
1001
0000
0001
0000
,
0001
0000
0001
0000
,
1001
0000
1000
0000
,
1000
0000
1000
0000
,
0010
0000
0010
0100
,
0001
0000
0001
1000
,
0100
0000
0000
0100
0000
0000
0010
0000
,
0000
0010
0000
0000
0001
0000
1000
0000
,
0001
0000
0001
0000
0001
0000
0000
0010
,
0000
0001
0001
0000
,
1000
0000
1000
0000
1000
0000
0000
0010
,
0000
1000
1000
0000
,
0100
0010
0001
0000
,
0010
0100
1000
0000
,
0001
1000
0010
0000
,
0100
0001
1000
0000
,
0010
0000
0010
0000
0010
0000
0000
1000
,
0000
0010
0010
0000
,
0100
0000
0100
0000
0100
0000
0000
0001
,
0000
0100
0100
0000
,
0001
1000
0100
0000
,
0010
0001
1000
0000
,
0010
0000
0100
0000
0001
0000
0000
0010
,
0000
0001
1000
0000
,
2002
0000
0000
0000
,
0000
0000
0000
3003
,
1000
0100
0001
0010
,
1000
0001
1000
0000
0010
0100
0010
0000
,
2002
0000
3003
0000
;

//--------------- dance-single - about-blank ----------------
#NOTES:
     dance-single:
     about-blank:
     Medium:
     10:
     0,0,0,0,0:
0000
0000
0000
0000
,
0000
0000
0000
0000
,
0000
0000
0000
0000
,
0000
0000
0000
0000
,
0000
0000
0000
0000
,
1000
0000
1000
0000
1000
0000
0000
0001
,
0000
0001
0000
0000
0010
0000
0100
0000
,
1000
0000
0010
0100
0001
0000
0010
0000
,
0100
1000
0010
0000
0100
0000
1001
0000
,
0020
0000
0030
0020
0000
0030
1001
0000
,
0200
0000
0300
0200
0000
0300
1001
0000
,
0002
0000
0100
0000
0000
0100
0000
0000
,
0100
0000
0000
0100
0000
0000
0103
0000
,
2000
0000
0100
0000
0000
0100
0000
0000
,
0100
0000
0000
0100
0000
0000
3100
0000
,
0002
0000
0010
0000
0000
0010
0000
0000
,
0010
0000
0000
0010
0000
0000
0013
0000
,
2000
0000
0001
0000
0000
0001
0000
0000
,
0010
0000
0000
0010
3000
0000
0110
0000
,
1001
0001
0010
0100
,
1000
0000
0010
0000
0100
0000
0001
1000
,
0001
0010
0100
0010
,
0001
0000
1000
0000
0010
0000
0100
0001
,
0100
0010
1000
0001
,
0010
0000
0100
0000
1000
0000
0001
0100
,
0010
0000
1000
0000
0100
0000
0010
0001
,
1000
0010
0110
0000
,
0001
0000
0100
0000
1000
0000
0100
0001
,
0100
0001
0010
0100
,
1000
0000
0100
0000
0001
0000
0100
1000
,
0100
1000
0010
0100
,
0001
0001
0010
0010
,
1000
1000
0010
0010
,
1001
0000
0110
0000
1000
0000
0001
0100
,
0000
0010
1000
0000
0001
1000
0001
0000
,
1000
0000
0010
0000
0001
0000
0010
1000
,
0010
0100
0001
0001
,
1000
0000
0100
0000
0001
0000
0100
1000
,
0100
1000
0010
0010
,
0100
0001
0100
1000
,
0100
0010
1000
0100
,
0010
0000
0001
0000
1000
0000
0010
0100
,
0000
0001
1000
0000
0110
0000
1001
0000
,
0002
0010
0000
0010
,
2003
0100
0000
0100
,
3020
0100
0000
0100
,
2030
0001
0000
3001
,
0010
0000
0100
0000
0000
0100
1000
0000
,
0001
0000
0100
0000
0000
0100
0010
0000
,
1000
0000
0100
0010
0001
0000
0001
0000
,
0100
0010
1000
0000
1001
0000
0110
0000
,
1000
0000
0100
0000
0100
0000
0001
0100
,
0010
0001
1000
0000
,
0001
0000
0100
0000
0100
0000
1000
0100
,
0010
1000
0001
0010
,
1000
0010
0001
0100
,
1000
0100
0001
1000
,
1001
0000
0110
0000
1001
0000
1000
0010
,
0000
0100
0001
0000
0010
0000
0010
0000
,
0001
0000
0010
0000
0100
0000
0001
0100
,
0010
0001
1000
0001
,
1000
0000
0010
0000
0100
0000
1000
0100
,
0010
1000
0001
1000
,
0100
0100
0010
0010
,
0001
0001
1000
1000
,
0010
0000
0110
0000
1001
0000
0001
0010
,
0000
0100
1000
0000
0010
0000
0100
0000
,
2002
0000
0000
0000
,
0000
0000
0000
3003
,
1000
0010
0001
0100
,
1000
0000
0001
0000
1000
0000
0000
0100
0000
0010
0001
0000
1000
0000
0100
0010
,
0002
0000
0003
0000
;

//--------------- dance-single - about-blank ----------------
#NOTES:
     dance-single:
     about-blank:
     Hard:
     12:
     0,0,0,0,0:
0000
0000
0000
0000
,
0000
0000
0000
0000
,
0000
0000
0000
0000
,
0000
0000
0000
0000
,
0000
0000
0000
0000
,
1000
0000
1000
0000
0100
0001
0000
1000
,
0000
1000
0000
0010
0001
0000
1000
0000
,
0001
1000
0001
0100
0010
0100
0001
0000
,
1000
0001
1000
0100
0010
0000
0101
0000
,
2000
0000
3100
2000
0000
3100
0010
0010
,
0002
0000
0013
0002
0000
0103
0010
0010
,
2000
0000
0000
0000
0000
0001
0000
0000
,
0001
0000
0000
0001
0000
0000
3010
0000
,
0002
0000
0000
0000
0000
1000
0000
0000
,
1000
0000
0000
0010
0000
0000
0013
0000
,
2000
0000
0000
0000
0000
0100
0000
0000
,
0100
0000
0000
0001
0000
0000
3001
0000
,
0002
0000
0010
0000
0000
0010
0000
0000
,
1000
0000
0000
0100
0000
0000
1003
0000
,
0001
0000
0100
0000
1000
0000
0100
0001
,
0100
0001
0001
0110
,
1000
0000
0100
0000
0001
0000
0100
1000
,
0100
0010
0001
1001
,
2000
0000
3100
0000
0010
0001
0010
0000
,
0002
0000
0103
0000
0010
1000
0010
0000
,
1001
0000
1000
0100
0001
0000
0001
0100
,
1000
0010
1000
0010
1000
0010
1000
0000
,
0201
0000
1000
0000
0301
0000
1000
0100
,
0001
1000
0001
0100
2000
0000
3001
0000
,
1020
0000
0001
0000
1030
0000
0001
0100
,
1000
0001
1000
0100
0002
0000
0013
0000
,
1100
0000
0001
0020
0001
0000
1000
0000
,
0230
0001
0010
1300
,
1001
0000
0110
0000
1000
0100
0010
0001
,
0000
0000
0001
0000
0100
0000
1000
0000
0100
0000
0000
0000
0001
1000
0000
0000
,
0021
0000
1000
0000
0031
0000
1000
0010
,
0001
1000
0001
0010
2000
0000
3001
0000
,
1200
0000
0001
0000
1300
0000
0001
0010
,
1000
0001
1000
0010
0002
0000
0103
0000
,
1010
0000
0001
0200
1000
0300
1000
0002
,
0010
0003
1100
0000
0011
0000
1010
0000
,
0101
0000
0001
0010
0100
1000
0100
0001
,
0000
1000
0010
0001
0100
0100
0010
0010
,
1000
0100
0010
0200
0000
1300
0010
1000
,
0001
0100
0010
0200
0000
0301
0010
0001
,
1000
0010
0100
0020
0000
1030
0100
1000
,
0001
0010
0100
0020
0000
0031
0100
0001
,
1000
0100
0010
0002
0000
0103
0010
1000
,
0001
0010
0100
2000
0000
3010
0100
0001
,
1000
0100
1000
0001
0010
0001
1000
0010
,
1000
0001
0100
0001
1000
1000
0001
0001
,
1000
0000
0110
0000
1001
0000
1000
0010
,
0001
1000
0100
0001
0020
0000
1000
0000
,
0031
0000
0110
0000
1001
0000
0001
0010
,
1000
0001
0100
1000
0020
0000
0001
0000
,
1030
0000
0100
0001
0100
0000
0100
1000
,
0100
1100
0011
1010
,
0101
0000
0001
0010
0100
1000
0001
0010
,
0000
0010
1000
0010
0001
0001
1000
1000
,
0020
0000
0001
0000
1030
0100
0010
0200
,
0000
0001
0001
0000
1300
0001
1000
0000
,
0200
0000
0001
0000
1300
0010
0100
0002
,
0000
0010
0010
0000
1003
0000
1001
0000
,
0001
0100
0001
0100
1000
0100
0001
0000
,
0001
0010
1000
0010
0001
0100
0010
0000
,
0100
0001
1000
0100
0010
0001
0100
0110
,
0000
0000
1000
0000
0001
0000
0100
0000
0010
1000
0010
0000
0100
0001
0100
0000
,
2002
0000
0000
0000
0000
0000
0000
3003
,
0220
0000
0000
0000
0000
0000
0000
0330
,
1000
0000
0000
0001
0020
0000
0000
0000
0030
0000
0100
0000
1000
0000
0010
0000
,
0100
0000
0000
0000
0001
0000
0000
0000
0010
0000
0000
0000
0001
0000
1000
0000
0000
0000
1000
0000
0010
0000
0000
0000
0100
0000
0001
0000
1000
0001
1000
0002
,
2000
0000
0000
0000
,
3003
0000
0000
0000
;
