#TITLE:Bulldozer;
#SUBTITLE:;
#ARTIST:Smashtrax;
#TITLETRANSLIT:;
#SUBTITLETRANSLIT:;
#ARTISTTRANSLIT:;
#GENRE:;
#CREDIT:;
#MUSIC:Bulldozer.mp3;
#BANNER:;
#BACKGROUND:;
#CDTITLE:;
#SAMPLESTART:0.000;
#SAMPLELENGTH:0.000;
#SELECTABLE:YES;
#OFFSET:-0.070;
#BPMS:0.000=137.000;
#STOPS:;
#BGCHANGES:;
#FGCHANGES:;

//--------------- dance-single - OrangeRight ----------------
#NOTES:
     dance-single:
     OrangeRight:
     Beginner:
     2:
     0,0,0,0,0:
0000
0000
0000
0000
,
0000
0000
0000
0000
,
0000
0000
0000
0000
,
0000
0000
0000
0000
,
1000
0000
0000
0000
,
0001
0000
0000
0000
,
1000
0000
0000
0000
,
0001
0000
0000
0000
,
0100
0000
0000
0000
,
0001
0000
0000
0000
,
1000
0000
0001
0000
,
1000
0000
0001
0000
,
1000
0000
0000
0000
,
0001
0000
0000
0000
,
1000
0000
0000
0000
,
0001
0000
0000
0000
,
0010
0000
0000
0000
,
0001
0000
0000
0000
,
0100
0000
0010
0000
,
0100
0000
0010
0000
,
1000
0000
0000
0000
,
0001
0000
0100
0000
,
0001
0000
0000
0000
,
1000
0000
0100
0000
,
1000
0000
0000
0000
,
0001
0000
0010
0000
,
0100
0000
0000
0000
,
1000
0000
0010
0000
,
0200
0000
0300
0000
,
0001
0000
0001
0000
,
1000
0000
1000
0000
,
0001
0000
0001
0000
,
1000
0000
1000
0000
,
0010
0000
0010
0000
,
0100
0000
0100
0000
,
0001
0000
1000
0000
,
0001
0000
1000
0000
,
0001
0000
0000
0000
,
0010
0000
0100
0000
,
1000
0000
0000
0000
,
0010
0000
0100
0000
,
0001
0000
0000
0000
,
1000
0000
0001
0000
,
0010
0000
0000
0000
,
0100
0000
1000
0000
,
0002
0000
0003
0000
,
1000
0000
1000
0000
,
0001
0000
0001
0000
,
1000
0000
0100
0000
,
0010
0000
0000
0000
,
0001
0000
0001
0000
,
1000
0000
1000
0000
,
0001
0000
0100
0000
,
0010
0000
1000
0000
,
0001
0000
0001
0000
,
1000
0000
1000
0000
,
0100
0000
0010
0000
,
0001
0000
0000
0000
,
1000
0000
1000
0000
,
0001
0000
0001
0000
,
1000
0000
0100
0000
,
0010
0000
0001
0000
,
1001
0000
0000
0000
;

//--------------- dance-single - OrangeRight ----------------
#NOTES:
     dance-single:
     OrangeRight:
     Easy:
     4:
     0,0,0,0,0:
0000
0000
0000
0000
,
0000
0000
0000
0000
,
0000
0000
0000
0000
,
0000
0000
0000
0000
,
1000
0001
0100
0000
,
0001
1000
0100
0000
,
1000
0001
0010
0000
,
0001
1000
0010
0000
,
1000
0100
0010
0000
,
0001
0100
0010
0000
,
1000
1000
0001
0001
,
1000
0001
0100
0010
,
1000
0001
0010
0000
,
0001
1000
0010
0000
,
1000
0001
0100
0000
,
0001
1000
0100
0000
,
1000
0010
0100
0000
,
0001
0010
0100
0000
,
1000
1000
0001
0001
,
0100
0010
1000
0001
,
2000
0000
3100
0000
,
0002
0000
0103
0000
,
1000
0001
0100
0010
,
1000
0100
1000
0000
,
0002
0000
0103
0000
,
2000
0000
3100
0000
,
1000
0100
0010
0000
,
0001
0100
0010
0000
,
2000
3000
0000
1001
,
1000
0100
0010
0000
,
0010
0001
0100
0000
,
0001
0100
0010
0000
,
0010
1000
0100
0000
,
0100
1000
0010
0000
,
0100
0001
0010
0000
,
0010
0010
0100
0100
,
1000
0000
0001
0000
1000
1000
1000
0000
,
0002
0000
0103
0000
,
0020
0000
1030
0000
,
1000
0100
0010
0000
,
0001
0100
0001
0000
,
0002
0000
0013
0000
,
0200
0000
1300
0000
,
1000
0010
0100
0000
,
0001
1000
0001
0000
,
0002
0000
0000
1003
,
0002
0000
0103
0010
,
2000
0000
3100
1000
,
0020
0000
0230
0000
,
0301
1000
0010
0000
,
2000
0000
3100
0010
,
0002
0000
0103
0001
,
0020
0000
0230
0000
,
2300
0000
0000
0000
3001
0001
0001
0000
,
2000
0000
3010
0100
,
0002
0000
1003
0100
,
0020
0000
0032
0000
,
1003
0010
0100
0000
,
0002
0000
1003
0100
,
0020
0000
0031
0100
,
0020
0000
2030
0000
,
3002
0000
0000
0000
1003
0001
1000
0000
,
2002
0000
0000
0000
,
3003
0000
0000
0000
;

//--------------- dance-single - OrangeRight ----------------
#NOTES:
     dance-single:
     OrangeRight:
     Medium:
     7:
     0,0,0,0,0:
0000
0000
0000
0000
,
0000
0000
0000
0000
,
0000
0000
0000
0000
,
0000
0000
0000
0000
,
1000
0000
0100
1000
0000
0100
1000
0000
,
0010
0000
0100
0010
0000
0010
1000
0000
,
0001
0000
0100
0001
0000
0100
0001
0000
,
0010
0000
0100
0010
0000
0010
0001
0000
,
1000
0000
0100
1000
0000
1000
0010
0000
,
0100
0000
0001
0010
0000
0010
0100
0000
,
1000
0100
1000
0000
0001
0100
0001
0000
,
0100
0000
0010
0000
1000
0001
1000
0000
,
0001
0000
0100
0001
0000
0100
0001
0000
,
0010
0000
0100
0010
0000
0010
0001
0000
,
1000
0000
0100
1000
0000
0100
1000
0000
,
0010
0000
0100
0010
0000
0010
1000
0000
,
0001
0000
0100
0001
0000
0001
0010
0000
,
0100
0000
1000
0010
0000
0010
0100
0000
,
0001
0100
0001
0000
1000
0100
1000
0000
,
0001
0000
1000
0000
0010
0100
0010
0000
,
2000
0100
0000
0010
,
3002
0010
0000
0100
,
1003
0001
0000
1000
0001
0000
0100
0000
,
0001
0010
0100
1000
,
0002
0010
0000
0100
,
2003
0010
0000
0100
,
3001
1000
0000
0001
1000
0000
0010
0000
,
1000
0001
0000
1000
0001
0000
0100
0000
,
0002
2000
0000
0000
3003
0000
1001
0000
,
0001
0000
0100
0010
0000
1000
0100
0000
,
1000
0000
0010
0100
0000
0100
0010
0000
,
1000
0000
0100
0010
0000
0001
0100
0000
,
0001
0000
0010
0100
0000
0100
0010
0000
,
0001
0000
0100
0010
0000
1000
0001
0000
,
1000
0000
0100
0010
0000
0001
1000
0000
,
0001
0010
0001
0000
1000
0010
1000
0000
,
0001
0000
1000
0000
0010
0100
0010
0000
,
2000
0001
0000
0100
,
3002
1000
0000
0100
,
0013
0100
0000
0010
0100
0000
1000
0000
,
0010
0100
0001
1000
,
0002
1000
0000
0010
,
2003
0001
0000
0010
,
3010
0100
0000
0010
0100
0000
0001
0000
,
0010
0100
0000
0010
0100
0000
1000
0000
,
0002
2000
0000
0000
3003
0000
1001
0000
,
2000
0010
0100
3010
,
0002
0000
0013
0200
0000
1300
0010
1000
,
0020
0000
0130
0002
0000
1003
0001
0000
,
0010
0000
0100
1000
0000
0001
0100
0000
,
0002
0100
0010
0103
,
2000
0000
3100
0020
0000
0031
0100
0001
,
0200
0000
0310
2000
0000
3001
1000
0200
,
0000
1300
0010
0100
0001
1000
0001
0000
,
0020
0001
0100
0031
,
0002
0000
0103
0020
0000
1030
0001
1000
,
0002
0000
1003
0200
0000
0310
0100
0000
,
1000
0000
0001
0010
0000
0100
1000
0000
,
0020
1000
0100
1030
,
2000
0000
3100
0020
0000
0031
0100
0010
,
2000
0000
3001
0200
0000
0310
0100
0000
,
0001
0000
1000
0001
0010
0100
1000
0000
,
2002
0000
0000
0000
,
3003
0000
0000
0000
;

//--------------- dance-single - OrangeRight ----------------
#NOTES:
     dance-single:
     OrangeRight:
     Hard:
     11:
     0,0,0,0,0:
0000
0000
0000
0000
,
0000
0000
0000
0000
,
0000
0000
0000
0000
,
0000
0000
0000
0000
,
1000
0100
0010
0200
0000
1300
0001
0100
,
0001
0010
0100
0020
0000
0031
1000
0100
,
1000
0001
0100
0002
0000
1003
0010
1000
,
0001
0010
0001
2000
0000
3010
0100
0010
,
1000
0100
0010
0002
0000
1003
0001
1000
,
0001
0100
0010
2000
0000
3001
1000
0001
,
1000
0100
0010
0100
1000
0010
0100
0001
,
0010
0001
0100
0001
0010
0100
1000
0000
,
0001
0010
0100
0020
0000
0031
1000
0010
,
1000
0100
0010
0200
0000
1300
0001
0100
,
0001
1000
0010
2000
0000
3001
0010
0001
,
1000
0100
1000
0002
0000
0103
0010
0100
,
0001
0010
0100
2000
0000
3001
0100
0001
,
1000
0010
0100
0002
0000
1003
0010
1000
,
0001
0010
0100
0010
0001
0100
0010
1000
,
0100
1000
0010
0100
0001
1000
1001
0000
,
1000
0101
0001
1100
,
1000
0011
0001
1010
,
1000
0010
0000
0100
0001
0000
0010
0100
,
1000
0000
0000
0010
0000
0000
0100
0000
0001
0000
1000
0000
0001
0000
0000
0000
,
0001
1010
1000
0011
,
0001
1100
1000
0101
,
0001
0100
0000
0010
1000
0000
1001
0000
,
1000
0100
0000
0010
0001
0000
1001
0000
,
2000
0002
0000
0000
3003
0100
0110
0000
,
1000
0000
0100
1000
0100
0000
0020
0000
0000
0000
0031
0000
0100
0000
0001
0000
,
0010
0000
0001
0100
0001
0000
2000
0000
0000
0000
3001
0000
1000
0000
0010
0000
,
0100
0000
0001
0010
0001
0000
0200
0000
0000
0000
0310
0000
1000
0000
0100
0000
,
0010
0000
0001
1000
0001
0000
0200
0000
0000
0000
0310
0000
1000
0000
0001
0000
,
1000
0000
0100
0010
0100
0000
2000
0000
0000
0000
3001
0000
0100
0000
0010
0000
,
0100
0000
0001
0010
0001
0000
2000
0000
0000
0000
3001
0000
1000
0000
0001
0000
,
1000
0100
0010
0001
0100
0010
0100
0001
,
0010
0100
1000
0010
0100
0010
0110
0000
,
0001
0101
1000
1100
,
0001
0011
1000
1010
,
0010
0100
0000
0001
1000
0000
0100
0010
,
0001
0000
0000
0010
0000
0000
0100
0000
1000
0000
0001
0000
1000
0000
0000
0000
,
1000
0101
0001
1100
,
1000
0011
0001
1010
,
1000
0001
0000
0010
0100
0000
0110
0000
,
0100
1000
0000
0001
0010
0000
1001
0000
,
2000
0002
0000
3003
0100
0010
1001
0000
,
1000
0000
0001
0100
0001
0000
0020
0000
0000
0000
0130
0000
1000
0000
0001
0000
,
0020
0000
0031
0200
0000
0310
1000
0001
,
1000
0000
0010
1000
0001
0000
0020
0000
0000
0000
0031
0000
1000
0000
0100
0000
,
0010
0000
0001
1000
0100
0000
2000
0000
0000
0000
3001
0000
0100
0000
0010
0000
,
1000
0000
0100
0010
0001
0000
0200
0000
0000
0000
0310
0000
1000
0000
0001
0000
,
0020
0000
0130
2000
0000
3010
0100
0001
,
0020
0000
0031
2000
0000
3100
0010
0002
,
0100
0103
0010
1000
0100
0010
0011
0000
,
0001
0000
1000
0100
1000
0000
0020
0000
0000
0000
0130
0000
0001
0000
1000
0000
,
0020
0000
1030
0200
0000
0310
0001
1000
,
0001
0000
0010
0001
0100
0000
0020
0000
0000
0000
1030
0000
0001
0000
0100
0000
,
0010
0000
1000
0001
0010
0000
0002
0000
0000
0000
1003
0000
0100
0000
0010
0000
,
0001
0000
0100
0010
1000
0000
0200
0000
0000
0000
0310
0000
0001
0000
1000
0000
,
0020
0000
0130
0002
0000
1003
0100
0010
,
0002
0010
0013
0200
1000
1300
0010
0200
,
0001
0301
0010
1000
0010
0001
1000
0001
,
2002
0000
0000
0000
,
3003
0000
0000
0000
;

//--------------- dance-double - OrangeRight ----------------
#NOTES:
     dance-double:
     OrangeRight:
     Easy:
     4:
     0,0,0,0,0:
00000000
00000000
00000000
00000000
,
00000000
00000000
00000000
00000000
,
00000000
00000000
00000000
00000000
,
00000000
00000000
00000000
00000000
,
10000000
01000000
10000000
00000000
,
00100000
10000000
00010000
00000000
,
01000000
00010000
01000000
00000000
,
00010000
00100000
00001000
00000000
,
00010000
00001000
00010000
00000000
,
00001000
00010000
00000100
00000000
,
00001000
00001000
00000001
00000001
,
00001000
00000001
00000100
00000010
,
00001000
00000100
00001000
00000000
,
00000010
00001000
00000001
00000000
,
00000100
00000001
00000100
00000000
,
00000010
00001000
00000100
00000000
,
00010000
00001000
00010000
00000000
,
00001000
01000000
00010000
00000000
,
10000000
10000000
00010000
00010000
,
01000000
00100000
10000000
00010000
,
20000000
00000000
31000000
00000000
,
00020000
00000000
01030000
00000000
,
01000000
00100000
00100000
01000000
,
00010000
00100000
00001000
00000000
,
00020000
00000000
00031000
00000000
,
00002000
00000000
00013000
00000000
,
00010000
00000100
00001000
00000000
,
00000010
00000100
00000001
00000000
,
00002000
00003000
00000000
00001001
,
00000001
00000100
00000010
00000000
,
00000100
00000010
00001000
00000000
,
00000100
00010000
00001000
00000000
,
00010000
00001000
00100000
00000000
,
00010000
01000000
00001000
00000000
,
00010000
00000100
00001000
00000000
,
00000001
00000001
00001000
00001000
,
00000010
00000000
00000100
00000000
00000001
00000001
00000001
00000000
,
00002000
00000000
00003100
00000000
,
00000002
00000000
00000103
00000000
,
00000100
00000010
00000010
00000100
,
00000001
00001000
00000100
00010000
,
00002000
00010000
00013000
00000000
,
00020000
00001000
00031000
00000000
,
00001000
00100000
00010000
00000000
,
00010000
01000000
00100000
00000000
,
02200000
03300000
00000000
10010000
,
20000000
00000000
31000000
00100000
,
00020000
00000000
02030000
00000000
,
03002000
00000000
00023000
00000000
,
00030100
00001000
00000100
00000000
,
00002000
00000000
00003010
00000100
,
00000002
00000000
00000023
00000000
,
00000230
00000000
00002300
00000000
,
00003002
00000000
00000000
00000000
00001003
00001000
00001000
00000000
,
00000002
00000000
00000013
00000100
,
00002000
00000000
00003020
00000000
,
00020030
00000000
00032000
00000000
,
01003000
00010000
01000000
00000000
,
00020000
00000000
10030000
00010000
,
20000000
00000000
30020000
00000000
,
02030000
00000000
03002000
00000000
,
00023000
00000000
00000000
00000000
00031000
00010000
00001000
00000000
,
00022000
00000000
00000000
00000000
,
00033000
00000000
00000000
00000000
;

//--------------- dance-double - OrangeRight ----------------
#NOTES:
     dance-double:
     OrangeRight:
     Medium:
     6:
     0,0,0,0,0:
00000000
00000000
00000000
00000000
,
00000000
00000000
00000000
00000000
,
00000000
00000000
00000000
00000000
,
00000000
00000000
00000000
00000000
,
10000000
00000000
00010000
10000000
00000000
00000000
01000000
00000000
,
10000000
00000000
00010000
01000000
00000000
00000000
00010000
00000000
,
00100000
00000000
00001000
00010000
00000000
00000000
00001000
00000000
,
00010000
00000000
00000100
00001000
00000000
00000000
00000100
00000000
,
00001000
00000000
00000010
00000100
00000000
00000000
00000100
00000000
,
00000001
00000000
00000010
00000100
00000000
00000000
00000100
00000000
,
00001000
00000010
00001000
00000000
00000001
00000010
00000001
00000000
,
00001000
00000000
00000001
00000000
00000100
00000010
00000100
00000000
,
00000001
00000000
00000010
00000001
00000000
00000000
00001000
00000000
,
00000001
00000000
00001000
00000010
00000000
00000000
00001000
00000000
,
00000010
00000000
00010000
00001000
00000000
00000000
00010000
00000000
,
00001000
00000000
01000000
00010000
00000000
00000000
00100000
00000000
,
00010000
00000000
01000000
00010000
00000000
00000000
00100000
00000000
,
01000000
00000000
10000000
00100000
00000000
00000000
01000000
00000000
,
00010000
01000000
00010000
00000000
10000000
01000000
10000000
00000000
,
00010000
00000000
10000000
00000000
00010000
10000000
00010000
00000000
,
20000000
01000000
00000000
00100000
,
30020000
01000000
00000000
00130000
,
00010000
01000000
00001000
00010000
,
00000100
00000000
00001000
00000000
00000010
00000100
00000010
00000000
,
00002000
00000010
00000000
00000100
,
00003002
00000010
00000000
00000100
,
00001003
00000001
00000100
00000010
,
00001000
00000100
00010000
00001000
,
00020000
00002000
00000000
00000000
00033000
00000000
00011000
00000000
,
00001000
00000000
00100000
00010000
00000000
00010000
00100000
00000000
,
00001000
00000000
00010000
00000100
00000000
00000100
00010000
00000000
,
00001000
00000000
01000000
00010000
00000000
00010000
01000000
00000000
,
00001000
00000000
00010000
00000010
00000000
00000010
00010000
00000000
,
00001000
00000000
00100000
00010000
00000000
01000000
00100000
00000000
,
10000000
00000000
01000000
00100000
00000000
00100000
01000000
00000000
,
10000000
00100000
10000000
00000000
00010000
00100000
00010000
00000000
,
10000000
00000000
00010000
00000000
01000000
00100000
01000000
00000000
,
00020000
01000000
00000000
00100000
,
20030000
01000000
00000000
00100000
,
30010000
10000000
00000000
00010000
10000000
00000000
01000000
00000000
,
00100000
00001000
00010000
00000100
,
00002000
00000010
00000000
00000100
,
00003002
00000010
00000000
00000100
,
00001003
00000001
00000000
00001000
00000001
00000000
00000100
00000000
,
00000001
00001000
00000000
00000001
00001000
00000000
00000100
00000000
,
00002000
00000002
00000000
00000000
00003003
00000000
00001001
00000000
,
00000002
00000100
00001000
00000010
,
00002003
00000000
00003010
00000200
00000000
00000301
00001000
00000100
,
00002000
00000000
00003100
00020000
00000000
00000000
00031000
00000000
,
00010000
00000000
00001000
00100000
00000000
00100000
00010000
00000000
,
20000000
01000000
00010000
00100000
,
30020000
00000000
00130000
02000000
00000000
13000000
00010000
01000000
,
00020000
00000000
01030000
00002000
00000000
00000000
00013000
00000200
,
00000000
00000000
00001300
00000000
00000010
00000100
00000001
00000000
,
00002000
00000100
00000010
00000100
,
00003002
00000000
00000103
00000020
00000000
00001030
00000100
00001000
,
00000200
00000000
00010300
00002000
00000000
00000000
01003000
00000000
,
00010000
00000000
00100000
01000000
00000000
01000000
10000000
00000000
,
00020000
01000000
00100000
01000000
,
20030000
00000000
31000000
00200000
00000000
00310000
01000000
00010000
,
02000000
00000000
03001000
00020000
00000000
00000000
00030100
00000000
,
00001000
00000010
00000100
00000001
00000010
00000100
00001000
00000000
,
00002002
00000000
00000000
00000000
,
00003003
00000000
00000000
00000000
;

//--------------- dance-double - OrangeRight ----------------
#NOTES:
     dance-double:
     OrangeRight:
     Hard:
     11:
     0,0,0,0,0:
00000000
00000000
00000000
00000000
,
00000000
00000000
00000000
00000000
,
00000000
00000000
00000000
00000000
,
00000000
00000000
00000000
00000000
,
10000000
01000000
00100000
02000000
00000000
13000000
00100000
01000000
,
00010000
00100000
00010000
02000000
00000000
03010000
00100000
00001000
,
00010000
00000100
00001000
00000200
00000000
00001300
00000100
00000010
,
00000001
00000100
00000001
00002000
00000000
00003010
00000100
00000001
,
00001000
00000100
00000010
00000200
00000000
00001300
00000010
00000100
,
00000001
00000010
00000001
00000200
00000000
00000310
00001000
00000001
,
00001000
00000100
00000010
00000100
00001000
00000010
00000100
00000001
,
00000010
00000100
00001000
00000001
00000100
00000010
00000110
00000000
,
00000001
00000010
00000100
00002000
00000000
00003001
00000100
00000010
,
00001000
00000100
00000010
00000002
00000000
00001003
00000100
00010000
,
00001000
00100000
00010000
02000000
00000000
03010000
00100000
01000000
,
10000000
00100000
01000000
00020000
00000000
01030000
00100000
10000000
,
00010000
00100000
01000000
20000000
00000000
30010000
01000000
00100000
,
10000000
01000000
00100000
00020000
00000000
01030000
00010000
10000000
,
00010000
00100000
01000000
00100000
00010000
01000000
00100000
10000000
,
01000000
00100000
00010000
10000000
00100000
01000000
01100000
00000000
,
00100000
10100000
10000000
11000000
,
01000000
01100000
00100000
00110000
,
00100000
00001000
00000000
00010000
00000100
00000000
00001000
00000001
,
00001000
00000010
00000100
00000001
00000010
00000100
00001000
00000000
,
00000001
00000101
00000100
00000110
,
00000010
00001010
00001000
00001100
,
00000100
00010000
00000000
00001000
00100000
00000000
00110000
00000000
,
00010000
01000000
00000000
00001000
00010000
00000000
00011000
00000000
,
00020000
00000200
00000000
00000000
00030300
00000100
00001100
00000000
,
00001000
00000010
00000100
00000002
00000000
00000013
00000100
00001000
,
00000010
00010000
00001000
00020000
00000000
00030100
00010000
00001000
,
00100000
00010000
01000000
00200000
00000000
10300000
00010000
10000000
,
01000000
00100000
00010000
20000000
00000000
30010000
01000000
00010000
,
10000000
00100000
01000000
00020000
00000000
10030000
00010000
10000000
,
01000000
00100000
00010000
02000000
00000000
03001000
00010000
00000100
,
00001000
00000010
00000100
00000001
00000010
00000100
00000010
00000001
,
00000100
00000010
00001000
00000100
00000010
00000001
00001001
00000000
,
00001000
00001100
00000001
00000101
,
00001000
00001010
00000001
00000011
,
00000001
00000010
00000000
00000100
00001000
00000000
00000100
00010000
,
00001000
00100000
00010000
01000000
00100000
10000000
00010000
00000000
,
10000000
11000000
00010000
01010000
,
10000000
10100000
00010000
00110000
,
10000000
00010000
00000000
01000000
00001000
00000000
00011000
00000000
,
00010000
00000100
00000000
00001000
00000001
00000000
00001001
00000000
,
00000200
00000020
00000000
00000330
00000100
00000010
00001001
00000000
,
00001000
00000000
00000100
00010000
00000100
00000000
00020000
00000000
00000000
00000000
00031000
00000000
01000000
00000000
00010000
00000000
,
00200000
00000000
00310000
02000000
00000000
03100000
10000000
00010000
,
10000000
00000000
01000000
10000000
01000000
00000000
00200000
00000000
00000000
00000000
00310000
00000000
01000000
00000000
00001000
00000000
,
00010000
00000000
00000100
00010000
00000100
00000000
00002000
00000000
00000000
00000000
00003001
00000000
00001000
00000000
00000001
00000000
,
00000010
00000000
00000100
00000010
00000100
00000000
00002000
00000000
00000000
00000000
00003100
00000000
00010000
00000000
00001000
00000000
,
02000000
00000000
03010000
00200000
00000000
01300000
10000000
00010000
,
20000000
00000000
30100000
02000000
00000000
03010000
00100000
10000000
,
00100000
00010000
01000000
00100000
10000000
00010000
10010000
00000000
,
00010000
00000000
01000000
00001000
01000000
00000000
00002000
00000000
00000000
00000000
00013000
00000000
00000100
00000000
00001000
00000000
,
00000020
00000000
00001030
00000200
00000000
00000310
00000001
00001000
,
00000001
00000000
00000100
00000001
00000100
00000000
00000020
00000000
00000000
00000000
00001030
00000000
00000100
00000000
00010000
00000000
,
00001000
00000000
01000000
00001000
01000000
00000000
00020000
00000000
00000000
00000000
10030000
00000000
00010000
00000000
10000000
00000000
,
00100000
00000000
01000000
00100000
01000000
00000000
00020000
00000000
00000000
00000000
01030000
00000000
00001000
00000000
00010000
00000000
,
00000200
00000000
00001300
00000020
00000000
00000130
00000001
00001000
,
00000002
00000010
00000013
00000200
00001000
00001300
00000010
00000001
,
00000010
00001000
00000100
00010000
00001000
00100000
00010000
01000000
,
02020000
00000000
00000000
00000000
,
03030000
00000000
00000000
00000000
;
