#TITLE:Break the Rule;
#SUBTITLE:;
#ARTIST:kors k feat. ЯIRE;
#TITLETRANSLIT:;
#SUBTITLETRANSLIT:;
#ARTISTTRANSLIT:;
#GENRE:;
#CREDIT:;
#MUSIC:Break the Rule.mp3;
#BANNER:;
#BACKGROUND:;
#CDTITLE:;
#SAMPLESTART:14.850;
#SAMPLELENGTH:14.769;
#SELECTABLE:YES;
#OFFSET:-0.080;
#BPMS:0.000=130.000;
#STOPS:28.000=0.462
,123.000=0.923
,185.000=0.462
;
#BGCHANGES:;
#FGCHANGES:;

//--------------- dance-single - eataninja ----------------
#NOTES:
     dance-single:
     eataninja:
     Beginner:
     3:
     0,0,0,0,0:
0000
0000
0000
0000
,
0000
0000
0000
0000
,
0000
0000
0000
0000
,
0000
0000
0000
0000
,
0010
0000
0010
0000
,
0100
0000
0100
0000
,
0001
0000
0001
0000
,
2002
3003
0000
0000
,
1000
0000
0010
0000
,
1000
0000
0010
0000
,
0100
0000
0001
0000
,
0100
0000
0001
0000
,
1000
0000
0100
0000
,
1000
0000
0100
0000
,
0010
0000
0001
0000
,
0010
0000
0001
0000
,
0000
1000
1000
1000
,
0000
1000
0000
0002
,
0000
0103
0000
0200
,
0000
0301
0000
1001
,
0000
0000
0000
0100
,
0000
0010
0000
0100
,
0100
0100
0000
2000
,
3000
0002
0003
0100
,
0000
0010
0000
0100
,
0000
0000
0000
0001
,
0000
0010
0000
0100
,
0100
0100
0000
1000
,
0000
0001
0000
1000
,
0000
0010
0000
0110
,
0000
0110
0000
2002
,
3003
0000
1000
0000
,
0010
0000
0100
0100
,
0000
0000
0001
0000
,
0010
0000
0100
0100
,
0000
0200
0000
1300
,
0000
2000
0000
3001
,
0000
0000
0100
0000
,
0010
0000
1000
1000
,
0000
0000
0001
0000
,
1000
0000
0100
0100
,
0000
0000
1000
0000
,
0001
0000
0100
0100
,
0000
0200
0000
0301
,
0000
0002
0000
1003
,
0000
1001
0000
1001
,
0000
0110
0000
0000
,
1000
0000
0100
0000
,
0001
0000
0100
0000
,
1000
0000
0100
0000
,
1000
1000
1000
0000
,
0001
0000
0100
0000
,
1000
0000
0100
0000
,
0001
0000
0100
0000
,
0001
0001
0001
0000
,
1000
0000
0010
0000
,
0001
0000
0010
0000
,
1000
0000
0010
0000
,
1000
1000
1000
0000
,
0001
0000
0010
0000
,
1000
0000
0010
0000
,
0001
0000
0010
0000
,
0001
0001
0001
0000
;

//--------------- dance-single - eataninja ----------------
#NOTES:
     dance-single:
     eataninja:
     Easy:
     5:
     0,0,0,0,0:
0000
0000
0000
0000
,
0000
0000
0000
0000
,
0000
0000
0000
0000
,
0000
0000
0000
0000
,
1000
0001
0010
0000
,
0001
1000
0010
0000
,
1000
0001
0100
0000
,
1001
0000
0000
1000
,
0010
1000
0010
0100
,
0001
0100
0001
0010
,
0001
0010
0001
0010
,
1000
0010
0001
1000
,
0010
1000
0010
0100
,
0001
0100
0001
1000
,
0100
1000
0100
0001
,
0100
1000
0000
0010
,
0100
0001
0000
0010
,
0100
1000
0000
0002
,
0000
1003
0000
0010
,
0100
0010
0000
1000
,
0001
0100
0000
0100
,
0001
0010
0100
1000
,
0010
0200
0300
1000
,
0001
0010
1000
0001
,
0010
0100
0100
1000
,
0010
0100
0100
1000
,
0100
0001
0000
0010
,
1000
0001
0100
1000
,
0001
0001
0100
0001
,
1000
1000
0100
0110
,
1000
1001
0010
0220
,
0330
1000
0001
1001
,
0000
0101
0101
0101
,
0000
0010
0100
1000
,
1000
0010
0100
0001
,
0000
2000
0000
0010
,
0000
3002
0000
0010
,
0000
1003
1000
0010
,
0100
0001
0010
0100
,
0000
1000
0001
1001
,
0000
0011
0011
0011
,
0000
0100
0010
1000
,
1000
0100
0010
0001
,
0000
2000
0000
0100
,
0000
3002
0000
0103
,
0000
1001
1000
0110
,
0010
1001
0000
0000
,
1000
0010
1000
0100
,
1000
0010
1000
0100
,
0010
0001
0100
0001
,
0010
0100
1000
1000
,
0001
0100
0001
0010
,
0001
0100
0001
0010
,
0100
1000
0010
1000
,
0100
0010
0001
0001
,
1000
0010
0001
0010
,
1000
0010
0001
0010
,
0100
0010
1000
0010
,
0100
0001
1000
1000
,
0001
0010
1000
0010
,
0001
0010
1000
0010
,
0100
0010
0001
0010
,
0100
1000
0001
0000
;

//--------------- dance-single - eataninja ----------------
#NOTES:
     dance-single:
     eataninja:
     Medium:
     8:
     0,0,0,0,0:
0000
0000
0000
0000
,
0000
0000
0000
0000
,
0000
0000
0000
0000
,
0000
0000
0000
0000
,
1000
0100
0001
0100
,
1000
0100
0001
0100
,
0010
1000
0010
0001
,
1001
0000
0020
0000
0230
0000
0301
1000
,
0001
0000
1000
0100
1000
0000
0001
0010
,
0001
0000
2000
0000
3010
0000
0100
0001
,
0100
0000
0001
1000
0001
0000
0010
0000
,
1000
0010
0001
0000
0011
0000
1000
0001
,
1000
0000
0001
0100
0001
0000
1000
0010
,
1000
0000
0002
0000
0013
0000
0100
1000
,
0100
0000
1000
0001
1000
0000
0010
0000
,
0001
0010
1000
0000
0000
0000
1001
0000
,
1000
0000
0100
0010
0001
0000
2000
0000
,
3010
0100
0000
0002
,
0000
0010
0000
0000
1003
0000
0001
0010
,
1000
0010
0100
0000
0000
0000
2000
0000
,
3010
0000
0100
0001
0010
0000
0100
0000
,
0001
0100
1000
0000
0001
0000
0101
0000
,
0010
0200
0000
0000
0000
0000
0301
0000
,
0010
1000
0100
0001
,
0001
0000
1000
0100
1000
0000
0001
0000
,
0001
0000
1000
0100
1000
0000
0010
0000
,
0100
0001
1000
0000
0000
0000
0010
0000
,
0001
0100
1000
0001
,
1000
0100
1000
0000
0001
0000
1000
0000
,
0001
0100
0001
0000
1000
0000
1010
0000
,
0100
0101
0010
2100
,
3001
0000
1000
0100
0001
0100
1000
0000
,
0000
0000
0001
0100
1000
0100
0010
0000
,
0000
0000
0100
0001
1000
0000
0100
1000
,
0001
0010
0100
1001
,
0000
2000
0010
3001
,
0000
0002
0010
1003
,
0000
0000
1000
0100
0001
0000
0100
0010
,
0001
0000
1000
0010
1000
0001
0100
0000
,
0000
0000
0001
0100
1000
0100
0001
0000
,
0000
0000
1000
0100
0001
0100
0010
0000
,
0000
0000
0100
1000
0001
0000
0100
0001
,
1000
0010
0100
1001
,
0000
0002
0010
1003
,
0000
2000
0010
3001
,
0000
0101
0001
1100
,
1000
0012
1000
1003
,
0001
0100
1000
0000
0100
0010
1000
0000
,
0001
0010
1000
0000
0010
0100
1000
0000
,
0001
0100
0001
0001
,
1000
0100
1000
0100
0010
0000
0001
0000
,
1000
0010
0001
0000
0010
0100
0001
0000
,
1000
0100
0001
0000
0100
0010
0001
0000
,
1000
0010
1000
1000
,
0001
0010
0001
0010
0100
0000
1000
0000
,
0001
0010
1000
0000
0001
1000
0010
0000
,
0001
1000
0010
0000
0001
0010
1000
0000
,
0001
0100
0010
0010
,
1000
0001
1000
0001
0010
0000
0100
0000
,
1000
0100
0001
0000
1000
0001
0100
0000
,
1000
0001
0100
0000
1000
0100
0001
0000
,
1000
0010
0100
0100
,
0001
0000
0000
0000
0010
0000
0000
0000
0100
0000
0000
1000
0000
0000
0001
0000
;

//--------------- dance-single - aboutblank ----------------
#NOTES:
     dance-single:
     aboutblank:
     Hard:
     12:
     0,0,0,0,0:
0000
0000
0000
0000
,
0000
0000
0000
0000
,
0000
0000
0000
0000
,
0000
0000
0000
0000
,
1000
0000
1000
0000
0010
0100
0010
0000
,
0001
0000
0001
0000
0010
0100
0010
0000
,
1000
0000
0100
0000
0010
0001
1000
0000
,
1001
0000
0000
0000
0000
0000
0001
1000
0001
0000
0000
0000
1000
0000
0010
0000
,
0100
0000
0010
0000
1000
0000
0000
1000
0000
0000
0001
0000
0100
0000
0010
0000
,
0100
0001
0010
0100
1000
0000
0001
0010
,
0100
0000
0010
0000
0001
0000
0000
0001
0000
0000
1000
0000
0010
0000
0100
0000
,
0001
0000
0100
0000
0010
0000
0000
0110
0000
0000
1001
0000
0000
0000
0001
0000
,
0010
0000
0100
0000
0010
0000
0000
0010
0000
0000
0001
0000
1000
0000
0010
0000
,
0100
0010
1000
0100
0010
0001
0000
1000
,
0100
0000
0010
0000
0100
0000
0000
0100
0000
0000
1000
0000
0001
0000
1000
0000
,
0010
0000
0100
0000
0001
0000
0000
0010
0000
0000
0010
0000
0002
0000
0000
0000
,
0100
0000
1000
0000
0103
0001
2000
0000
,
0100
0000
0010
0000
3100
1000
0020
0000
,
0130
0000
2000
0000
3001
0010
0100
0000
,
1000
0010
0100
0000
1001
0000
0002
0000
,
0100
2003
0100
3001
,
1000
0100
0010
0001
0100
0000
0010
0000
,
1000
0000
0010
0000
0200
0000
0000
0000
1000
0000
0000
0000
0301
0010
0000
0000
,
0001
0010
0000
0000
0100
1000
0000
0000
0100
1000
0000
0000
1001
0000
0000
0000
,
0001
0000
0000
0100
0001
0000
0001
0000
0010
0000
0100
0000
0000
0000
1000
0000
,
0001
0000
1000
0100
0000
0000
0100
0000
0010
0000
0001
0000
0100
0000
1000
0000
,
0100
0000
0001
1000
0000
0000
1000
0000
0100
0000
0010
0000
0001
1000
0000
0000
,
0001
1000
0000
0000
0010
0100
0000
0000
0010
0100
0000
0000
1001
0000
0000
0000
,
1000
0010
0100
0001
1000
0010
0000
0010
,
1000
0001
0000
0001
0010
0100
1001
0000
,
1000
0000
0010
0000
0110
0000
0000
0000
0001
0000
0010
0000
0110
0000
1000
0001
,
1000
0000
0010
0000
0100
0000
0000
0100
0000
0001
0000
1000
0001
0000
0000
0000
,
0001
0000
0010
0000
0100
0000
0000
0100
0000
1000
0000
0001
1000
0000
0010
0000
,
0100
0000
0001
0000
1000
0000
0100
0000
0010
0001
0000
0001
0000
0000
0100
0000
,
0010
0000
1000
0000
0001
0000
0010
0100
0000
1000
0000
1001
0000
0000
0000
0000
,
2000
0000
0100
0000
3002
0000
0000
0010
0000
0010
0000
2003
0100
0000
0000
0000
,
3002
0000
0100
0000
0100
0000
0000
0010
0000
0013
0000
2000
0000
0000
0001
0000
,
0001
0000
3001
0000
1000
0000
0100
0000
0010
0001
0000
1001
0000
0000
0001
0000
,
1000
0000
0001
0000
0100
0000
0010
0100
0000
0000
0001
0000
2000
0000
0000
0000
,
0001
0000
3100
0010
0100
0010
0001
1000
,
0001
1000
0001
0010
0001
0010
0100
1000
,
0100
0000
1000
0000
0010
0000
0100
0000
0001
0010
0000
0001
0000
0000
1000
0000
,
0100
0000
0010
0000
0001
0000
0100
0010
0000
1000
0000
1001
0000
0000
0000
0000
,
0001
0000
2000
0000
0100
0000
0100
3000
,
0002
0010
0010
1000
,
1003
0000
0000
0000
0001
0000
0010
0000
0100
1000
0000
0001
0000
0000
0001
0000
,
1000
0000
0010
0000
0101
0000
0000
0001
0010
0000
0010
0000
0100
0000
1000
0000
,
0010
0000
0001
0000
0010
0000
1000
0000
0010
0000
0000
0010
0000
0000
0100
0000
,
0001
0000
0100
0000
1000
0000
0001
0000
0010
0000
0000
1000
0000
0000
0100
0000
,
0000
0000
1000
0000
0100
0000
0001
0000
0100
0000
0000
0100
0000
0000
0010
0000
,
0001
0000
1000
0000
0010
0000
0100
0000
0101
0000
0000
0010
0000
0000
1100
0000
,
0000
0000
0100
0000
0010
0000
0100
0000
1000
0000
0000
0100
0000
0000
0010
0000
,
0001
0000
1000
0000
0010
0000
0100
0000
1000
0000
0000
0001
0000
0000
0010
0000
,
0000
0000
1000
0000
0100
0000
0010
0000
0100
0000
0000
0100
0000
0000
1000
0000
,
0001
0000
1000
0000
0010
0000
0100
0000
0011
0000
0000
0100
0000
0000
1010
0000
,
0000
0000
0001
1000
0001
0000
0100
0000
0010
0000
0000
0010
0000
0000
1000
0100
,
1000
0000
0001
0000
1000
0000
0001
0000
0100
0000
0000
0010
0000
0000
1000
0000
,
0000
0000
0001
0010
0001
0000
1000
0000
0010
0000
0000
0010
0000
0000
0001
0000
,
0010
0000
1000
0000
0100
0000
0001
0000
0100
0000
0000
1001
0000
0000
0110
0000
,
0000
0000
0001
0100
0001
0000
1000
0100
1000
0000
0000
0010
0000
0000
1000
0100
,
1000
0000
0001
0100
0001
0000
1000
0001
1000
0000
0000
0001
0000
0000
1000
0000
,
0000
0000
0100
1000
0100
0000
0010
0100
0010
0000
0000
0001
0000
0000
0010
0000
,
0100
0000
1000
0000
0100
0000
0001
0000
0100
0000
0000
0110
0000
0000
1001
0000
;

//--------------- dance-single - eataninja ----------------
#NOTES:
     dance-single:
     eataninja:
     Challenge:
     14:
     0,0,0,0,0:
0000
0000
0000
0000
,
0000
0000
0000
0000
,
0000
0000
0000
0000
,
0000
0000
0000
0000
,
1000
0000
0000
0100
0000
0000
1000
0000
0010
0000
0001
0000
0010
0000
1000
0000
,
0001
0000
0000
0100
0000
0000
0001
0000
0010
0000
1000
0000
0010
0000
0001
0000
,
1000
0000
0000
0010
0000
0000
0100
0000
1000
0000
0100
0000
0001
0000
1000
0000
,
2200
0000
0000
0000
3300
0000
1000
0010
1000
0010
0100
0000
0001
0000
1000
0100
,
0010
0000
1000
0010
0001
0000
0010
0200
0000
0000
1300
0001
1000
0000
0010
0100
,
0001
0000
1000
0010
0001
0000
0010
0200
0000
0000
0301
0000
0000
0000
1000
0001
,
0100
0000
1000
0100
0001
0000
1000
0020
0000
0000
0130
0000
1000
0000
0100
0000
,
0001
0000
0010
0000
0110
0000
0000
1001
0000
0000
0101
0000
0000
0000
0010
0100
,
0001
0000
0010
0100
1000
0000
0100
0002
0000
0000
0103
1000
0100
0000
1000
0001
,
0010
0000
1000
0010
0001
0000
1000
0020
0000
0000
0130
0000
0000
0000
1000
0100
,
0001
0000
0100
0010
0100
0000
0001
2000
0000
0000
3100
0000
0001
0000
0100
0000
,
1000
0010
0100
0000
0110
0000
0001
1000
,
0010
1000
0001
1000
0010
1000
0100
0001
,
0100
1000
0100
0001
0100
1000
0010
0100
,
0001
0100
0010
1000
0100
1000
0001
0010
,
0100
0010
1000
0010
0100
0010
0001
1000
,
0100
1000
0001
1000
0100
1000
0010
0001
,
0010
0100
0001
0010
0100
0010
0001
1000
,
0010
0001
0010
1000
0100
0010
2000
0000
,
3020
0000
0000
0000
0031
0000
0100
0010
0100
0000
0001
0000
1000
0000
0010
0000
,
0100
0000
0100
0001
0000
0000
1000
0000
0100
0000
1000
0000
0001
0000
0010
0000
,
0100
0000
0100
1000
0000
0000
0001
0000
0100
0000
0001
0000
1000
0000
0010
0000
,
0001
0010
0100
0001
0010
0000
2000
0000
,
3200
0000
0302
0000
0023
0000
0130
0010
,
0001
0000
0001
1000
0000
0000
0010
0000
0100
0000
0010
0000
1000
0000
0001
0000
,
0010
0000
0010
0100
0000
0000
1000
0000
0100
0000
0010
0000
0011
0000
1000
0000
,
0100
0000
0000
0000
1010
0000
0001
0000
0100
0000
0000
0000
2001
0000
3100
0010
,
0100
0010
0001
0000
1000
0000
0010
0001
0000
0010
0000
0100
0000
0000
0010
0000
,
1000
0000
0010
0000
0100
0000
0001
0010
0000
0100
0000
1000
0000
0000
0001
0000
,
0100
0000
1000
0000
0100
0000
0010
0000
0100
0001
0000
2000
0000
0000
3010
0000
,
0100
0000
0010
0000
1000
0000
0001
0010
0000
0100
0000
1001
0000
0000
1000
0000
,
0100
0000
0001
0000
0200
0000
0000
0010
0000
0010
0000
2300
0000
0000
0001
0000
,
3001
0000
0100
0000
0020
0000
0000
0001
0000
0001
0000
0230
0000
0000
0301
0000
,
1000
0000
0001
0000
0010
0000
1000
0000
0010
0100
0000
0020
0000
0000
0031
0000
,
1000
0000
0010
0000
0100
0000
0100
0001
0000
0010
0000
0220
0000
0000
0000
0000
,
0330
0000
0000
0000
0001
0000
0010
1000
0000
0010
0000
0100
0000
0000
0010
0000
,
0001
0000
0010
0000
0100
0000
1000
0010
0000
0100
0000
0001
0000
0000
1000
0000
,
0100
0000
0001
0000
0100
0000
0010
0000
0100
1000
0000
0002
0000
0000
0013
0000
,
0100
0000
0010
0000
0001
0000
1000
0010
0000
0100
0000
1001
0000
0000
0001
0000
,
0100
0000
1000
0000
0200
0000
0000
0010
0000
0010
0000
0302
0000
0000
0000
0000
,
1003
0000
1000
0000
0200
0000
0000
0010
0000
0010
0000
2300
0000
0000
3001
0000
,
0100
0010
0110
1000
0001
0100
0110
0001
,
1000
0000
0100
0000
0220
0000
0330
1000
0001
0000
0001
0000
0100
0000
0100
0000
,
0001
0000
1000
0100
0010
0000
1000
0010
0001
0000
0010
0200
0000
0000
1300
0001
,
1000
0000
0010
0100
0001
0000
0010
0100
0010
0000
0001
2000
0000
0000
3010
0000
,
0100
0000
1000
0100
0001
0000
0010
0100
1000
0000
0100
0020
0000
0000
0031
0000
,
1000
0000
0001
0000
0100
0000
1000
0000
1100
0000
0000
0110
0000
0000
0101
0000
,
0000
0000
0001
0100
1000
0000
0100
0010
1000
0000
0001
0020
0000
0000
0130
0001
,
0100
0000
0010
0001
1000
0000
0010
0100
0001
0000
1000
0200
0000
0000
0310
0000
,
0001
0000
1000
0010
0001
0000
0010
0100
0001
0000
0010
0200
0000
0000
1300
0000
,
0001
0000
1000
0000
0010
0000
0001
0000
0011
0000
0000
0110
0000
0000
1010
0000
,
0000
0000
1000
0100
1000
0000
0001
0100
0010
0000
0000
0110
0000
0000
2001
0000
,
0000
0000
3100
0001
0100
0000
0010
0001
1000
0000
0000
0010
0000
0000
0012
0000
,
0000
0000
0103
0010
1000
0000
0100
1000
0001
0000
0010
0200
0000
0000
0301
0000
,
0100
0000
1000
0000
0010
0000
0001
0000
0011
0000
0000
0110
0000
0000
0101
0000
,
0000
0000
1000
0001
1000
0000
0100
0001
0100
0000
0010
0002
0000
0000
1003
0010
,
0100
0000
1000
0100
0001
0000
0020
0000
1000
0000
0130
2000
0000
0000
3001
0100
,
0010
0000
0100
0010
0100
0000
0001
1000
0100
0000
0001
0200
0000
0000
1300
0000
,
0010
0000
0001
0000
0010
0000
1000
0000
1100
0000
0000
0101
0000
0000
1001
0000
;
