#TITLE:Boundcloud;
#SUBTITLE:;
#ARTIST:DJ Simon;
#TITLETRANSLIT:;
#SUBTITLETRANSLIT:;
#ARTISTTRANSLIT:;
#GENRE:;
#CREDIT:;
#MUSIC:Boundcloud.mp3;
#BANNER:;
#BACKGROUND:;
#CDTITLE:;
#SAMPLESTART:7.453;
#SAMPLELENGTH:25.846;
#SELECTABLE:YES;
#OFFSET:1.778;
#BPMS:0.000=130.000;
#STOPS:;
#BGCHANGES:;
#FGCHANGES:;

//--------------- dance-single - OrangeRight ----------------
#NOTES:
     dance-single:
     OrangeRight:
     Beginner:
     2:
     0,0,0,0,0:
0000
0000
0000
0000
,
0000
0000
0000
0000
,
0000
0000
0000
0000
,
0000
0000
0000
0000
,
0000
0000
0000
0000
,
1000
0000
0000
0000
,
0001
0000
1000
0000
,
0001
0000
0000
0000
,
0100
0000
0100
0000
,
0001
0000
0000
0000
,
1000
0000
0001
0000
,
1000
0000
0000
0000
,
0010
0000
0010
0000
,
1000
0000
0100
0000
,
0010
0000
0001
0000
,
0001
0001
0000
0000
,
0001
0000
1000
0000
,
0001
0000
0100
0000
,
0010
0010
0000
0000
,
1000
0000
0001
0000
,
1000
0000
0001
1000
,
0002
0000
0003
0000
,
1000
0000
0001
0000
,
1000
0000
0001
0000
,
0100
0000
0010
0000
,
2000
0000
3000
0000
,
0001
0000
1000
0000
,
0001
0000
1000
0000
,
0010
0000
0100
0000
,
0001
0000
0010
0000
,
0100
0000
1000
0000
,
1000
1000
0000
0000
,
1000
0000
0001
0000
,
1000
0000
0010
0000
,
0100
0100
0000
0000
,
0001
0000
1000
0000
,
0001
0000
1000
0001
,
1001
0000
0000
0000
,
0010
0000
0000
0000
,
1001
0000
0000
0000
,
0100
0000
0000
0000
,
1001
0000
0000
0000
,
1000
0000
0000
0000
,
1001
0000
1001
0000
,
1000
0001
1000
0001
,
2000
0000
3000
0000
,
1000
0000
1000
0000
,
0200
0000
0300
0000
,
0000
0000
0000
0000
,
0020
0000
0030
0000
,
0010
0000
0010
0000
,
0002
0000
0003
0000
,
0001
0000
0001
0000
,
1000
0000
0010
0000
,
0100
0000
0001
0000
,
0001
0001
0000
0000
,
0001
0000
1000
0000
,
0001
0000
0010
0000
,
0100
0100
0000
0000
,
1000
0000
0001
0000
,
1000
0000
0001
1000
,
0001
0000
0000
0000
,
1000
0000
0001
0001
;

//--------------- dance-single - OrangeRight ----------------
#NOTES:
     dance-single:
     OrangeRight:
     Easy:
     5:
     0,0,0,0,0:
0000
0000
0000
0000
,
0000
0000
0000
0000
,
0000
0000
0000
0000
,
0000
0000
0000
0000
,
0000
0000
0000
0000
,
0010
1000
1000
0010
,
0100
0001
0100
0001
,
1000
0100
0100
1000
,
0001
0100
0010
1000
,
0100
1000
1000
0100
,
0010
0001
0010
0001
,
1000
0010
0010
1000
,
0001
0010
0100
1000
,
0020
0030
0100
0001
,
0020
0030
0100
1000
,
0010
0100
0000
0100
,
0001
1000
0001
1000
,
0200
0300
0010
0001
,
0200
0300
0010
1000
,
0200
0300
1000
0001
,
1001
0000
0110
0000
,
1000
0100
0100
1000
,
0001
0100
1000
0100
,
0010
0010
1000
1000
,
0001
0010
0100
1000
,
0001
0100
0100
0001
,
1000
0100
0001
0100
,
0010
0010
0001
0001
,
1000
0010
0100
0001
,
2000
3000
0001
1000
,
0002
0003
0001
0001
,
0100
0010
0000
0010
,
1000
0100
0010
0001
,
0200
0300
0010
0100
,
0020
0030
0100
0010
,
0200
0300
0001
1000
,
2002
3003
0220
0330
,
1001
1001
0000
1000
,
0001
0000
1000
0000
,
1001
1001
0000
0001
,
1000
0000
0001
0000
,
0110
0110
0000
0100
,
0010
0000
0100
0000
,
0110
0110
1001
1001
,
1000
0100
0010
0100
,
2000
0000
3000
0000
,
0001
0100
1000
0100
,
0002
0000
0003
0000
,
0001
0100
0010
1000
,
0200
0000
0300
0000
,
0001
0100
1000
0100
,
0002
0003
0200
0300
,
1000
0100
0010
0001
,
2000
3000
0001
0100
,
0020
0030
0010
0010
,
1000
0100
0000
0010
,
0001
0100
1000
0100
,
0002
0003
1000
0100
,
0020
0030
0010
0001
,
0100
0010
1000
0100
,
0001
0100
1000
0001
,
2000
0000
3000
0000
,
1000
0000
0000
0100
0000
0000
0010
0000
0000
0001
0000
1001
;

//--------------- dance-single - OrangeRight ----------------
#NOTES:
     dance-single:
     OrangeRight:
     Medium:
     9:
     0,0,0,0,0:
0000
0000
0000
0000
,
0000
0000
0000
0000
,
0000
0000
0000
0000
,
0000
0000
0000
0000
,
0000
0000
0000
0000
,
2000
0001
0001
3001
,
0002
0203
0320
2030
,
3002
1000
1000
1000
,
0103
0010
1000
0000
0100
0010
0001
0000
,
2000
0100
0100
0100
,
3002
0023
0230
2300
,
3002
0010
0010
0013
,
0010
0100
1000
0000
0010
0100
0001
0000
,
2000
0000
0100
0000
0100
0000
3100
1000
,
0002
0000
0000
0000
0100
0000
0000
0000
0103
0000
0000
0001
0000
0000
1000
0000
,
0100
1000
0001
0000
0100
0001
1000
0000
,
2000
3200
0320
0032
,
2003
0000
0001
0000
3001
0000
1000
0001
,
0100
0010
0100
0000
0001
1000
0001
0000
,
0020
0000
0100
0000
0100
0000
0130
1000
,
0001
0000
0000
0000
0100
0000
0000
0000
0010
0000
0000
0100
0000
0000
0100
0000
,
0002
1000
1000
1003
,
2000
3020
0230
0302
,
1003
0000
0100
1000
0001
0000
0100
0001
,
0100
0010
0100
0001
0010
0100
2000
0000
,
3002
0010
0010
0010
,
2003
3200
0320
0032
,
1003
0000
0010
1000
0100
0000
0010
0001
,
0100
0010
0100
0001
0010
0100
1000
0000
,
2000
0000
0010
0000
0010
0000
3010
1000
,
0020
0000
0000
0000
0100
0000
0000
0000
0130
0000
0000
0010
0000
0000
1000
0000
,
0001
0100
0010
0000
1000
0001
0100
0000
,
0002
0023
0230
2300
,
3002
0000
1000
0000
1003
0000
0001
1000
,
0010
0100
0010
0000
1000
0001
1000
0000
,
0200
0000
0000
0000
0010
0000
0000
0000
0310
0000
0001
0000
0000
1000
0000
0000
,
0002
0103
1001
0110
,
1000
0001
0000
1000
0000
0000
0000
0000
0000
0000
0000
0000
0001
0000
1000
0001
,
0000
0100
0010
1000
,
0001
1000
0000
0001
0000
0000
0000
0000
0000
0000
0000
0000
1000
0000
0001
1000
,
0000
0010
0100
0001
,
1000
0100
0000
1000
0000
0000
0000
0000
0000
0000
0000
0000
0001
0000
0100
0001
,
0000
0010
0100
1000
,
0010
1000
0000
0010
0000
0000
0000
0000
0100
0001
0000
0100
0000
0000
0000
0000
,
0001
0000
0000
1000
0000
0000
0001
0000
1000
0000
0100
0000
0000
0010
0000
0000
,
0002
0100
0000
0100
,
2003
3020
0032
0023
,
2030
0010
0000
0100
,
3001
0000
0100
0000
0010
0000
1000
0001
,
2000
0010
0000
0010
,
3002
0023
2030
3020
,
0032
0100
0000
0100
,
1003
0000
0001
0000
0100
0010
0100
0010
,
2000
0000
0010
0000
0010
0000
3010
0100
,
0002
0000
0000
0000
0010
0000
0000
0000
0013
0000
0000
0100
0000
0000
1000
0000
,
0001
1000
0010
0000
1000
0001
0010
0000
,
0002
0203
2300
3200
,
0302
0000
0013
0000
0100
1000
0010
0100
,
0001
1000
0001
0000
0010
0100
0010
0000
,
0002
0000
0103
0000
0010
1000
0100
0000
,
2000
3100
0110
1001
,
1000
0001
0100
0010
,
1000
0000
1000
0100
0000
0100
0010
0000
0010
0001
0000
1001
;

//--------------- dance-single - OrangeRight ----------------
#NOTES:
     dance-single:
     OrangeRight:
     Hard:
     11:
     0,0,0,0,0:
0000
0000
0000
0000
,
0000
0000
0000
0000
,
0000
0000
0000
0000
,
0000
0000
0000
0000
,
0000
0000
0000
0000
,
2000
0001
0010
0100
,
3020
0230
0302
2003
,
3200
0001
0010
1000
,
0310
0000
0001
0000
0000
0100
0000
0000
0010
0000
0000
1000
0000
0001
1000
0000
,
0002
0010
0100
1000
,
0203
0302
0023
0230
,
0320
0001
0100
1000
,
0130
0000
1000
0000
0000
0010
0000
0000
0100
0000
0000
0001
0000
1000
0001
0000
,
2001
0000
0000
0000
0100
0000
0000
0000
3001
0000
0000
0000
0010
0000
0001
1000
,
0002
0000
0000
0000
1000
0000
0000
0000
0103
0000
0000
0010
0000
0000
1000
0000
,
0001
0000
0001
1000
0000
0000
0000
0000
0100
0000
1000
0001
0000
0000
0000
0000
,
0020
0032
0203
2300
,
3200
0000
0001
0000
0010
0000
1300
0100
,
0001
0000
0010
0100
0000
0000
0100
0000
1000
0000
0001
1000
0000
0000
1000
0000
,
0002
0000
0100
0000
1000
0000
0013
0100
,
1000
0000
0010
0000
0100
0000
0001
0000
1000
0001
0000
0100
0000
0000
0010
0000
,
2010
0000
0000
0000
3100
0000
0010
0000
0001
0000
0000
0100
0010
0000
1000
0000
,
1020
0230
0302
0023
,
2030
0000
3010
0001
0100
0000
0010
1000
,
0100
0000
1000
0000
0010
0000
0100
0000
0001
0000
0010
0000
0100
0010
0100
0000
,
0012
0000
0000
0000
0103
0000
0010
0000
1000
0000
0000
0010
0100
0000
0001
0000
,
0021
0032
0203
2300
,
3200
0000
0310
1000
0100
0000
0010
0001
,
0100
0000
0010
0000
1000
0000
0100
0000
0010
0000
0001
0000
1000
0001
1000
0000
,
0120
0000
0000
0000
1000
0000
0000
0000
0130
0000
0000
0001
0010
0000
0100
0000
,
0020
0000
0000
0000
0001
0000
0000
0000
0130
0000
0000
0100
1000
0000
0010
0000
,
0100
0000
0000
0000
0000
0000
0100
0000
0000
0001
0000
0000
0000
0000
0000
0000
0000
0000
0000
0000
0000
0000
0000
0000
1000
0000
0000
0000
0000
0000
0000
0000
0001
0000
0000
0000
0000
0000
0000
0000
0100
0000
0000
0000
0000
0000
0000
0000
,
0002
0203
2300
3200
,
0320
0000
0000
0000
1030
0000
0100
0000
0010
0000
0001
0010
0000
0000
0100
0000
,
1000
0000
0001
1000
0000
0000
1000
0000
0010
0000
0100
0000
0001
0000
0000
0000
,
0002
0000
0000
0000
0100
0000
0000
0000
1003
0000
0100
0000
0000
0010
0000
0000
,
0001
0000
0100
0000
0010
0000
1000
0000
0001
1000
0000
0001
1000
0000
0001
0000
,
1000
0001
0000
0001
0000
0000
0010
0100
0000
0100
0000
0000
0100
0000
1000
0002
,
0000
0100
0010
1003
,
0001
0100
0000
0001
0000
0000
1000
0010
0000
1000
0000
0000
1000
0000
0001
0200
,
0000
0010
1000
0301
,
1000
0001
0000
0100
0000
0000
0001
1000
0000
0100
0000
0000
0100
0000
0010
0002
,
0000
0010
1000
0103
,
0001
0100
0000
0101
0000
0000
0000
0000
1000
0100
0000
1100
0000
0000
0000
0000
,
1000
0000
0000
0001
0000
0000
1000
0000
0001
0000
0200
0000
0000
0320
0000
0000
,
2030
0100
0001
0010
,
3002
0203
2300
3200
,
0302
0100
1000
0010
,
1003
0100
0010
0001
1000
0010
0100
0001
,
0200
0001
0010
1000
,
0320
2030
3200
0302
,
0203
0001
0010
1000
,
0310
0000
0001
0000
0100
0000
0010
0000
1000
0000
0100
0000
1000
0010
1000
0010
,
0200
0000
0000
0000
1000
0000
0000
0000
0301
0000
0000
0100
0010
0000
1000
0001
,
2000
0000
0000
0000
0001
0000
0000
0000
3010
0000
0000
0010
1000
0000
0100
0000
,
0010
0000
0000
0000
0000
0000
0001
0000
0000
0010
0000
0000
0000
0000
0000
0000
0000
0000
0000
0000
0000
0000
0000
0000
0100
0000
0000
0000
0000
0000
0000
0000
1000
0000
0000
0000
0000
0000
0000
0000
0001
0000
0000
0000
0000
0000
0000
0000
,
2000
3020
0032
0023
,
2030
0000
0000
0000
3001
0000
0010
0000
0100
0000
1000
0010
0000
0000
0100
0001
,
0100
0000
0001
1000
0000
0000
0001
0000
0100
0000
0010
0000
1000
0000
0000
0000
,
2000
0000
0000
0000
0100
0000
0000
0000
3001
0000
0010
0000
0000
0100
0000
0000
,
1000
0000
0010
0000
0100
0000
0001
0000
1000
0001
0000
0001
1000
0000
0001
0000
,
0100
0010
1000
0001
,
1000
0100
0010
0001
1000
0010
0100
0001
0010
0100
1000
0001
;

//--------------- dance-single - aboutblank ----------------
#NOTES:
     dance-single:
     aboutblank:
     Challenge:
     13:
     0,0,0,0,0:
0000
0000
0000
0000
,
0000
0000
0000
0000
,
0000
0000
0000
0000
,
0000
0000
0000
0000
,
0000
0000
0000
0000
,
2000
0000
0000
0000
0010
0000
0000
0000
3010
0000
0000
0100
0001
0000
0000
0000
,
2000
3200
0302
0023
,
2030
0000
0000
0000
3100
0000
0000
0000
0100
0010
0000
0001
1000
0000
0000
0000
,
0002
0000
0010
0000
0013
0000
0000
0000
0001
0100
0000
0010
1000
0000
0000
0000
,
0002
0000
0000
0000
1000
0000
0000
0000
0103
0000
0000
0100
0010
0000
0000
0000
,
2000
3200
0302
0023
,
2030
0000
0000
0000
3001
0000
0000
0000
1000
0100
0000
1000
0100
0000
0000
0000
,
0020
0000
0001
0000
0031
0000
1000
0000
0010
0100
0000
0010
0100
0000
0000
0000
,
0021
0000
0000
0000
1030
0000
0000
0000
0001
0000
0000
0001
0100
0000
0010
0001
,
0020
0000
0000
0000
0130
0000
0000
0000
1010
0000
0000
1000
0001
0000
0100
0000
,
0010
0000
1000
0001
2000
0000
0000
0000
0100
0000
0000
3100
0000
0000
0010
0000
,
1100
1010
0011
0101
,
2001
0000
0000
0000
3010
0000
0000
0000
0100
0000
0000
0100
0010
0000
1000
0010
,
1000
0000
0001
0200
0000
0000
0000
0000
0310
0000
0000
1000
0100
0000
0000
0000
,
0021
0000
0000
0000
0130
0000
0000
0000
1000
0000
0000
1000
0010
0000
0100
0001
,
0200
0000
0000
0000
0000
0000
1300
0000
0000
0000
0000
0000
0001
0000
0010
0000
0000
0010
1000
0000
0000
0100
0000
0000
,
0120
0000
0000
0000
0001
0000
0000
0000
1030
0000
0000
0001
0100
0000
0010
0000
,
0201
2300
3020
0032
,
0203
0000
0000
0000
0310
0000
0010
1000
0200
0000
0000
0000
0310
0000
0010
0001
,
0200
0000
0310
1000
0200
0000
0310
0001
0200
0000
0310
1000
0100
0010
0001
0100
,
0020
0000
0000
0000
1030
0000
0000
0000
0001
0000
0000
0001
0010
0000
0100
0000
,
1020
0032
0203
2300
,
3020
0000
0000
0000
0130
0000
0100
0001
0020
0000
0000
0000
0130
0000
0100
1000
,
0010
0000
0100
0001
0010
0000
0100
1000
0010
0000
0100
0001
0010
0100
1000
0010
,
2000
0000
0000
0000
3001
0000
0000
0000
1000
0010
0000
1000
0010
0000
0100
0000
,
0021
0000
0000
0000
1030
0000
0000
0000
0001
0000
0000
0001
0100
0000
0010
0000
,
0001
0000
0000
0000
0000
0000
1000
0000
0000
0001
0000
0000
2000
0000
0000
0000
0000
0000
0000
0000
0000
0000
0000
0000
3010
0000
0000
0000
0000
0000
0000
0000
0100
0000
0000
0000
0000
0000
0000
0000
0001
0000
0000
0000
0000
0000
0000
0000
,
0011
1100
1010
0101
,
1002
0000
0000
0000
0013
0000
0000
0010
0100
0000
0010
0001
0000
0000
1000
0001
,
0010
0000
0100
2000
0000
0000
3001
0000
1000
0000
0010
1000
0000
0000
0010
0000
,
0200
0000
0000
0000
1300
0000
0001
0000
0010
0000
1000
0000
0000
0100
0010
0000
,
0001
0000
0000
0100
0000
0000
0001
0000
0000
0100
0000
0000
0001
0000
0000
0000
0000
0000
1000
0000
0000
0000
0000
0000
0010
0000
0000
0000
0100
0000
0000
0000
0000
0000
0001
0000
1000
0000
0000
0000
0000
0000
0100
0000
0000
0000
0000
0000
,
0001
0100
0000
0100
0000
0000
1000
0010
0000
0010
0000
0000
0001
0000
0010
2000
,
0000
3200
0302
0023
,
0130
1000
0000
1000
0000
0000
0010
0001
0000
0001
0000
0000
1000
0000
0100
0002
,
0000
0023
2030
3200
,
0310
0001
0000
0001
0000
0000
0100
1000
0000
1000
0000
0000
0001
0000
0010
2000
,
0000
3020
0032
0203
,
1300
0001
0000
1001
0000
0000
0000
0000
0100
0010
0000
0110
0000
0000
0000
0000
,
0001
0000
0000
0010
0000
0000
0001
0000
0000
0010
0000
0000
0001
0000
0000
0000
0000
0000
1000
0000
0000
0000
0000
0000
0010
0000
0000
0000
0100
0000
0000
0000
0000
0000
0100
0000
0001
0000
0000
0000
0000
0000
1000
0000
0000
0000
0000
0000
,
0001
0100
1000
0100
,
0002
0023
2030
3200
,
0301
0000
0010
0001
0010
0001
0000
0000
0100
0001
0100
0001
0000
0000
1000
0000
,
0010
0000
1000
0100
1000
0100
0000
0000
1000
0010
1000
0010
0000
0000
0100
0000
,
0001
1000
0010
0100
,
0001
0010
0100
1000
,
0001
0000
0010
0100
0010
0100
0000
0000
1000
0001
1000
0001
0000
0000
0100
0000
,
0001
0000
0000
0000
0000
0000
0100
0000
0000
0010
0000
0000
0100
0000
0000
0010
0000
0000
0000
0000
0000
0000
0000
0000
1000
0000
0000
0000
0010
0000
0000
0000
0000
0000
0100
0000
0001
0000
0000
0000
0000
0000
1000
0000
0000
0000
0000
0000
,
0201
0000
0000
1000
0000
0000
0301
0000
1000
0000
0100
0000
,
0020
0000
0000
0000
0031
0000
0000
0000
0100
0000
0000
0100
1000
0000
0001
0000
,
0010
0000
0000
0000
0000
0000
1000
0000
0000
0100
0000
0000
0020
0000
0000
0000
0000
0000
0000
0000
0000
0000
0000
0000
0031
0000
0000
0000
0000
0000
0000
0000
1000
0000
0000
0000
0000
0000
0000
0000
0010
0000
0000
0000
0000
0000
0000
0000
,
0200
0302
2003
3020
,
2030
0000
0000
0000
3100
0000
0100
0000
0010
0001
0010
0001
0000
0000
0100
0001
,
1000
0000
0010
0200
0000
0000
0301
0000
1000
0000
0010
1000
0000
0000
0000
0000
,
0002
0000
0000
0000
0013
0000
0000
0000
0100
0000
1000
0000
0000
0010
0000
0000
,
1000
0000
0000
0001
0000
0000
1000
0000
0000
0001
0000
0000
1000
0000
0000
0000
0000
0000
0010
0000
0000
0000
0000
0000
0100
0000
0000
0000
0001
0000
0000
0000
0000
0000
1000
0000
0010
0000
0000
0000
0000
0000
0100
0000
0000
0001
0000
0000
,
0100
1000
0100
0001
0100
1000
0100
0001
,
0010
0100
0010
0001
0100
0010
1000
0100
0010
0001
0100
0110
;

//--------------- dance-double - OrangeRight ----------------
#NOTES:
     dance-double:
     OrangeRight:
     Easy:
     4:
     0,0,0,0,0:
00000000
00000000
00000000
00000000
,
00000000
00000000
00000000
00000000
,
00000000
00000000
00000000
00000000
,
00000000
00000000
00000000
00000000
,
00000000
00000000
00000000
00000000
,
01000000
00010000
00010000
01000000
,
00001000
00010000
00001000
00010000
,
00000200
00000300
00020000
00030000
,
00001000
00010000
00000100
00000000
,
00000100
00001000
00001000
00000100
,
00010000
00001000
00010000
00001000
,
02000000
03000000
00002000
00003000
,
00010000
00001000
01000000
00000000
,
00200000
00300000
01000000
00010000
,
00200000
00300000
00001000
00010000
,
00000200
00000300
00001000
00000100
,
00000010
00000001
00000010
00000001
,
00000100
00000010
00000010
00000100
,
00000001
00000001
00001000
00000000
,
00000200
00000300
00010000
00001000
,
02000000
03000000
00100000
01000000
,
00010000
01000000
01000000
00010000
,
00100000
00001000
00100000
00001000
,
00020000
00030000
00002000
00003000
,
00010000
00001000
00010000
00000100
,
00001000
00000010
00000010
00001000
,
00000100
00010000
00000100
00010000
,
00002000
00003000
00020000
00030000
,
00001000
00010000
00001000
00100000
,
02000000
03000000
10000000
00010000
,
02000000
03000000
00010000
00100000
,
00002000
00003000
00010000
00001000
,
00010000
00000100
00001000
00000010
,
00000200
00000300
00000001
00000010
,
00000200
00000300
00001000
00000010
,
00020000
00030000
00001000
00010000
,
00002000
00003000
00020000
00030000
,
00001000
00001000
00000000
00001000
,
00100000
00000000
00000000
00000000
,
00010000
00010000
00000000
01000000
,
00001000
00000000
00100000
00000000
,
00001000
00001000
00000000
00010000
,
00000100
00000000
00001000
00000000
,
00000010
00000010
00001000
00001000
,
00000100
00010000
00001000
01000000
,
00020000
00000000
00000000
00030000
,
10000000
01000000
00100000
00010000
,
02000000
00000000
00000000
03000000
,
00010000
00100000
00001000
00010000
,
00002000
00000000
00000000
00003000
,
00010000
00000100
00001000
00000010
,
00000200
00000000
00000000
00000300
,
00000001
00001000
00000001
00001000
,
00000200
00000300
00000010
00000001
,
00000200
00000300
00000010
00010000
,
00002000
00003000
00001000
01000000
,
00010000
00100000
01000000
10000000
,
00100000
01000000
01000000
00100000
,
10000000
10000000
00010000
00000000
,
00200000
00300000
00001000
00010000
,
00000020
00000030
00000100
00000010
,
00001000
00000000
00000000
00000000
,
00000100
00000000
00000000
00000010
00000000
00000000
00000001
00000000
00000000
00001000
00000000
00001001
;

//--------------- dance-double - OrangeRight ----------------
#NOTES:
     dance-double:
     OrangeRight:
     Medium:
     9:
     0,0,0,0,0:
00000000
00000000
00000000
00000000
,
00000000
00000000
00000000
00000000
,
00000000
00000000
00000000
00000000
,
00000000
00000000
00000000
00000000
,
00000000
00000000
00000000
00000000
,
20000000
00010000
00010000
30010000
,
02000000
03020000
00230000
00302000
,
00023000
00001000
00001000
00001000
,
00031000
00010000
00000100
00000000
00001000
00000100
00000010
00000000
,
00000002
00001000
00001000
00001003
,
00000020
00002030
00003200
00020300
,
00032000
00010000
00010000
00010000
,
00013000
00001000
00100000
00000000
00010000
00100000
01000000
00000000
,
20000000
00000000
01000000
00000000
30010000
00000000
01000000
00100000
,
02000000
03010000
00100000
00001000
,
00010000
00001000
00010000
00000000
00000100
00001000
00000100
00000000
,
00000020
00000032
00000203
00000302
,
00002003
00000000
00000001
00000000
00003100
00000000
00000010
00000001
,
00000100
00000000
00000010
00001000
00000100
00000000
00010000
00000000
,
00002000
00000000
00010000
00000000
00010000
00000000
00013000
00001000
,
00200000
00000000
00000000
00000000
00310000
00000000
00000000
00000000
01000000
00000000
00000000
01000000
00000000
00000000
01000000
00000000
,
00020000
10000000
10000000
10030000
,
02000000
03002000
00023000
00030200
,
00001300
00000000
00000100
00000010
00000001
00000000
00000010
00000100
,
00001000
00000010
00000100
00000001
00001000
00000001
00001000
00000001
,
00002000
00000001
00000001
00003001
,
00000020
00020030
00032000
00203000
,
00310000
00000000
00100000
01000000
10000000
00000000
01000000
00100000
,
00010000
10000000
00010000
10000000
00100000
01000000
00010000
00100000
,
00002000
00000000
00010000
00000000
00010000
00000000
00013000
00000100
,
00020000
00000000
00000000
00000000
00001000
00000000
00000000
00000000
00031000
00000000
00000000
00010000
00000000
00000000
00001000
00000000
,
01000000
00010000
01000000
00000000
00100000
10000000
00100000
00000000
,
20000000
32000000
03200000
00320000
,
20030000
00000000
01000000
00000000
30010000
00000000
00010000
10000000
,
00010000
10000000
00010000
00000000
00100000
00001000
00100000
00000000
,
00002000
00010000
00100000
01003000
,
00010000
01000000
00001000
00000000
00010000
00000100
00001000
00000000
,
00001000
00000000
00000000
00001000
00000000
00000000
00000000
00000000
00000000
00000000
00000000
00000000
00000001
00000000
00000000
00000001
,
00000000
00000100
00000010
00001000
,
00000001
00000000
00000000
00000001
00000000
00000000
00000000
00000000
00000000
00000000
00000000
00000000
00001000
00000000
00000000
00001000
,
00000000
00000100
00010000
00001000
,
00010000
00000000
00000000
00010000
00000000
00000000
00000000
00000000
00000000
00000000
00000000
00000000
00001000
00000000
00000000
00001000
,
00000000
01000000
00010000
10000000
,
00010000
00000000
00000000
10000000
00000000
00000000
00000000
00000000
00100000
00000000
00000000
01000000
00000000
00000000
00000000
00000000
,
00010000
00000000
00000000
10000000
00000000
00000000
00010000
00000000
10000000
00000000
00010000
00000000
00000000
10000000
00000000
00000000
,
02000000
00100000
00100000
03100000
,
00200000
02300000
23000000
30020000
,
02030000
03001000
00020000
00030100
,
00001000
00000001
00001000
00000010
00000100
00000001
00001000
00000001
,
00000200
00000010
00000010
00000310
,
00000020
00000230
00000302
00002003
,
00003200
00010300
00002000
01003000
,
00010000
01000000
00010000
00100000
00010000
10000000
00010000
10000000
,
00020000
00000000
01000000
00000000
00130000
00000000
00100000
00010000
,
02000000
00000000
00000000
00000000
00010000
00000000
00000000
00000000
03001000
00000000
00000000
00010000
00000000
00000000
00001000
00000000
,
00010000
00000100
00010000
00000000
00000100
00001000
00000100
00000000
,
00000020
00000032
00002003
00003200
,
00002300
00000000
00000100
00000000
00003010
00000000
00000010
00000100
,
00000002
00000000
00000100
00000000
00001003
00000000
00001000
00000001
,
00002000
00000001
00000001
00003100
,
00001100
00000000
00000011
00000000
00001000
00000001
00001000
00000000
,
00000001
00000100
00000010
00001000
,
00000100
00000000
00000100
00000010
00000000
00000010
00000001
00000000
00000001
00001000
00000000
00001001
;

//--------------- dance-double - OrangeRight ----------------
#NOTES:
     dance-double:
     OrangeRight:
     Hard:
     12:
     0,0,0,0,0:
00000000
00000000
00000000
00000000
,
00000000
00000000
00000000
00000000
,
00000000
00000000
00000000
00000000
,
00000000
00000000
00000000
00000000
,
00000000
00000000
00000000
00000000
,
10000000
01000000
00100000
00010000
01000000
00100000
01000000
00000000
,
00002000
00023000
00030200
00002300
,
00003001
00000100
00000010
00001000
00000100
00000010
00000100
00000000
,
00001000
00000000
00000100
00000000
00000000
00000010
00000000
00000000
00000001
00000000
00000000
00001000
00000000
00001000
00000001
00000000
,
00001000
00000010
00000100
00000001
00000010
00000100
00001000
00000000
,
00000200
00020300
00032000
02003000
,
03100000
10000000
00010000
01000000
00010000
10000000
01000000
00000000
,
10000000
00000000
01000000
00000000
00000000
00100000
00000000
00000000
00010000
00000000
00000000
10000000
00000000
00010000
10000000
00000000
,
20010000
00000000
00000000
00000000
01000000
00000000
00000000
00000000
30010000
00000000
00000000
00000000
00100000
00000000
00010000
10000000
,
00020000
00000000
00000000
00000000
01000000
00000000
00000000
00000000
00130000
00000000
00000000
00001000
00000000
00000000
00010000
00000000
,
00000100
00000000
00001000
00000001
00000000
00000000
00000000
00000000
00000100
00000000
00000001
00001000
00000000
00000000
00000000
00000000
,
00000002
00000203
00002300
00003200
,
00000302
00000000
00000000
00000000
00000100
00000000
00000000
00000000
00001003
00000000
00000000
00000000
00000010
00000000
00001000
00000001
,
00001000
00000000
00000010
00001000
00000000
00000000
00000100
00000000
00010000
00000000
00001000
00010000
00000000
00000000
00001000
00000000
,
00020000
00000000
00000000
00000000
00000100
00000000
00000000
00000000
00001000
00000000
00000000
00000000
00030100
00000000
00001000
00000001
,
00002000
00000000
00000000
00000000
00000010
00000000
00000000
00000000
00003001
00000000
00000000
00000100
00000000
00000000
00000010
00000000
,
00001000
00000000
00000100
00000000
00000010
00000000
00000001
00000000
00000100
00000000
00000000
00000010
00000000
00000000
00000100
00000000
,
00000002
00000203
00002300
00003200
,
00000301
00000000
00000010
00000001
00000100
00000000
00000010
00001000
,
00000100
00000000
00010000
00000000
00001000
00000000
00100000
00000000
00010000
00000000
01000000
00000000
00100000
01000000
00100000
00000000
,
10000000
00000000
01000000
00000000
00100000
00000000
00010000
00000000
10000000
00000000
00000000
00010000
00000000
00000000
10000000
00000000
,
00020000
02030000
23000000
32000000
,
03010000
00000000
00100000
01000000
10000000
00000000
00100000
01000000
,
00010000
00000000
00100000
00000000
00001000
00000000
00010000
00000000
00000100
00000000
00001000
00000000
00000001
00001000
00000001
00000000
,
00001002
00000000
00000000
00000000
00000100
00000000
00000000
00000000
00001003
00000000
00000000
00000010
00000100
00000000
00000001
00000000
,
00002000
00000000
00000000
00000000
00000100
00000000
00000000
00000000
00003010
00000000
00000000
00010000
00000000
00000000
00001000
00000000
,
00100000
00000000
00000000
00000000
00000000
00000000
00010000
00000000
00000000
00100000
00000000
00000000
00000000
00000000
00000000
00000000
00000000
00000000
00000000
00000000
00000000
00000000
00000000
00000000
00010000
00000000
00000000
00000000
00000000
00000000
00000000
00000000
10000000
00000000
00000000
00000000
00000000
00000000
00000000
00000000
00010000
00000000
00000000
00000000
00000000
00000000
00000000
00000000
,
00200000
02300000
23000000
30200000
,
02300000
00000000
00000000
00000000
00010000
00000000
00000000
00000000
03001000
00000000
00010000
00001000
00000000
00000000
00001000
00000000
,
00010000
00000000
00000100
00001000
00000000
00000000
00000010
00000000
00000100
00000000
00000001
00000000
00000010
00000000
00000000
00000000
,
00000012
00000000
00000000
00000000
00000100
00000000
00000000
00000000
00001003
00000000
00002010
00000000
00000000
00000100
00000000
00000000
,
00003001
00000000
00001000
00000000
00000100
00000000
00010000
00001000
00020000
00000000
00000000
00000000
00032000
00000000
00000000
00000000
,
01003000
00010000
00000000
01010000
00000000
00000000
01000000
00000000
00000000
00010000
00000000
00000000
00100000
00000000
00001000
00100000
,
00000000
00100000
00001000
00010000
,
00001000
00010000
00000000
00011000
00000000
00000000
00010000
00000000
00000000
00000100
00000000
00000000
00001000
00000000
00000100
00000010
,
00000000
00000010
00000100
00001000
,
00000010
00001000
00000000
00001010
00000000
00000000
00001000
00000000
00000000
00000100
00000000
00000000
00010000
00000000
00001000
00010000
,
00000000
00001000
01000000
00100000
,
10000000
00100000
00000000
10100000
00000000
00000000
00000000
00000000
01000000
00010000
00000000
01010000
00000000
00000000
00000000
00000000
,
01000000
00000000
00000000
00001000
00000000
00000000
00010000
00000000
00000100
00000000
00001000
00000000
00000000
00000001
00000000
00000000
,
00000012
00000000
00000000
00000000
00001000
00000000
00000000
00000000
00000100
00000000
00000000
00000010
00000000
00000000
00000100
00000000
,
00002003
00003020
00020030
00032000
,
00203000
10000000
01000000
00010000
,
01300000
10000000
00100000
01000000
00010000
00100000
01000000
10000000
,
21000000
00000000
00000000
00000000
00010000
00000000
00000000
00000000
00100000
00000000
00000000
01000000
00000000
00000000
00100000
00000000
,
30020000
02030000
03002000
00023000
,
00030200
00000001
00000010
00001000
,
00000310
00000000
00000001
00000000
00001000
00000000
00000010
00000000
00010000
00000000
00001000
00000000
00100000
00010000
00100000
00010000
,
10000000
00000000
00100000
00000000
01000000
00000000
00010000
00000000
00100000
00000000
01000000
00000000
00100000
00000000
00010000
01000000
,
00001000
00000000
00010000
00000000
00000010
00000000
00001000
00000000
00000100
00000000
00001000
00000100
00000000
00000010
00000001
00000000
,
00000100
00000000
00000010
00000100
00000000
00000000
00000100
00000000
00000001
00000000
00000010
00000000
00000100
00000000
00001000
00000000
,
00000010
00010000
00001000
00010000
00000100
00010000
00001000
00100000
,
00010000
00000000
01000000
00000000
00100000
00000000
10000000
00000000
01000000
00000000
00100000
00000000
00010000
00000000
10000000
00100000
,
10000000
00000000
00010000
01000000
00000000
00000000
01000000
00000000
00010000
00000000
00100000
00000000
00001000
00000000
00010000
00000000
,
00002000
00000000
00000000
00000000
01000000
00000000
00000000
00000000
00013000
00000000
00000100
00000000
00000000
00001000
00000000
00000000
,
00000010
00000000
00000100
00000000
00000001
00000000
00001000
00000000
00000001
00001000
00000000
00001000
00000001
00000000
00000010
00000000
,
00000100
00001000
00000010
00000100
,
00000001
00000010
00000100
00001000
00000010
00010000
00001000
00100000
00010000
01000000
00100000
10000000
;
