#TITLE:Bossa Brosa!;
#SUBTITLE:;
#ARTIST:oo39.com;
#TITLETRANSLIT:;
#SUBTITLETRANSLIT:;
#ARTISTTRANSLIT:;
#GENRE:;
#CREDIT:;
#MUSIC:Bossa Brosa!.mp3;
#BANNER:;
#BACKGROUND:;
#CDTITLE:;
#SAMPLESTART:0.000;
#SAMPLELENGTH:0.000;
#SELECTABLE:YES;
#OFFSET:1.325;
#BPMS:0.000=172.000;
#STOPS:;
#BGCHANGES:;
#FGCHANGES:;

//--------------- dance-single - OrangeRight ----------------
#NOTES:
     dance-single:
     OrangeRight:
     Beginner:
     4:
     0,0,0,0,0:
0000
0000
0000
0000
,
0000
0000
0000
0000
,
0000
0000
0000
0000
,
0000
0000
0000
0000
,
0000
0000
0000
0000
,
0000
0000
0000
0000
,
0000
0000
0000
0000
,
0000
0000
0000
0000
,
0000
0000
0000
0000
,
1000
0000
1000
0000
,
1000
0000
0000
0000
,
0001
0000
0001
0000
,
0001
0000
0000
0000
,
1000
0000
1000
0000
,
1000
0000
0000
0000
,
0001
0000
1000
0000
,
0001
0000
0000
0000
,
1000
0000
0100
0000
,
1000
0000
0100
0000
,
0010
0000
0001
0000
,
1000
0000
1000
0000
,
0001
0000
0100
0000
,
0001
0000
0100
0000
,
0010
0000
1000
0000
,
0001
0000
0001
0000
,
1000
0000
0010
0000
,
1000
0000
0010
0000
,
0100
0000
0001
0000
,
1000
0000
1000
0000
,
0001
0000
0010
0000
,
0001
0000
0010
0000
,
0100
0000
1000
0000
,
0001
0000
0001
0000
,
1000
0000
0000
0000
,
1000
0000
0100
0000
,
0010
0000
0000
0000
,
0010
0000
0000
0000
,
0001
0000
0000
0000
,
0001
0000
0100
0000
,
0010
0000
0000
0000
,
0010
0000
0000
0000
,
1000
0000
0000
0000
,
1000
0000
0001
0000
,
0100
0000
0000
0000
,
0100
0000
0001
0000
,
1000
0000
0000
0000
,
0100
0000
0010
0000
,
0001
0000
0000
0000
,
1001
0000
0000
0000
,
1000
0000
0000
0000
,
1000
0000
0000
0000
,
0001
0000
0000
0000
,
0001
0000
0000
0000
,
1000
0000
0000
0000
,
0001
0000
0000
0000
,
0100
0000
0000
0000
,
0010
0000
0000
0000
,
1000
0000
0100
0000
,
1000
0000
0100
0000
,
0010
0000
0001
0000
,
0100
0000
0100
0000
,
0001
0000
0100
0000
,
0001
0000
0100
0000
,
0010
0000
1000
0000
,
0100
0000
0100
0000
,
1000
0000
0001
0000
,
1000
0000
0001
0000
,
0100
0000
0010
0000
,
1000
0000
1000
0000
,
0001
0000
1000
0000
,
0001
0000
1000
0000
,
0100
0000
0010
0000
,
0001
0000
0001
0000
,
1000
0000
0100
0000
,
0010
0000
0001
0000
,
0100
0000
0010
0000
,
0100
0000
0100
0000
,
0001
0000
0100
0000
,
0010
0000
1000
0000
,
0100
0000
0100
0000
,
0010
0000
0010
0000
,
0001
0000
0100
0000
,
0001
0000
0100
0000
,
0010
0000
1000
0000
,
0100
0000
0010
0000
,
0001
0000
1000
0000
,
0001
0000
1000
0000
,
0010
0000
0100
0000
,
0001
0000
1000
0000
,
0001
0000
0100
0000
;

//--------------- dance-single - OrangeRight ----------------
#NOTES:
     dance-single:
     OrangeRight:
     Easy:
     6:
     0,0,0,0,0:
0000
0000
0000
0000
,
0000
0000
0000
0000
,
0000
0000
0000
0000
,
0000
0000
0000
0000
,
0000
0000
0000
0000
,
0000
0000
0000
0000
,
0000
0000
0000
0000
,
0000
0000
0000
0000
,
0000
0000
0000
0000
,
1000
0100
1000
0000
,
0001
0100
0001
0000
,
1000
0100
1000
0000
,
0001
0100
0001
0000
,
1000
0010
1000
0000
,
0001
0010
0001
0000
,
1000
0010
1000
0000
,
2002
0000
3003
0000
,
0001
0100
0010
1000
,
0100
0010
0100
0000
,
1000
0100
0010
0001
,
2000
3001
0000
0000
,
0001
0010
0100
1000
,
0010
0100
0010
0000
,
1000
0001
0100
0010
,
2000
3000
0002
0003
,
1000
0100
0010
0100
,
1000
0010
0100
0000
,
0001
0100
0010
1000
,
0002
1003
0000
0000
,
0001
0010
0100
0010
,
0001
0100
0010
0000
,
1000
0010
0100
0001
,
1000
0001
0010
0100
,
2000
0000
3100
0010
,
0002
0000
0103
0010
,
1000
0001
1000
0000
,
0001
1000
0001
0000
,
2000
0000
3010
0100
,
0002
0000
0013
0100
,
1000
0001
1000
0000
,
0100
0010
0001
1000
,
0010
0010
0100
0000
,
0100
0100
0001
1000
,
0001
0001
0100
0000
,
0010
0010
1000
0100
,
1000
1000
0001
0000
,
0001
0001
1000
0000
,
1000
0001
1000
0010
,
0200
0000
0310
0000
,
2000
0000
3000
0000
,
0002
0000
0003
0000
,
2000
0000
3000
0000
,
0002
0000
0003
0000
,
2000
0000
3000
0000
,
0200
0000
0300
0000
,
0020
0030
0002
0003
,
1000
0001
1000
0001
,
1000
0100
0010
0100
,
1000
0001
0100
0000
,
0001
0100
0010
1000
,
0002
1003
0000
0000
,
0001
0100
0010
0100
,
0001
1000
0100
0000
,
1000
0100
0010
0001
,
1000
0001
1000
0001
,
1000
0100
0010
0100
,
1000
0010
1000
0010
,
0100
0001
1000
0100
,
0020
0130
0000
0000
,
1000
0010
0100
0010
,
1000
0100
1000
0100
,
1000
0001
0100
0010
,
2000
3000
0002
0003
,
2000
0000
3100
0010
,
0001
0100
0010
1000
,
0002
0000
1003
0010
,
0200
0301
1000
0001
,
2000
0000
3010
0100
,
0001
1000
0100
0000
,
0020
0000
0130
1000
,
0001
0100
0010
1000
,
0001
0010
0001
0100
,
0010
1000
0001
0000
,
1000
0100
0010
0001
,
2000
3001
0000
0000
,
1000
0100
1000
0010
,
0100
0001
0010
0100
,
1000
0001
0100
0010
,
1000
1001
0001
1001
,
1000
0000
0010
0100
0000
0000
0000
0000
;

//--------------- dance-single - OrangeRight ----------------
#NOTES:
     dance-single:
     OrangeRight:
     Medium:
     10:
     0,0,0,0,0:
0000
0000
0000
0000
,
0000
0000
0000
0000
,
0000
0000
0000
0000
,
0000
0000
0000
0000
,
0000
0000
0000
0000
,
0000
0000
0000
0000
,
0000
0000
0000
0000
,
0000
0000
0000
0000
,
0000
0000
0000
0000
,
1000
1000
0001
0100
,
0010
1000
0100
1000
,
0001
0001
1000
0100
,
0010
0001
0100
0001
,
1000
1000
0010
0100
,
0010
1000
0100
0010
,
0001
0000
0100
0000
0010
0000
1000
0001
,
0000
1000
0000
0001
1000
0000
0001
0000
,
1000
0000
0100
1000
0000
0100
0000
1000
,
0000
0001
0100
0001
0000
0000
1000
0000
,
0001
0000
1000
0001
1000
0001
0000
0200
,
0000
0301
1000
0001
,
1000
0000
0010
1000
0000
0010
0000
1000
,
0000
0001
0010
0001
0000
0000
1000
0000
,
0001
0000
0100
0010
0100
0010
0000
0020
,
0000
1030
0001
1000
,
0001
0000
0010
0100
0000
0010
0000
0001
,
0000
0100
0001
0100
0000
0000
0010
0000
,
0100
0000
0001
0010
0001
0010
0000
0200
,
0000
1300
0001
1000
,
0001
0000
0100
0010
0000
0100
0000
0001
,
0000
0010
0001
0010
0001
0000
0010
0000
,
0100
0000
1000
0001
1000
0001
0000
0200
,
0000
0310
1000
0100
,
2000
0010
3010
0000
,
0200
0001
0301
0000
,
0010
0010
0100
1000
,
0010
0100
0001
1000
,
0002
0010
0013
0000
,
0200
1000
1300
0000
,
1000
1000
0001
0100
,
0010
1000
0100
1000
,
0002
0100
0103
0000
,
0020
1000
1030
0000
,
2000
0100
3100
0000
,
0020
0001
0031
0000
,
2000
0001
3100
0000
,
0002
1000
0103
0000
,
0200
0010
0310
0000
,
2002
0000
3003
0000
,
1000
0000
0001
0000
1000
0000
0000
0010
,
0000
0100
0000
0010
0000
0000
1000
0000
,
0001
0000
0010
0000
0001
0000
0000
1000
,
0000
0100
0000
1000
0000
0000
0000
0000
,
0001
0000
1000
0000
0001
0000
0000
0100
,
0000
0010
0000
0100
0000
0000
0000
0000
,
0010
0000
1000
0000
0010
0000
0100
0001
,
0000
0100
0000
0010
1000
0000
0001
0000
,
1000
0000
0100
0010
0000
0001
0000
1000
,
0000
0010
0100
0010
1000
0000
0001
0000
,
1000
0000
0100
0010
0001
0010
0000
0002
,
0000
1003
0001
0100
,
0001
0000
0100
0010
0000
1000
0000
0001
,
0000
0010
0100
0010
0001
0000
1000
0000
,
0001
0000
0100
0010
1000
0001
0000
1000
,
0000
0001
0000
0010
0000
0100
0000
0000
,
1000
0000
0100
0010
0000
0001
0000
1000
,
0000
0010
0100
0010
0000
1000
0001
1000
,
0000
0000
1000
0100
0010
0001
0000
2000
,
0000
0000
3001
0100
0000
0100
0001
0000
,
1000
0000
0010
0100
0000
0001
0000
1000
,
0000
0100
0010
0100
0000
1000
0001
1000
,
0000
0000
0001
1000
0010
0100
0000
0001
,
0000
1001
0000
1000
0000
1001
0000
0001
,
2000
0010
0100
0010
,
3001
0000
0001
0100
0010
0000
1000
0000
,
0002
0010
0100
0010
,
2003
3001
1000
0100
,
2000
0100
0010
0100
,
3001
0000
0001
0010
0100
0000
1000
0000
,
0002
0100
0010
0100
,
1003
0001
0000
0100
0000
0010
0000
1000
,
0001
0000
0010
0100
0000
1000
0000
0010
,
0000
0100
0001
1000
0001
0000
0100
0000
,
0001
0000
0100
0010
1000
0100
0000
2100
,
0000
0000
3001
0000
0100
0010
0100
0000
,
0001
0000
0100
0001
0000
1000
0000
0010
,
0000
0100
0010
1000
0100
0000
1100
0000
,
1000
0000
0100
0010
0001
0100
0000
0101
,
0000
0001
0100
0001
0000
1000
0100
1000
,
0000
0001
1000
0001
0000
0000
0000
0000
;

//--------------- dance-single - OrangeRight ----------------
#NOTES:
     dance-single:
     OrangeRight:
     Hard:
     12:
     0,0,0,0,0:
0000
0000
0000
0000
,
0000
0000
0000
0000
,
0000
0000
0000
0000
,
0000
0000
0000
0000
,
0000
0000
0000
0000
,
0000
0000
0000
0000
,
0000
0000
0000
0000
,
0000
0000
0000
0000
,
0000
0000
0000
0000
,
1000
0000
0001
0000
0100
0001
1000
0100
,
0000
1100
0000
1000
0001
0000
1001
0000
,
0001
0000
1000
0000
0010
1000
0001
0010
,
0000
0011
0000
0010
0100
0000
0110
0000
,
0100
0000
1000
0000
0010
0100
0001
1000
,
0000
1001
0000
1000
0100
0000
1100
0000
,
0010
0000
0001
0000
0100
0010
1000
0002
,
0000
1000
0000
1000
1003
0000
0010
0000
,
1000
0000
0100
1000
0010
1000
0100
1000
,
0001
0010
0100
1000
0010
0000
1000
0000
,
0001
0000
0010
0001
0100
0010
0000
2010
,
0000
0100
3100
0000
1000
0001
1000
0000
,
0001
0000
0100
0001
0010
0001
0100
0001
,
1000
0010
0100
0001
0010
0000
0001
0000
,
1000
0000
0001
1000
0010
0100
0000
0101
,
0000
0001
1000
0010
0100
0001
0010
0001
,
1000
0000
0100
0010
0100
1000
0010
0100
,
0010
1000
0001
0100
0001
0000
0101
0000
,
0001
0000
0010
0001
0100
0010
0000
2010
,
0000
0000
3001
0000
0100
0001
0100
0000
,
0001
0000
0100
0010
0100
0001
0010
0100
,
0010
0001
0100
0010
1000
0000
1100
0000
,
1000
0000
0010
1000
0100
0010
0000
0012
,
0000
1003
0010
0100
0001
0010
0100
1000
,
0002
0000
0010
0000
1003
0001
0000
2000
,
0000
0100
0000
3001
0100
0010
1000
0000
,
0001
0000
1000
0000
0010
1000
0001
0010
,
0000
0001
0000
0100
0010
1000
0001
0000
,
2000
0000
0010
0000
3001
1000
0000
0002
,
0000
0100
0000
1003
0100
0010
0001
0000
,
1000
0000
0001
0000
0100
0001
1000
0100
,
0000
1000
0010
0100
0010
1000
0100
0010
,
0011
0000
0011
0000
0001
0100
0010
1000
,
0000
1010
0000
1000
0001
0100
0001
0000
,
0101
0000
0101
0000
0001
0010
0100
1000
,
0000
1010
0000
1000
0001
0100
0010
0000
,
1010
0000
1010
0000
1000
0100
0010
0001
,
0000
0011
0000
0001
0100
0010
0100
0000
,
0101
0000
0101
0000
0001
0010
0100
2000
,
0000
0001
0000
0001
3001
0000
1000
0001
,
2000
0100
3001
0000
,
0002
0100
1003
0000
,
2000
0010
3001
0000
,
0002
0010
1003
0000
,
2000
0010
3002
0010
,
0203
0010
0310
0100
,
0002
0100
2003
0100
,
3020
0000
0100
0000
1030
0001
1000
0000
,
1000
0000
0010
1000
0000
1010
0000
0101
,
0000
0001
1000
0100
0010
0000
0001
0000
,
1000
0000
0001
0010
0100
1000
0010
0200
,
0000
0001
0301
0000
0101
0000
1010
0000
,
1000
0000
0100
1000
0000
1100
0000
0011
,
0000
0001
1000
0010
0100
0000
0001
0000
,
1000
0000
0001
0010
1000
0010
0000
0011
,
0000
0101
0000
0110
0000
1010
0000
1000
,
0001
0000
0010
0001
0000
0011
0000
1100
,
0000
1000
0001
0100
0000
0001
1000
0100
,
1000
0000
0001
0010
0100
1000
0010
2000
,
0000
0100
0100
3002
0000
0100
0103
0000
,
0001
0000
0100
0001
0000
0101
0000
1010
,
0000
1000
0001
0010
0000
0001
1000
0010
,
1000
0000
0001
0100
1000
0100
0000
0101
,
0000
0011
0000
0110
0000
0100
1000
0010
,
2000
0010
0100
0010
,
0001
0000
0100
0000
3001
0100
0010
1000
,
0002
0100
0010
0100
,
1000
0000
0010
0000
0103
0010
1000
0001
,
0200
1000
0001
1000
,
0010
0000
0001
0000
0310
1000
0100
0010
,
0200
1000
0001
0010
,
1300
1100
0000
0110
0000
0011
0000
1000
,
0001
0000
0100
0010
0100
1000
0100
0010
,
0100
0001
0010
0100
1000
0010
0100
0001
,
1000
0000
0100
0010
0100
0001
0100
2000
,
0000
0001
3001
0000
1000
0100
0010
0001
,
1000
0000
0010
0100
0010
0001
0010
0100
,
0010
1000
0100
0010
0001
0100
0010
1000
,
0001
0000
0010
1000
0010
0001
0100
0010
,
1000
0100
0010
0001
1000
0010
0100
0001
,
1000
0001
1000
1001
0000
0000
0000
0000
;

//--------------- dance-double - OrangeRight ----------------
#NOTES:
     dance-double:
     OrangeRight:
     Easy:
     6:
     0,0,0,0,0:
00000000
00000000
00000000
00000000
,
00000000
00000000
00000000
00000000
,
00000000
00000000
00000000
00000000
,
00000000
00000000
00000000
00000000
,
00000000
00000000
00000000
00000000
,
00000000
00000000
00000000
00000000
,
00000000
00000000
00000000
00000000
,
00000000
00000000
00000000
00000000
,
00000000
00000000
00000000
00000000
,
10000000
00010000
10000000
00000000
,
00010000
01000000
00010000
00000000
,
01000000
00001000
01000000
00000000
,
00001000
00010000
00001000
00000000
,
00010000
00000100
00010000
00000000
,
00000100
00001000
00000100
00000000
,
00001000
00000001
00001000
00000000
,
00002002
00000000
00003003
00000000
,
00000001
00000000
00001000
00000000
,
00000100
00010000
00001000
00000000
,
00010000
00000000
00000100
00000000
,
00001000
00000010
00000100
00000000
,
00000001
00000000
00001000
00000000
,
00000010
00010000
00001000
00000000
,
00100000
00000000
00010000
01000000
,
00020000
00030000
20000000
30000000
,
00010000
00000000
00100000
00000000
,
01000000
10000000
00010000
00000000
,
01000000
00000000
00001000
00000000
,
00010000
00001000
00100000
00000000
,
00010000
00000000
10000000
00000000
,
00010000
01000000
00001000
00000000
,
00010000
00001000
00010000
00000100
,
00002000
00003000
00000020
00000030
,
00000100
00000001
00001000
00000000
,
00000100
00001000
00000001
00000000
,
00001000
00000100
00001000
00000000
,
00000001
00000100
00000001
00000000
,
00000010
00000001
00001000
00000000
,
00000010
00001000
00000001
00000000
,
00001000
00000001
00001000
00000000
,
00000100
00010000
00001000
00000000
,
00100000
00100000
00010000
00000000
,
00010000
00010000
01000000
00000000
,
01000000
01000000
00100000
00000000
,
00100000
00100000
10000000
00000000
,
10000000
00010000
01000000
00000000
,
00010000
10000000
01000000
00000000
,
10000000
00100000
01000000
00010000
,
20000000
00000000
30000000
00000000
,
20000000
00000000
30000000
00000000
,
00020000
00000000
00030000
00000000
,
20000000
00000000
30000000
00000000
,
00020000
00000000
00030000
00000000
,
00200000
00000000
00300000
00000000
,
00002000
00000000
00003000
00000000
,
00020000
00030000
00002000
00003000
,
02000000
03000000
00020000
00030000
,
10000000
00000000
00010000
00000000
,
00100000
00001000
00010000
00000000
,
00001000
00000000
00100000
00000000
,
00010000
01000000
00100000
00000000
,
10000000
00000000
00010000
00000000
,
01000000
00001000
00010000
00000000
,
00000100
00000000
00001000
00000010
,
00001000
00000001
00001000
00000001
,
00001000
00000000
00000100
00000000
,
00000010
00000001
00001000
00000010
,
00001000
00000000
00000100
00000000
,
00010000
00001000
01000000
00010000
,
10000000
00000000
01000000
00000000
,
00100000
00010000
10000000
00100000
,
01000000
00000000
00010000
00000000
,
00100000
00001000
00010000
00000100
,
00002000
00000000
00000100
00000000
,
00003100
00010000
00001000
00100000
,
00020000
00000000
01000000
00000000
,
01030000
00001000
00010000
00000010
,
00002000
00000000
00000010
00000000
,
00003010
00010000
00001000
01000000
,
00020000
00000000
00100000
00000000
,
00130000
00010000
01000000
00100000
,
10000000
00100000
10000000
00000000
,
00010000
00100000
00001000
00010000
,
00000100
00001000
00000100
00000000
,
00000010
00000001
00000100
00000000
,
00000001
00000100
00000001
00000000
,
00001000
00000100
00010000
00001000
,
00100000
00010000
00100000
00000000
,
00010000
10010000
10000000
10010000
,
00010000
00000000
01000000
00100000
00000000
00000000
00000000
00000000
;

//--------------- dance-double - OrangeRight ----------------
#NOTES:
     dance-double:
     OrangeRight:
     Medium:
     10:
     0,0,0,0,0:
00000000
00000000
00000000
00000000
,
00000000
00000000
00000000
00000000
,
00000000
00000000
00000000
00000000
,
00000000
00000000
00000000
00000000
,
00000000
00000000
00000000
00000000
,
00000000
00000000
00000000
00000000
,
00000000
00000000
00000000
00000000
,
00000000
00000000
00000000
00000000
,
00000000
00000000
00000000
00000000
,
10000000
00000000
10000000
00000000
00010000
00000000
01000000
00010000
,
00000000
00010000
00000000
00100000
00001000
00000000
00010000
00000000
,
00001000
00000000
00001000
00000000
00010000
00000000
00000100
00001000
,
00000000
00001000
00000000
00000010
00000100
00000000
00000001
00000000
,
00001000
00000000
00001000
00000000
00000001
00000000
00000010
00000100
,
00000000
00000100
00000000
00001000
00000100
00000000
00010000
00000000
,
00001000
00000000
00001000
00000000
00010000
00000000
00001000
01000000
,
00000000
01000000
00000000
01000000
00100000
00000000
10000000
00000000
,
00010000
00000000
01000000
00001000
00000000
00001000
00000000
00010000
,
00000000
00010000
00000100
00000000
00001000
00000000
00000010
00000000
,
00001000
00000000
00000100
00001000
00000100
00001000
00000000
00000020
,
00000000
00000130
00000001
00001000
,
00000001
00000000
00000010
00000100
00000000
00000100
00000000
00001000
,
00000000
00000100
00010000
00000000
00001000
00000000
00010000
00000000
,
00000100
00000000
00001000
00000001
00001000
00000001
00000000
00000200
,
00000000
00000310
00000100
00000010
,
00001000
00000000
00000100
00010000
00000000
00010000
00000000
00001000
,
00000000
00001000
01000000
00000000
00010000
00000000
00100000
00000000
,
00010000
00000000
01000000
00010000
01000000
00010000
00000000
00200000
,
00000000
01300000
10000000
00100000
,
10000000
00000000
00100000
01000000
00000000
01000000
00000000
00010000
,
00000000
01000000
00001000
00000000
00010000
00000000
00001000
00000000
,
01000000
00000000
00010000
10000000
00010000
10000000
00000000
02000000
,
00000000
03100000
00010000
10000000
,
00020000
01000000
01030000
00000000
,
02000000
00010000
03010000
00000000
,
00010000
01000000
00001000
00010000
,
00000100
00001000
00000010
00000000
,
00002000
00000100
00003100
00000000
,
00000200
00001000
00001300
00000000
,
00000100
00010000
00001000
00100000
,
00010000
01000000
00100000
10000000
,
00020000
00100000
00130000
00000000
,
02000000
10000000
13000000
00000000
,
20000000
00100000
30100000
00000000
,
02000000
00010000
03010000
00000000
,
00020000
01000000
00130000
00000000
,
00200000
00010000
00301000
00000000
,
00002000
00010000
00013000
00000000
,
00022000
00000000
00033000
00000000
,
00010000
00000000
00001000
00000000
01000000
00000000
00000000
00001000
,
00000000
00010000
00000000
00000100
00000000
00000000
00000000
00000000
,
00010000
00000000
00001000
00000000
00100000
00000000
00000000
00001000
,
00000000
00010000
00000000
00000010
00000000
00000000
00000000
00000000
,
00001000
00000000
00000001
00000000
00001000
00000000
00000000
00000100
,
00000000
00000010
00000000
00000100
00000000
00000000
00000000
00000000
,
00001000
00000000
00000100
00000000
00010000
00000000
00000000
00001000
,
00000000
00100000
00000000
00010000
10000000
00000000
00010000
00000000
,
10000000
00000000
01000000
00100000
00000000
01000000
00000000
10000000
,
00000000
00100000
01000000
00100000
01000000
00000000
00010000
00000000
,
00100000
00000000
00001000
00010000
00001000
00010000
00000000
00000200
,
00000000
00001300
00000010
00000100
,
00000001
00000000
00000010
00000100
00000000
00000010
00000000
00000001
,
00000000
00000100
00000010
00000100
00000010
00000000
00001000
00000000
,
00000100
00000000
00010000
00001000
00010000
00001000
00000000
00100000
,
00000000
00010000
00000000
01000000
00000000
00100000
00000000
00000000
,
10000000
00000000
01000000
10000000
00000000
00100000
00000000
01000000
,
00000000
00010000
10000000
00010000
00000000
10000000
00010000
10000000
,
00000000
00000000
00010000
01000000
00010000
01000000
00000000
00002000
,
00000000
00000000
00013000
00000100
00000000
00000100
00001000
00000000
,
00000001
00000000
00000010
00000001
00000000
00000100
00000000
00000010
,
00000000
00001000
00000001
00001000
00000000
00000001
00001000
00000001
,
00000000
00000000
00001000
00000010
00001000
00000010
00000000
00010000
,
00000000
00011000
00000000
00001000
00000000
00011000
00000000
00000000
,
00200000
00001000
00010000
00001000
,
00310000
00000000
00100000
00001000
00010000
00000000
00000100
00000000
,
00002000
00000010
00000100
00000010
,
00003100
00010000
00001000
00010000
,
00000020
00010000
00001000
00010000
,
00001030
00000000
00000010
00010000
00001000
00000000
01000000
00000000
,
00020000
00100000
01000000
00100000
,
01030000
00001000
00000000
00010000
00000000
00001000
00000000
00010000
,
00000100
00000000
00001000
00000010
00000000
00000100
00000000
00000001
,
00000000
00001000
00000001
00001000
00000001
00000000
00000100
00000000
,
00000001
00000000
00001000
00000100
00000010
00000001
00000000
00000102
,
00000000
00001003
00000100
00010000
,
00001000
00000000
00100000
00010000
00000000
01000000
00000000
00100000
,
00000000
10000000
00100000
10000000
00000000
00000000
01000000
00000000
,
10000000
00000000
00100000
01000000
00010000
10000000
00000000
10010000
,
00000000
10000000
01000000
10000000
00000000
00010000
01000000
00010000
,
00000000
10000000
00010000
10000000
00000000
00000000
00000000
00000000
;

//--------------- dance-double - OrangeRight ----------------
#NOTES:
     dance-double:
     OrangeRight:
     Hard:
     12:
     0,0,0,0,0:
00000000
00000000
00000000
00000000
,
00000000
00000000
00000000
00000000
,
00000000
00000000
00000000
00000000
,
00000000
00000000
00000000
00000000
,
00000000
00000000
00000000
00000000
,
00000000
00000000
00000000
00000000
,
00000000
00000000
00000000
00000000
,
00000000
00000000
00000000
00000000
,
00000000
00000000
00000000
00000000
,
10000000
00000000
00100000
00000000
01000000
00010000
00100000
00010000
,
00000000
01010000
00000000
01000000
00001000
00000000
00010000
00000000
,
00001000
00000000
00100000
00000000
00001000
00010000
00000100
00001000
,
00000000
00001010
00000000
00000010
00000100
00000000
00000001
00000000
,
00001000
00000000
00000100
00000000
00000010
00000001
00000100
00000010
,
00000000
00000110
00000000
00000010
00001000
00000000
00000100
00000000
,
00010000
00000000
00001000
00000000
00100000
00010000
01000000
00200000
,
00000000
10000000
00000000
10000000
10300000
00000000
00010000
00000000
,
10010000
00000000
10000000
01000000
00000000
01100000
00000000
00110000
,
00000000
00010000
01000000
00001000
00010000
00000000
00001000
00000000
,
00010000
00000000
00000100
00001000
00000010
00000100
00000000
00000210
,
00000000
00000001
00000301
00000000
00001000
00000001
00001000
00000000
,
00001001
00000000
00000001
00000100
00000000
00000110
00000000
00001010
,
00000000
00001000
00000100
00010000
00001000
00000000
01000000
00000000
,
00010000
00000000
10000000
00010000
00100000
01000000
00000000
21000000
,
00000000
30010000
01000000
00100000
10000000
01000000
00100000
00010000
,
10010000
00000000
10000000
00100000
00010000
00100000
10000000
01000000
,
00100000
00010000
01000000
00001000
00010000
00000000
00001000
00000000
,
00010000
00000000
00000100
00001000
00000010
00000100
00000001
00002000
,
00000000
00000001
00003001
00000000
00001000
00000001
00001000
00000000
,
00001001
00000000
00000001
00000010
00001000
00000010
00000001
00000100
,
00000010
00001000
00000100
00010000
00001000
00000000
00010000
00000000
,
00001000
00000000
00100000
00010000
01000000
00100000
10000000
10020000
,
00000000
10030000
01000000
00100000
00010000
01000000
00100000
10000000
,
00020000
00000000
01000000
00000000
10030000
00010000
00000000
20000000
,
00000000
01000000
00000000
30010000
10000000
00000000
00010000
00000000
,
02000000
00000000
00001000
00000000
03001000
00010000
00000100
00001000
,
00000000
00001100
00000000
00001000
00000001
00000000
00001001
00000000
,
00002000
00000000
00000100
00000000
00003001
00001000
00000000
00000002
,
00000000
00000010
00000000
00001003
00000001
00000000
00001000
00000000
,
00000020
00000000
00010000
00000000
00010030
00001000
00100000
00010000
,
00000000
00010000
01000000
00010000
00100000
01000000
10000000
00100000
,
20000000
00000000
01000000
00000000
30010000
01000000
00100000
20000000
,
00000000
00010000
00000000
30100000
01000000
00010000
00100000
00001000
,
00020000
00000000
00000100
00000000
00031000
00010000
00000100
00002000
,
00000000
00000010
00000000
00003001
00000010
00000100
00001000
00000000
,
00000002
00000000
00000100
00000000
00001003
00000100
00000010
00000002
,
00000000
00001000
00000000
00000013
00000100
00001000
00000010
00010000
,
00002000
00000000
01000000
00000000
00013000
00001000
01000000
00020000
,
00000000
10000000
00000000
10000000
10030000
00000000
00010000
00000000
,
20000000
00000000
00010000
00000000
,
30100000
01000000
00010000
01000000
,
00002000
00000000
00100000
00000000
,
00013000
00000100
00001000
00000001
,
00002000
00000010
00003002
00000010
,
00000203
00000010
00000310
00000100
,
00000002
00000010
00002003
00000010
,
00003200
00000000
00000010
00000000
00001300
00000001
00001000
00000000
,
00001001
00000000
00000001
00000100
00000000
00000110
00000000
00001010
,
00000000
00001000
00000100
00010000
00001000
00000000
00010000
00000000
,
00001000
00000000
01000000
00010000
00100000
01000000
00000000
02100000
,
00000000
10000000
13000000
00000000
00010000
10000000
00010000
00000000
,
10010000
00000000
10000000
01000000
00000000
01100000
00000000
00110000
,
00000000
00010000
01000000
00001000
00010000
00000000
00000100
00000000
,
00001000
00000000
00000001
00001000
00000010
00000100
00000000
00000201
,
00000000
00000310
00000000
00001200
00000000
00000310
00000000
00000001
,
00001001
00000000
00000001
00000010
00001000
00000010
00000001
00000100
,
00000010
00001000
00000100
00010000
00000000
00010000
00001000
01000000
,
00010000
00000000
01000000
00010000
00100000
01000000
00000000
21000000
,
00000000
00010000
30010000
01020000
00000000
10000000
10030000
00000000
,
10010000
00000000
10000000
01000000
00010000
01000000
10000000
00100000
,
01000000
00010000
00100000
00001000
00000000
00001000
00010000
00000010
,
00001000
00000000
00000010
00001000
00000100
00000010
00000000
00000012
,
00000000
00000103
00000000
00002010
00000000
00003100
00000010
00000001
,
00002000
00000010
00000100
00000010
,
00000001
00000000
00000100
00000000
00003010
00010000
00001000
00100000
,
00020000
01000000
10000000
00100000
,
02030000
00000000
00100000
00000000
03010000
01000000
00100000
10000000
,
00020000
00100000
01000000
00100000
,
10000000
00000000
01000000
00000000
00130000
00001000
00010000
00000010
,
00002000
00000100
00000001
00000010
,
00003100
00001000
00000000
00001010
00000000
00000110
00000000
00000101
,
00001001
00000000
00000001
00000010
00000100
00000010
00001000
00000010
,
00000001
00000100
00000010
00001000
00000100
00000000
00010100
00000000
,
00010000
00000000
00001000
00100000
00010000
01000000
00100000
10200000
,
00000000
01000000
01300000
00000000
01000000
00010000
10000000
00000000
,
10010000
00000000
10000000
00100000
01000000
00100000
00010000
00100000
,
10000000
01000000
00100000
00010000
01000000
00000000
01001000
00000000
,
00001000
00000000
00010000
00000010
00001000
00000100
00000010
00000001
,
00001000
00000010
00000100
00000001
00001000
00000100
00000010
00000001
,
00001000
00000001
00001000
00001001
00000000
00000000
00000000
00000000
;
