#TITLE:Boom Boom Pow;
#SUBTITLE:;
#ARTIST:The Black Eyed Peas;
#TITLETRANSLIT:;
#SUBTITLETRANSLIT:;
#ARTISTTRANSLIT:;
#GENRE:;
#CREDIT:;
#MUSIC:Boom Boom Pow.ogg;
#BANNER:;
#BACKGROUND:;
#CDTITLE:;
#SAMPLESTART:44.316;
#SAMPLELENGTH:15.000;
#SELECTABLE:YES;
#OFFSET:1.739;
#BPMS:0.000=130.000
,84.000=133.000
,88.000=132.000
,92.000=130.000
;
#STOPS:;
#BGCHANGES:1.739=Boom Boom Pow.avi=1.000=1=0=0=StretchNoLoop==CrossFade==,
99999.000=-nosongbg-=1.000=0=0=0=StretchNoLoop====
;
#FGCHANGES:;

//--------------- dance-single - forcednature ----------------
#NOTES:
     dance-single:
     forcednature:
     Beginner:
     3:
     0,0,0,0,0:
0000
0000
0000
0000
,
0000
0000
0000
0000
,
0000
0000
0000
0000
,
0000
0000
0000
0000
,
0000
0000
0000
0000
,
1000
0000
0000
0000
,
0001
0000
0000
0000
,
0100
0000
0000
0000
,
0010
0000
0000
0000
,
1000
0000
0000
0000
,
1000
0000
1000
0000
,
0001
0000
0000
0000
,
0001
0000
0001
0000
,
0100
0000
0000
0000
,
0100
0000
0100
0000
,
0010
0000
0000
0000
,
0010
0000
0010
0000
,
1000
0000
0000
0000
,
0100
0000
0000
0000
,
0010
0000
0000
0000
,
0001
0000
0000
0000
,
0100
0000
0000
0000
,
0010
0000
0000
0000
,
1000
0000
0000
0000
,
0001
0000
0000
0000
,
0010
0000
0010
0000
,
0010
0000
0000
0000
,
0100
0000
0100
0000
,
0100
0000
0000
0000
,
1000
0000
0000
0000
,
0001
0000
0000
0000
,
0100
0000
0000
0000
,
0010
0000
0010
0000
,
0010
0000
0000
0000
,
1000
0000
0001
0000
,
0010
0000
0000
0000
,
0100
0000
0000
0000
,
0010
0000
0000
0000
,
0100
0000
0000
0000
,
1000
0000
0001
0000
,
1000
0000
0000
0000
,
0010
0000
0010
0000
,
0100
0000
0100
0000
,
0001
0000
1000
1000
,
1000
0000
0001
0001
,
0001
0000
0110
0000
,
0000
0000
1001
0000
,
0000
0000
1000
0000
,
0001
0000
0100
0000
,
0010
0000
0000
0000
,
0000
0000
0000
0000
,
1000
0000
0000
0000
,
0000
0000
0000
0000
,
0100
0000
0000
0000
,
0000
0000
0000
0000
,
0010
0000
0000
0000
,
0001
0000
0000
0000
,
0100
0000
0100
0000
,
0100
0000
0000
0000
,
0010
0000
0010
0000
,
0010
0000
0000
0000
,
1000
0000
0001
0000
,
1000
0000
0000
0000
,
0001
0000
1000
0000
,
0001
0000
0000
0000
,
0010
0000
0010
0000
,
0100
0000
1000
1000
,
1000
0000
0001
0000
,
0100
0000
0001
0001
,
0001
0000
1000
1000
,
1000
0000
0001
0001
,
0001
0000
0100
0000
,
0010
0000
0000
0000
,
1001
0000
0000
0000
;

//--------------- dance-single - forcednature ----------------
#NOTES:
     dance-single:
     forcednature:
     Easy:
     6:
     0,0,0,0,0:
0000
0000
0000
0000
,
0000
0000
0000
0000
,
0000
0000
0000
0000
,
0000
0000
0000
0000
,
0000
0000
0000
0000
,
1000
1000
0000
0001
,
1000
1000
0000
0001
,
1000
1000
0000
0001
,
0100
0000
0000
0100
0000
0000
0100
0000
0000
0000
0000
0000
0000
0000
0000
0000
,
0010
1000
0000
0001
,
0010
0001
0000
1000
,
0010
0000
0000
0010
0000
0000
0020
0000
0000
0000
0030
0000
0000
0000
0000
0000
,
0100
0000
0000
0100
0000
0000
0200
0000
0000
0000
0300
0000
0000
0000
0000
0000
,
0001
1000
0000
0010
,
1000
0001
0000
0010
,
0100
0000
0000
0100
0000
0000
0200
0000
0000
0000
0300
0000
0000
0000
0000
0000
,
0010
0000
0000
0010
0000
0000
0020
0000
0000
0000
0030
0000
0000
0000
0000
0000
,
0100
1000
0100
1000
,
0001
0100
0001
0100
,
0010
0010
1000
0001
,
0010
0010
0001
1000
,
0010
0000
0000
0010
0000
0000
0010
0000
0000
0000
0000
0000
0000
0000
0000
0000
,
0100
0000
0000
0100
0000
0000
0100
0000
0000
0000
0000
0000
0000
0000
0000
0000
,
0001
0000
0000
1000
0000
0000
0001
0000
0000
0000
0000
0000
0000
0000
0000
0000
,
1000
0000
0000
0001
0000
0000
1000
0000
0000
0000
0000
0000
0000
0000
0000
0000
,
0010
0000
0000
0010
0000
0000
0010
0000
0000
0000
0000
0000
0000
0000
0000
0000
,
0100
0000
0000
0100
0000
0000
0100
0000
0000
0000
0000
0000
0000
0000
0000
0000
,
0001
0000
0000
0001
0000
0000
0001
0000
0000
0000
0000
0000
0000
0000
0000
0000
,
1000
0000
0000
1000
0000
0000
1000
0000
0000
0000
0000
0000
0000
0000
0000
0000
,
0100
0000
0000
0010
0000
0000
0100
0000
0000
0000
0000
0000
0000
0000
0000
0000
,
0010
0000
0000
0100
0000
0000
0010
0000
0000
0000
0000
0000
0000
0000
0000
0000
,
0001
0000
0000
1000
0000
0000
0001
0000
0000
0000
0000
0000
0000
0000
0000
0000
,
0100
0000
0000
0100
0000
0000
0100
0000
0000
0000
0000
0000
0000
0000
0000
0000
,
0010
1000
0001
0100
,
0010
0000
0000
1001
0000
0000
0000
0000
,
0001
1000
0100
0010
,
0001
0001
0000
1000
,
0010
0010
0000
0010
,
0000
0100
0000
0100
,
0100
0010
1000
0001
,
0010
0000
0000
0010
0000
0000
0010
0000
0000
0000
0000
0000
0000
0000
0000
0000
,
0001
1000
2002
3003
,
0010
0100
0220
0330
,
0001
0000
0100
0000
0010
0010
0000
0000
,
1000
0000
0100
0000
0010
0010
0000
0000
,
0001
0100
0220
0330
,
1000
0100
0220
0330
,
0001
1000
0010
0010
,
1000
0000
0000
1000
0000
0000
1000
0000
0000
0000
0000
0000
0001
0000
0000
0000
,
0000
0010
0000
0010
,
0000
0010
0000
0010
,
0000
0100
0000
0100
,
0000
0100
0000
0100
,
1000
0001
0000
0001
,
0000
0001
0000
0001
,
0000
0100
0000
0100
,
0000
0100
0000
0100
,
0010
1000
0010
1000
,
0010
1000
0010
0000
,
0100
0001
0100
0001
,
0100
0001
0100
0000
,
0001
0010
0001
0010
,
0001
0010
0001
0000
,
1000
0100
1000
0100
,
1000
0100
1000
0000
,
0010
0100
0010
1000
,
0001
0010
0110
0110
,
0100
1000
0001
0100
,
0010
1000
1001
1001
,
1000
0100
0110
0110
,
0010
0001
1001
0110
,
0001
0100
1000
0100
,
0010
1000
0001
0001
,
0010
0000
0000
0000
;

//--------------- dance-single - forcednature ----------------
#NOTES:
     dance-single:
     forcednature:
     Medium:
     8:
     0,0,0,0,0:
0000
0000
0000
0000
,
0000
0000
0000
0000
,
0000
0000
0000
0000
,
0000
0000
0000
0000
,
0000
0000
0000
0000
,
1000
0000
0000
1000
0000
0000
2000
0000
0000
0000
3000
0000
0000
0000
0000
0000
,
0001
0000
0000
0001
0000
0000
0002
0000
0000
0000
0003
0000
0000
0000
0000
0000
,
0100
0000
0000
0100
0000
0000
0200
0000
0000
0000
0300
0000
0000
0000
0000
0000
,
1001
0000
0000
1001
0000
0000
2002
0000
0000
0000
3003
0000
0000
0000
0000
0000
,
0001
0000
0100
0000
0001
0010
0100
0000
,
0010
0000
0001
0000
0100
0010
1000
0000
,
0100
0000
0000
0100
0000
0000
0220
0000
0000
0000
0330
0000
0000
0000
0000
0000
,
0010
0000
0000
0010
0000
0000
0220
0000
0000
0000
0330
0000
0000
0000
0000
0000
,
1000
0000
0001
0000
0100
0010
1000
0000
,
0001
0000
1000
0000
0100
0010
0001
0000
,
0100
0000
0000
0100
0000
0000
0101
0000
0000
0000
0000
0000
0000
0000
0000
0000
,
0100
0000
0000
0100
0000
0000
1100
0000
0000
0000
0000
0000
0000
0000
0000
0000
,
0010
0000
1000
0001
0010
0000
0001
0000
,
1000
0000
0010
0100
0001
0000
0010
0000
,
0100
0000
0010
0001
0100
0000
0010
0000
,
1000
0000
0001
1000
0100
0000
0010
0000
,
0100
0000
0000
0100
0000
0000
0100
0000
0000
0000
1000
0000
0001
0000
0000
0000
,
0100
0000
0000
0100
0000
0000
0100
0000
0000
0000
0001
0000
1000
0000
0000
0000
,
0010
0000
0000
0100
0000
0000
0110
0000
0000
0000
0000
0000
0000
0000
0000
0000
,
1001
0000
0000
1001
0000
0000
1001
0000
0000
0000
0000
0000
0000
0000
0000
0000
,
1000
0000
0000
1000
0000
0000
1000
0000
0000
0000
0001
0000
0100
0000
0000
0000
,
0001
0000
0000
0001
0000
0000
0001
0000
0000
0000
1000
0000
0100
0000
0000
0000
,
0010
0000
0000
0010
0000
0000
0010
0000
0000
0000
0001
0000
1000
0000
0000
0000
,
0010
0000
0000
0010
0000
0000
0010
0000
0000
0000
1000
0000
0001
0000
0000
0000
,
0100
0000
0000
0010
0000
0000
0220
0000
0000
0000
0330
0000
0000
0000
0000
0000
,
0001
0000
0000
1000
0000
0000
2002
0000
0000
0000
3003
0000
0000
0000
0000
0000
,
0100
0000
0000
0010
0000
0000
2002
0000
0000
0000
3003
0000
0000
0000
0000
0000
,
1001
0000
0000
1001
0000
0000
1001
0000
0000
0000
0100
0000
0100
0000
0000
0000
,
0001
0000
1000
0000
0001
0100
0010
0000
,
1000
0000
0000
1000
0000
0000
2002
0000
0000
0000
3003
0000
0000
0000
0000
0000
,
0110
0000
0001
0000
1000
0100
0010
0000
,
0100
0100
0100
0100
0000
1000
0001
0000
,
0000
0000
0000
0000
0001
0000
0010
0100
0000
0000
0000
0000
1000
0000
0000
0000
,
0000
0000
1000
2000
0000
3001
0001
0000
,
0010
0000
0000
0010
0000
0000
0010
0000
0000
0000
0100
0000
1000
0000
0000
0000
,
0010
0000
0000
0010
0000
0000
0010
0000
0000
0000
0100
0000
0001
0000
0000
0000
,
1000
0100
1000
0100
0020
0000
0030
0000
,
0001
0100
0001
0100
0020
0000
0030
0000
,
1000
0000
0001
1000
0001
0001
0000
0000
,
0100
0010
0100
0000
0010
0010
0100
0000
,
0001
1000
0001
1000
0200
0000
0300
0000
,
1000
0001
1000
0001
0200
0000
0300
0000
,
0010
1000
0010
1000
0100
0100
0100
0000
,
0010
0001
0010
0001
0000
0100
0100
0000
,
0010
0010
0000
0010
,
0000
0010
0000
0010
,
0000
0100
0000
0100
,
0000
0100
0000
0100
,
1000
0001
0000
0001
,
0000
0001
0000
0001
,
0001
1000
0000
1000
,
0010
0010
0100
0001
,
1000
0100
1000
0000
0001
0100
0001
0000
,
1000
0100
1000
0000
0001
0100
0001
0000
,
1000
0010
1000
0000
0001
0010
0001
0000
,
1000
0010
1000
0000
0001
0010
0001
0000
,
0100
0010
1000
0000
0100
0010
0001
0000
,
0100
0010
1000
0000
0100
0010
0001
0000
,
1000
0010
0100
0000
0001
0010
0100
0000
,
1000
0010
0100
0000
0001
0010
0100
0000
,
0010
0100
0010
0100
1000
0000
0001
0000
,
0100
0010
0100
0000
1001
0000
1001
0000
,
0010
1000
0001
0000
1000
0100
1000
0100
,
0010
0001
0100
0000
1001
0000
1001
0000
,
1000
0100
0010
0000
1001
0000
1001
0000
,
0001
0100
0010
0000
1001
0000
0110
0000
,
1000
0100
1000
0000
0001
0100
0001
0000
,
0010
0100
1000
0010
0100
0001
0001
0000
,
0010
0000
0000
0000
;

//--------------- dance-single - forcednature ----------------
#NOTES:
     dance-single:
     forcednature:
     Hard:
     11:
     0,0,0,0,0:
0000
0000
0000
0000
,
0000
0000
0000
0000
,
0000
0000
0000
0000
,
0000
0000
0000
0000
,
0000
0000
0000
0000
,
1000
0000
0000
0001
0000
0000
2002
0000
0000
0000
3003
0000
0000
0000
0001
0000
,
0100
0000
0000
0010
0000
0000
0220
0000
0000
0000
0330
0000
0000
0000
1000
0000
,
0100
0000
0000
0010
0000
0000
0220
0000
0000
0000
0330
0000
0000
0000
0000
0000
,
1001
0000
0000
0110
0000
0000
1001
0000
0000
0000
1000
0000
0010
0000
1000
0000
,
0001
0010
0100
0010
0000
0001
0100
1000
,
0100
0000
0000
0100
0000
0000
0100
0000
0000
0000
0010
0000
1000
0000
0001
0000
,
1000
0000
0000
0100
0000
0000
0220
0000
0000
0000
0330
0000
0000
0000
1000
0000
,
0001
0000
0000
0100
0000
0000
0220
0000
0000
0000
0330
0000
0000
0000
0001
0000
,
1000
0100
0010
0001
0000
0100
0010
0100
,
0001
0000
0000
1000
0000
0000
0001
0000
0000
0000
0010
0000
0100
0000
1000
0000
,
0010
0000
0000
0100
0000
0000
2001
0000
0000
0000
3001
0000
0100
0000
0010
0000
,
1000
0000
0000
0100
0000
0000
0210
0000
0000
0000
0310
0000
0001
0000
1000
0000
,
0001
0000
0000
0100
0000
0000
0010
0000
0000
0000
1000
0000
0001
0000
1000
0000
,
0100
0000
0000
0010
0000
0000
0100
0000
0000
0000
1000
0000
0010
0000
0100
0000
,
0001
0000
0000
0010
0000
0000
0001
0000
0000
0000
0100
0000
1000
0000
0100
0000
,
0220
0000
0330
1001
0000
0001
1000
0100
,
0010
0000
0000
0010
0001
0000
0100
0000
0000
0000
0010
0000
1000
0000
0001
0000
,
0100
0000
0000
0100
0010
0000
1000
0000
0000
0000
0100
0000
0010
0000
0001
0000
,
1001
0000
0000
1001
0000
0000
1001
0000
0000
0000
0001
0000
0100
0000
1000
0000
,
0110
0000
0000
0110
0000
0000
0110
0000
0000
0000
0001
0000
1000
0000
0001
0000
,
0011
0000
0000
0101
0000
0000
1010
0000
0000
0000
1000
0000
0100
0000
0010
0000
,
0110
0000
0000
1001
0000
0000
0110
0000
0000
0000
0001
0000
0100
0000
1000
0000
,
1100
0000
0000
0110
0000
0000
1001
0000
0000
0000
1000
0000
0100
0000
0001
0000
,
0101
0000
0000
0110
0000
0000
1001
0000
0000
0000
1000
0000
0100
0000
0010
0000
,
0011
0000
0000
0110
0000
0000
2002
0000
0000
0000
3003
0000
0000
0000
0001
0000
,
0110
0000
0000
1010
0000
0000
2002
0000
0000
0000
3003
0000
0000
0000
1000
0000
,
0101
0000
0000
1100
0000
0000
2002
0000
0000
0000
3003
0000
0000
0000
0000
0000
,
0110
0000
0000
0110
0000
0000
0110
0000
0000
0000
0001
0000
1000
0000
0001
0000
,
0010
0100
0010
0001
0000
0100
0010
0100
,
0001
0000
0000
1000
0000
0000
0220
0000
0000
0000
0000
0000
0330
0000
0000
0000
,
1000
1000
0001
0100
0000
0010
1000
0001
,
0010
0010
0100
0010
0000
0100
1000
0010
,
0100
0000
0100
0010
0000
0000
1000
1000
0000
0000
0001
0000
0010
0000
0000
0000
,
0100
0000
0100
0010
0000
0000
1002
0000
0000
0000
0103
0000
1000
0000
0100
0000
,
0010
0000
0000
1010
0000
0000
0011
0000
0000
0000
0001
0000
1000
0000
0100
0000
,
0110
0000
0000
0110
0000
0000
1001
0000
0000
0000
0010
0000
0010
0000
0000
0000
,
1000
0001
0100
1000
0200
0000
0310
1000
,
0001
0010
1000
0010
0002
0000
0103
0010
,
1000
0000
0100
0010
0001
0001
0100
0010
,
1000
0100
0010
0001
0100
0100
0010
0000
,
1000
0100
1000
0010
0202
0000
0303
0000
,
0001
0100
0001
0010
2200
0000
3300
0000
,
1000
0001
0010
0100
1001
0100
0110
0000
,
0001
1000
0010
0100
0000
0010
1001
0000
,
2000
0100
0000
0001
,
0000
0010
0000
0001
,
0000
0100
0000
0001
,
0000
0010
0000
0001
,
3002
0100
0000
1000
,
0000
0010
0000
1000
,
0000
0100
0000
1000
,
0013
0000
0000
0001
0000
0000
0001
0000
0000
0000
0100
0000
0010
0000
0000
0000
,
1000
0100
1000
0010
1000
0100
1000
0010
,
0100
0001
0010
0100
0010
0001
0100
0000
,
0010
1000
0001
0010
0001
1000
0010
1000
,
0001
0010
0001
1000
0010
0100
0001
0000
,
0010
0100
1000
0010
0100
0001
0010
0100
,
1000
0010
0100
0001
0010
0100
1000
0000
,
0010
0100
0001
1000
0010
0100
0001
1000
,
0100
0010
0001
1000
0100
0010
0001
0000
,
0001
0100
1000
0100
0010
0010
1000
0001
,
1000
0100
0001
0100
0110
0000
0110
0000
,
0001
1000
0010
0100
0001
0100
1000
0100
,
0010
1000
0001
0010
0110
0000
0110
0000
,
1000
0001
0100
0010
1001
0000
1001
0000
,
0001
1000
0100
0010
1001
0000
0110
0000
,
1000
0010
0100
0001
1000
1000
0001
0001
,
0100
0010
1000
0001
1001
0000
0110
0000
,
1001
0000
0000
0000
;

//--------------- dance-single - black eyed ninjas ----------------
#NOTES:
     dance-single:
     black eyed ninjas:
     Challenge:
     13:
     0,0,0,0,0:
0000
0000
0000
0000
,
0000
0000
0000
0000
,
0000
0000
0000
0000
,
0000
0000
0000
0000
,
0000
0000
0000
0000
,
1000
0000
0000
1000
0000
0000
2200
0000
0000
0000
3300
0000
0000
0000
MMMM
0000
,
0001
0000
0000
0001
0000
0000
0202
0000
0000
0000
0303
0000
0000
0000
MMMM
0000
,
0010
0000
0000
0010
0000
0000
0220
0000
0000
0000
0000
0000
0330
0000
0000
0000
,
0001
0000
0000
1000
0000
0000
0100
0000
0000
0000
0010
0000
0001
0000
0001
0000
,
1000
0000
0010
0100
0000
0010
1000
0000
0000
0000
0001
1000
0001
0000
0010
0000
,
0100
0000
0000
0100
0000
1000
0001
0000
0000
0000
0100
0000
0010
0000
0010
0000
,
1000
0000
0000
1000
0000
0000
0202
0000
0000
0000
0303
0000
0000
0000
0100
0000
,
0001
0000
0000
0001
0000
0000
2200
0000
0000
0000
3300
0000
0000
0000
1000
0000
,
0001
0000
0100
0010
0000
0000
0110
0000
0000
0000
0010
0000
0001
0000
0010
0000
,
1000
0002
0000
0023
0000
0130
1000
1000
,
0001
0000
0000
0001
0000
0000
0201
0000
0000
0000
0310
0000
0100
0000
0001
0000
,
1000
0000
0000
1000
0000
0000
1200
0000
0000
0000
0310
0000
0010
0000
0010
0000
,
0001
0000
0000
0001
0000
0000
2001
0000
0000
0000
3010
0000
0001
0000
0010
0000
,
0100
0000
0100
0001
0000
0000
2001
0000
0000
0000
3001
0000
0010
0000
1000
0000
,
0010
0000
0010
0100
0000
0000
1000
0000
0001
0000
0100
0000
0010
0000
0010
0000
,
0002
0000
0000
2003
0000
0000
3100
0000
0000
0000
0001
0000
1000
0000
0100
0000
,
0010
0000
0000
0010
0001
0000
0011
0000
0000
0000
0001
0000
1000
0000
1000
0000
,
0010
0000
0000
0010
1000
0000
1100
0000
0000
0000
0001
0000
1000
0000
1000
0000
,
0010
0000
0000
0010
0000
0000
0102
0000
0000
0000
0013
0000
1000
0000
0010
0000
,
0100
0000
0000
0100
0000
0000
1001
0000
0000
0000
1000
0010
1000
0010
0100
0000
,
0001
0000
0000
0001
0000
0000
2000
0000
0000
0000
3100
0010
0100
0000
MMMM
0000
,
0001
0000
0000
0001
0000
0000
2000
0000
0000
0000
3100
0010
0100
0000
MMMM
0000
,
0001
0000
0000
0001
0000
0000
2000
0000
0000
0000
3010
0100
0010
0000
MMMM
0000
,
0001
0000
0000
0001
0000
0000
2000
0000
0000
0000
3010
0100
0010
0000
MMMM
0000
,
0001
0000
0000
0001
0000
0000
2200
0000
0000
0000
3300
0000
0000
0000
MMMM
0000
,
1000
0000
0000
1000
0000
0000
0202
0000
0000
0000
0303
0000
0000
0000
MMMM
0000
,
0001
0000
0000
0001
0000
0000
0022
0000
0000
0000
0000
0000
0033
0000
0000
0000
,
1000
0000
0000
0001
0000
0000
0100
0000
0000
0000
0100
0000
1000
0000
0100
0000
,
0001
0000
0010
0100
0000
1000
0001
0000
0000
0000
0001
0000
0100
0000
0100
0000
,
0010
0000
0000
1000
0000
0000
MMMM
0000
0000
0000
1000
0000
1000
0000
0100
0000
,
0010
0000
0001
1000
0000
0001
0100
0000
0000
0000
0010
0000
0001
0000
0010
0000
,
0100
0100
0001
1000
0000
0100
0001
0100
,
0010
0001
0000
1000
0000
0000
MMMM
MMMM
0000
0000
0001
0000
0100
0000
1000
0000
,
0100
0010
0000
1000
0000
0000
MMMM
0000
0000
0000
0100
0000
0010
0000
0100
0000
,
0001
0000
0000
1000
0000
0000
1100
0000
0000
0000
0010
0000
0001
0000
1000
0000
,
1010
0000
0000
1010
0000
0000
0110
0000
0000
0000
0100
0000
0100
0000
0001
1000
,
0001
0000
0010
0100
1000
0000
0010
0000
0002
0000
0000
0000
0013
0000
0100
0010
,
0100
0001
1000
0100
0002
0000
0103
0010
,
0001
0000
0000
0001
1000
0000
0010
0000
0100
0000
0100
0000
0001
0000
0010
0000
,
1000
0010
0001
0100
0010
0010
1000
0000
,
0001
0000
0010
0100
1000
0000
0010
0000
0002
0000
0000
0000
0013
0000
0000
0000
,
1000
0000
0100
0010
0001
0000
0100
0000
2000
0000
0000
0000
3100
0000
0000
0000
,
0001
0000
1000
0100
1000
0000
0010
0000
0001
0000
0010
0000
1000
0000
0001
0000
,
0010
0010
0100
1000
0002
0000
0103
0000
,
0020
0001
0100
1030
,
0200
0001
0310
MMMM
,
0200
1000
0010
0301
,
0020
1000
0130
MMMM
,
0002
0100
1000
0010
,
0010
1000
0103
MMMM
,
2000
0001
0010
3100
,
1000
0001
0100
1000
0100
0000
0110
0000
,
0100
0010
0100
0000
0100
0001
0100
0000
0100
0010
0100
0000
0100
0001
0100
0000
,
0001
1000
0001
0000
0001
0010
0001
0000
0001
1000
0001
0000
0001
0010
0001
0000
,
1000
0100
1000
0000
1000
0001
1000
0000
1000
0100
1000
0000
1000
0001
1000
0000
,
0010
0010
0100
0001
1000
0100
1100
0000
,
1000
0010
1000
0000
1000
0010
1000
0000
0001
0100
0001
0000
0100
0010
0100
0000
,
0001
0100
0001
0000
0001
0100
0001
0000
1000
0100
1000
0000
0100
0010
0100
0000
,
1000
0001
1000
0000
1000
0001
1000
0000
0010
0100
0010
0000
0100
0001
0100
0000
,
0001
0000
0000
0010
0000
0000
0100
0000
0000
0000
1001
0000
0000
0000
MMMM
0000
,
1000
0010
1000
0000
0010
1000
0010
0000
0100
0000
0100
0000
0001
1000
0001
0000
,
0010
0000
0100
0010
0100
0000
1000
0000
MMMM
0000
0000
0000
MMMM
0000
0000
0000
,
0001
0000
0100
0000
1000
0000
0100
0000
0010
0100
0010
0000
1000
0001
1000
0000
,
0001
0000
0010
0100
0010
0000
0100
0000
MMMM
0000
0000
0000
MMMM
0000
0000
0000
,
1000
1000
0001
0100
MMMM
0000
MMMM
0000
,
0001
0000
0010
0100
0010
0000
0100
0000
MMMM
0000
0000
0000
MMMM
0000
0000
0000
,
1000
0000
0010
0000
0100
0000
0100
0000
0001
1000
0001
0000
1000
0001
1000
0000
,
0001
0010
0100
0001
0101
0000
1100
0000
,
1001
0000
0000
0000
;
