#TITLE:Boku no Kanojo;
#SUBTITLE:;
#ARTIST:oo39.com;
#TITLETRANSLIT:;
#SUBTITLETRANSLIT:;
#ARTISTTRANSLIT:;
#GENRE:;
#CREDIT:;
#MUSIC:27. Boku no Kanojo.mp3;
#BANNER:;
#BACKGROUND:;
#CDTITLE:;
#SAMPLESTART:70.552;
#SAMPLELENGTH:15.000;
#SELECTABLE:YES;
#OFFSET:1.425;
#BPMS:0.000=160.000;
#STOPS:;
#BGCHANGES:;
#FGCHANGES:;

//--------------- dance-single - forcednature ----------------
#NOTES:
     dance-single:
     forcednature:
     Beginner:
     3:
     0,0,0,0,0:
0000
0000
0000
0000
,
0000
0000
0000
0000
,
0000
0000
0000
0000
,
0000
0000
0000
0000
,
0000
0000
0000
0000
,
1001
0000
0000
0000
,
1000
0000
0000
0000
,
0001
0000
0000
0000
,
0100
0000
0100
0000
,
0110
0000
0000
0000
,
0001
0000
0000
0000
,
0010
0000
0000
0000
,
0100
0000
0000
0000
,
1001
0000
0000
0000
,
1000
0000
0000
0000
,
0010
0000
0000
0000
,
0100
0000
0100
0000
,
0110
0000
0000
0000
,
0001
0000
0000
0000
,
1000
0000
0000
0000
,
0100
0000
0000
0000
,
0010
0000
0000
0000
,
0001
0000
0000
0000
,
0100
0000
0000
0000
,
0010
0000
0000
0000
,
1000
0000
0001
0000
,
1001
0000
0000
0000
,
1000
0000
0000
0000
,
0010
0000
0000
0000
,
0100
0000
0000
0000
,
0001
0000
0000
0000
,
0010
0000
0000
0000
,
0001
0000
0000
0000
,
0100
0000
0000
0000
,
0010
0000
0010
0000
,
0110
0000
0000
0000
,
1000
0000
0000
0000
,
0001
0000
0000
0000
,
0010
0000
0000
0000
,
0110
0000
0000
0000
,
0100
0000
0000
0000
,
1000
0000
0000
0000
,
0001
0000
0000
0000
,
1001
0000
0000
0000
,
0100
0000
0000
0000
,
0010
0000
0010
0000
,
0100
0000
0100
0000
,
0110
0000
0000
0000
,
1001
0000
0000
0000
,
1000
0000
0000
0000
,
0001
0000
0000
0000
,
0100
0000
0000
0000
,
0010
0000
0000
0000
,
1000
0000
0000
0000
,
0001
0000
0000
0000
,
0010
0000
0000
0000
,
0110
0000
0000
0000
,
0100
0000
0000
0000
,
1000
0000
0000
0000
,
0001
0000
0000
0000
,
0100
0000
0000
0000
,
0010
0000
0000
0000
,
1000
0000
0000
0000
,
0001
0000
0000
0000
,
1001
0000
0000
0000
,
1000
0000
0000
0000
,
0110
0000
0000
0000
,
0001
0000
0000
0000
,
1001
0000
0000
0000
,
0110
0000
0000
0000
,
0001
0000
0000
0000
,
0100
0000
0000
0000
,
0010
0000
0000
0000
,
1001
0000
0000
0000
,
1000
0000
0000
0000
,
0100
0000
0000
0000
,
0010
0000
0000
0000
,
0110
0000
0000
0000
,
0100
0000
0000
0000
,
1000
0000
0000
0000
,
0001
0000
0000
0000
,
1001
0000
0000
0000
,
1000
0000
0000
0000
,
0010
0000
0000
0000
,
0100
0000
0100
0000
,
0100
0000
0001
0000
;

//--------------- dance-single - forcednature ----------------
#NOTES:
     dance-single:
     forcednature:
     Easy:
     8:
     0,0,0,0,0:
0000
0000
0000
0000
,
0000
0000
0000
0000
,
0000
0000
0000
0000
,
0000
0000
0000
0000
,
0000
0000
0000
0000
,
1001
0001
0100
0010
,
1000
1000
0000
0000
,
0100
0010
0001
0100
,
0010
0100
0010
0100
0010
0000
0000
0000
,
1001
1000
0001
0010
,
0100
0100
0000
0000
,
1000
0001
0100
0010
,
1000
0000
0001
0000
,
0110
1000
0001
0100
,
0010
1000
0001
0000
,
0010
0100
1000
0010
,
1000
0001
1000
0001
1000
0000
0100
0000
,
0110
0010
0001
1000
,
0010
0100
0001
0000
,
1000
0100
0010
0100
,
1000
0001
0100
0000
,
0010
1000
0001
0010
,
0001
1000
0010
0000
,
0100
0001
1000
0001
,
0010
0010
0010
0000
,
0100
1000
0100
1000
0100
0000
0010
0000
,
1001
0001
0100
0010
,
1000
0001
1000
0100
,
0010
0001
0100
0010
,
1000
1000
0001
0000
,
1001
1000
0010
0100
,
0001
0000
1000
0100
,
0010
0001
0100
0010
,
0100
0100
0001
1000
,
0100
1000
0100
1000
0100
0000
0010
0000
,
0110
0100
1000
0001
,
0000
0100
0010
1000
,
0001
0010
0001
0100
,
0010
1000
0100
0000
,
0110
0010
0001
1000
,
0000
0010
0100
0001
,
0010
0001
1000
0010
,
1000
0100
0010
0001
,
1001
0000
1000
0000
,
0001
0000
1000
0000
,
0100
0100
0010
0010
,
0001
0100
0010
1000
,
1001
0000
0000
0100
0000
0000
0010
0000
,
2002
0000
0000
3003
,
1000
0100
0010
0000
,
2002
0000
0000
3003
,
0001
0100
0010
0000
,
2002
0000
0000
3003
,
1000
0001
0010
0000
,
2002
0000
0000
3003
,
0001
0100
0001
0100
0001
0000
0000
0000
,
0110
1000
0001
0100
,
0000
0010
1000
0001
,
0010
0100
1000
0001
,
0100
0100
0010
0000
,
1001
1000
0001
0010
,
0000
0100
1000
0001
,
0100
0010
1000
0001
,
0010
0100
1000
0001
,
1001
0000
0100
0000
,
1001
0000
0010
0000
,
1000
1000
0001
0001
,
0100
0010
1000
0001
,
0010
0000
0000
0010
0000
0000
0100
0000
,
2002
0000
0000
3003
,
1000
0100
1000
0000
0010
0000
0000
0000
,
2002
0000
0000
3003
,
0001
0100
0010
1000
,
2002
0000
0000
3003
,
0001
0100
0001
0000
1000
0000
0100
0000
,
2002
0000
0000
3003
,
1000
0100
1000
0100
1000
0000
0010
0000
,
1002
1000
1000
1003
,
0001
0100
0010
0000
,
2001
0001
0001
3001
,
1000
0100
0010
0000
,
1002
1000
1000
1003
,
0001
0100
0010
0000
,
2001
0001
0001
3001
,
1000
0100
1000
0000
0001
0100
0001
0000
,
0010
0100
0010
0000
1001
0000
0000
0000
;

//--------------- dance-single - forcednature ----------------
#NOTES:
     dance-single:
     forcednature:
     Medium:
     11:
     0,0,0,0,0:
0000
0000
0000
0000
,
0000
0000
0000
0000
,
0000
0000
0000
0000
,
0000
0000
0000
0000
,
0000
0000
0000
0000
,
1100
0000
0001
0000
1000
0000
0010
0100
,
0001
1000
0010
0000
0100
0000
0001
0000
,
0101
0000
1000
0000
0001
0000
0010
0100
,
1000
1000
0001
0001
0100
0010
1000
0000
,
1001
0000
0001
0000
0010
0000
0001
0100
,
0010
1000
0001
0100
0010
0000
1000
0000
,
1100
0000
0010
0000
0001
0000
1000
0100
,
0010
0001
1000
0000
0010
0000
0100
0000
,
1001
0000
0001
0000
0010
0000
0100
1000
,
0001
1000
0010
0100
0001
0000
0010
0000
,
0110
0000
0100
0000
1000
0000
0001
0100
,
0010
0010
1000
1000
0100
0010
0001
0000
,
0110
0000
0001
1000
0001
1000
0010
1000
,
0010
0100
0001
0010
,
0100
0000
1000
0000
0001
0100
0000
0010
,
0000
1000
0100
0010
0001
0000
0100
0000
,
0110
0000
0010
1000
0010
1000
0000
1001
,
0000
1000
0000
0110
0000
0001
0100
0010
,
1000
0000
0001
0010
0100
0010
0000
0110
,
0000
0100
1000
0000
0001
0100
0010
1000
,
0001
0010
0001
0100
0001
0010
0100
0000
,
0110
0000
1000
0000
0001
0100
0010
1000
,
0001
0000
0010
0000
0100
1000
0010
1000
,
0100
0010
0001
0100
0000
0010
1000
0010
,
0100
0001
0100
0010
0000
1000
1000
0000
,
1100
0000
0100
0010
0001
0010
0100
0010
,
0000
0001
1000
0000
1010
0000
0100
0001
,
1000
0000
0100
0010
0000
0010
0001
0000
,
0101
0000
1010
0000
1001
0000
1000
0100
,
0010
0001
0100
0001
0010
0100
1000
0000
,
1001
0000
0001
0100
0000
0010
1000
0000
,
0100
0000
0010
0001
0000
0100
0010
0000
,
0100
0000
0001
0010
0000
0100
1000
0000
,
0001
0100
0001
0000
1000
0010
1000
0000
,
1001
0000
0001
0010
0000
0100
1000
0000
,
0001
0000
0100
0001
0000
1000
0100
0000
,
0010
0000
0001
1000
0000
0010
0100
0000
,
0001
0000
0010
0100
0000
1000
0010
0000
,
0110
0000
0000
0100
0001
0000
1000
0000
,
0110
0000
0000
0100
1000
0000
0001
0000
,
0110
0001
0110
1000
,
0001
0010
0100
1000
0100
0010
0001
0000
,
0100
0010
0000
1000
0010
0000
0100
0000
,
0001
0010
0001
0010
0001
0010
0001
0010
,
0100
1000
0100
1000
0001
0000
0100
0000
,
0010
1000
0010
1000
0010
1000
0010
1000
,
0001
0100
0010
0000
1000
0000
0001
0000
,
1000
0100
1000
0100
1000
0100
1000
0100
,
0010
0001
0010
0001
0100
0000
0010
0000
,
1000
0001
1000
0001
1000
0001
1000
0001
,
0010
0100
0010
0100
1000
0000
0001
0000
,
0110
0000
0001
0100
0000
0010
1000
0000
,
0100
0000
0010
0001
0000
1000
0010
0000
,
0100
0000
0001
1000
0000
0100
1000
0000
,
0010
0000
0100
0000
0001
0010
0100
0000
,
0110
0000
0010
0001
0000
1000
0010
0000
,
0100
0000
0001
1000
0000
0100
0010
0000
,
0001
0000
0100
0010
0000
1000
0100
0000
,
0010
0001
0100
0000
0010
1000
0100
0000
,
0110
0000
0000
0001
0001
0000
0100
0000
,
0110
0000
0000
1000
1000
0000
0100
0000
,
1001
0100
0110
0010
,
0001
0010
0000
0100
1000
0000
0001
0000
,
0100
0010
0000
1000
0010
0000
0100
0000
,
0001
0010
0001
0010
0001
0010
0001
0010
,
0100
1000
0100
1000
0001
0000
0100
0000
,
0010
1000
0010
1000
0010
1000
0010
1000
,
0001
0100
0010
0000
1000
0000
0100
0000
,
0010
0001
0010
0001
0010
0001
0010
0001
,
1000
0010
1000
0010
0100
0000
0001
0000
,
1000
0100
1000
0100
1000
0100
1000
0100
,
0010
0001
0010
0001
0100
0000
0110
0000
,
0010
1000
0010
1000
0010
1000
0010
1000
,
0001
0010
0001
0010
0100
0000
1000
0000
,
0001
0100
0001
0100
0001
0100
0001
0100
,
0010
1000
0010
0000
0100
0000
0001
0000
,
1000
0100
1000
0100
1000
0100
1000
0100
,
0010
0001
0010
0001
0100
0000
0010
0000
,
1000
0001
1000
0001
1000
0001
1000
0001
,
0010
0100
0010
0100
1000
0001
1000
0001
,
0100
0010
0100
0010
1000
0000
0000
0000
;

//--------------- dance-single - forcednature ----------------
#NOTES:
     dance-single:
     forcednature:
     Hard:
     14:
     0,0,0,0,0:
0000
0000
0000
0000
,
0000
0000
0000
0000
,
0000
0000
0000
0000
,
0000
0000
0000
0000
,
0000
0000
0000
0000
,
1200
0000
0001
0000
1000
0000
0301
0100
,
1000
0000
0100
0000
0001
0000
0100
0000
0010
0000
0001
0000
1000
0010
0100
0001
,
0200
0000
1000
0000
0001
0000
1300
0100
,
0001
0000
0001
0000
0010
0000
0010
0000
0100
0000
1000
0000
0001
0100
1000
0000
,
0110
0000
1000
0000
0001
0000
1000
0100
,
0001
0000
0010
0000
0100
0000
1000
0000
0001
0000
0100
0000
0010
1000
0001
0010
,
0100
0000
0001
0000
1000
0000
0001
0100
,
1000
0000
0100
0000
0010
0000
0000
0000
0001
0000
0100
0000
0010
1000
0001
1000
,
0100
0000
0001
0000
1000
0000
0001
0100
,
1000
0000
0001
0000
0010
0000
0001
0000
0100
0000
0010
0000
1000
0100
0010
0001
,
0100
0000
1000
0000
0001
0000
1000
0100
,
0010
0000
0010
0000
1000
0000
1000
0000
0001
0000
1000
0000
0100
0001
0100
0000
,
0110
0000
0010
0001
0100
0010
0100
0001
,
0011
0000
0000
0000
1100
0000
0000
0000
0001
0000
0100
0000
1000
0000
0000
1000
,
0100
0000
0110
0000
1000
0001
0000
0011
,
0000
0000
0001
0000
0100
0000
1000
0000
0001
0000
0010
0000
1000
0000
1000
0100
,
0010
0000
0001
0100
0010
1000
0100
1100
,
0000
0011
0000
0101
0000
1000
0010
0001
,
0010
0000
0100
1000
0100
0101
0000
1010
,
0000
0000
1000
0000
0100
0000
0000
0000
0010
0000
0010
0000
0001
0000
1000
0010
,
0100
0100
1000
0100
0001
0100
0010
0000
,
1001
0001
0010
0000
0100
1000
0010
1000
,
0100
0000
0010
0000
0011
0000
0000
0000
0001
0000
0100
0000
0010
1000
0010
1000
,
0001
0010
0100
0001
0000
0100
1000
0001
,
1000
0000
1000
0000
0010
0000
0200
0000
0000
0000
0001
0000
0301
0000
0100
0010
,
1000
0100
1000
0010
0100
0001
0010
0001
,
0000
0000
0000
0000
0101
0000
0000
0000
1010
0000
0000
0000
1000
0000
0100
0010
,
0001
0000
0100
0110
0000
0010
1001
0000
,
0100
0000
0000
0000
0010
0000
0000
0000
0001
0000
0001
0000
0100
0000
0010
1000
,
0001
0001
0010
1000
0010
0001
0100
0000
,
0110
0000
0010
1000
0100
0020
0001
0000
,
0130
0000
0010
0001
1000
0001
0100
0010
,
1000
0000
0100
0010
0000
0001
0010
0100
,
1100
0000
0001
0010
0100
0000
1000
0000
,
0101
0000
1000
0010
0001
0020
0100
0000
,
1030
0000
0010
0100
0001
1000
0100
0010
,
0011
0000
0001
0100
0000
1000
0100
0010
,
1000
0000
0100
0001
0100
0100
0010
0010
,
2001
0000
0000
0100
0100
0000
3000
0000
,
1002
0000
0000
0100
0100
0000
0003
0000
,
1001
0000
0011
0000
0010
0100
1000
0100
,
0010
0010
0001
0001
1000
0010
0100
0001
,
1001
0000
1000
0000
0000
0000
0100
0000
0110
0000
0000
0000
0001
0100
0010
1000
,
0001
0010
0001
0100
0001
0010
0001
0100
,
0010
0000
1000
0000
0100
0000
0010
0000
0001
0000
1000
0000
0010
0100
0001
0000
,
1000
0100
1000
0010
1000
0100
1000
0010
,
1000
0000
0100
0000
0010
0000
0001
0000
0100
0000
0010
0000
1000
0001
0010
0000
,
0001
0100
0001
0010
0001
0100
0001
0010
,
0100
0000
1000
0000
0001
0000
0100
0000
0010
0000
1000
0000
0100
0010
0001
0000
,
1000
0100
1000
0010
1000
0100
1000
0010
,
0100
0000
0100
0000
0001
0000
0001
0000
0010
0000
0100
0000
1000
0100
0001
0000
,
0110
0000
0100
1000
0001
0200
1000
0000
,
0301
0000
0100
0010
1000
0001
0010
0001
,
0100
0000
0010
1000
0000
0100
0001
0100
,
0110
0000
0001
0100
1000
0000
0010
0000
,
0110
0000
0001
0010
1000
0020
0100
0000
,
0031
0000
0010
0100
1000
0001
0100
0010
,
1010
0000
0001
0100
0000
0001
1000
0100
,
0010
0000
0001
0100
0010
0010
1000
1000
,
2001
0000
0100
0001
0001
0000
3000
0000
,
1002
0000
0100
1000
1000
0000
0003
0000
,
1001
0000
0110
0000
0001
0100
1000
0100
,
0010
0010
1000
1000
0100
0001
0100
0010
,
0011
0000
0100
0000
0000
0000
0010
0000
1100
0000
0000
0000
0001
0100
0010
1000
,
0001
0010
1000
0010
0001
0010
1000
0010
,
0100
0000
1000
0000
0001
0000
0100
0000
0010
0000
1000
0000
0001
0010
0100
1000
,
0010
0001
0010
1000
0010
0001
0010
1000
,
0100
0000
0010
0000
0001
0000
0100
0000
0010
0000
1000
0000
0100
0010
0001
1000
,
0001
0100
1000
0100
0001
0100
1000
0100
,
0010
0000
1000
0000
0001
0000
0010
0000
0100
0000
1000
0000
0001
0100
0010
1000
,
0010
0001
0010
1000
0010
0001
0010
1000
,
0100
0000
0100
0000
0010
0000
0010
0000
0001
0000
1000
0000
0001
0100
1000
0000
,
0100
0001
0100
1000
0100
0001
0100
1000
,
0100
0000
0010
0000
1000
0000
0001
0000
0010
0000
0100
0000
1000
0001
0010
0001
,
1000
0100
0001
0100
1000
0100
0001
0100
,
0010
0000
0001
0000
1000
0000
0010
0000
0100
0000
0001
0000
1000
0100
0010
0001
,
0100
1000
0100
0001
0100
1000
0100
0001
,
0010
0000
0100
0000
1000
0000
0010
0000
0100
0000
0001
0000
1000
0010
0100
0001
,
1000
0100
0001
0100
1000
0100
0001
0100
,
0010
0011
0001
0101
0100
0110
0010
1010
,
1000
0000
1100
0000
0100
0010
0001
0000
0100
0000
1000
0000
0000
0000
0000
0000
;
