#TITLE:Body Rock;
#SUBTITLE:;
#ARTIST:StripE;
#TITLETRANSLIT:;
#SUBTITLETRANSLIT:;
#ARTISTTRANSLIT:;
#GENRE:;
#CREDIT:;
#MUSIC:Body Rock.ogg;
#BANNER:;
#BACKGROUND:;
#CDTITLE:;
#SAMPLESTART:65.753;
#SAMPLELENGTH:13.151;
#SELECTABLE:YES;
#OFFSET:0.000;
#BPMS:0.000=146.000;
#STOPS:;
#BGCHANGES:;
#FGCHANGES:;

//--------------- dance-single - aboutblank ----------------
#NOTES:
     dance-single:
     aboutblank:
     Beginner:
     2:
     0,0,0,0,0:
0000
0000
0000
0000
,
0000
0000
0000
0000
,
0000
0000
0000
0000
,
0000
0000
0000
0000
,
1000
0000
0000
0000
,
1000
0000
0000
0000
,
0001
0000
0000
0000
,
0010
0000
0000
0000
,
0100
0000
0000
0000
,
0100
0000
0000
0000
,
0100
0000
0000
0000
,
0110
0000
1001
0000
,
0001
0000
0000
0000
,
0001
0000
0000
0000
,
0001
0000
0000
0000
,
0100
0000
0010
0000
,
1000
0000
1000
0000
,
1000
0000
0000
0000
,
0100
0000
0100
0000
,
0100
0000
0000
0000
,
0001
0000
0001
0000
,
0001
0000
0000
0000
,
0010
0000
0010
0000
,
0010
0000
0000
0000
,
1001
0000
0000
0000
,
0000
0000
0000
0000
,
0110
0000
0000
0000
,
0000
0000
0000
0000
,
1001
0000
1000
1000
,
1000
1000
1000
0000
,
1001
0000
0001
0001
,
0001
0001
0001
0000
,
1000
0000
0100
0000
,
0001
0000
0100
0000
,
1000
0000
0100
0000
,
0001
0000
0100
0000
,
1000
0000
0001
0000
,
0100
0000
0010
0000
,
1000
0001
1000
0001
,
1000
0000
0000
0000
,
0110
0000
0001
0001
,
0001
0001
0001
0000
,
0110
0000
1000
1000
,
1000
1000
1000
0000
,
0110
0000
0001
0001
,
0001
0001
0001
0000
,
0110
0000
1000
0000
,
0001
0000
0000
0000
,
1001
0000
0010
0010
,
0010
0010
0010
0000
,
1001
0000
0100
0100
,
0100
0100
0100
0000
,
1001
0000
0010
0010
,
0010
0010
0010
0000
,
1001
0000
0100
0100
,
0100
0100
0100
0000
,
1000
0000
0000
0000
,
0001
0000
0000
0000
,
0100
0000
0000
0000
,
0010
0000
0000
0000
,
1000
0000
0100
0000
,
0010
0000
0000
0000
,
0001
0000
0010
0000
,
0100
0000
0000
0000
,
1001
0000
0000
0000
,
1000
1000
0001
0001
,
0100
0000
0000
0000
,
0001
0001
1000
1000
,
0010
0000
0010
0000
,
0100
0000
0100
0000
,
0001
0000
0001
0000
,
1000
0000
0100
0000
,
0110
0000
0000
0000
;

//--------------- dance-single - aboutblank ----------------
#NOTES:
     dance-single:
     aboutblank:
     Easy:
     6:
     0,0,0,0,0:
0000
0000
0000
0000
,
0000
0000
0000
0000
,
0000
0000
0000
0000
,
0000
0000
0000
0000
,
1000
1000
1000
0000
,
0010
0010
0010
0000
,
0001
0001
0001
0000
,
0100
0000
0000
0000
,
0001
0001
0001
0000
,
0010
0010
0010
0000
,
0100
0100
0100
0000
,
1000
1000
1000
0000
,
0001
1000
0001
0000
,
0010
0010
0100
0100
,
1000
0001
1000
0000
,
0110
0000
1001
0000
,
0001
0100
1000
0000
,
1000
0100
0001
0000
,
1000
0010
0001
0000
,
1001
0000
0110
0000
,
0001
0100
0010
0000
,
1000
0010
0100
0000
,
0001
0010
0100
0000
,
1001
0000
0000
0000
,
0010
0000
1000
0100
,
1000
0100
1000
0000
,
0010
0000
0001
0100
,
0001
0100
0001
0000
,
0010
0000
1000
0100
,
1000
0100
1000
0000
,
0010
0000
0001
0100
,
0001
0100
0001
0000
,
1001
0000
1000
0100
,
0001
0100
1000
0000
,
1001
0000
0001
0100
,
1000
0100
0001
0000
,
0110
0000
0010
0100
,
1000
0001
0010
0100
,
1001
0000
0010
1000
,
0001
0000
0000
0000
,
1001
0000
1000
0100
,
0001
0100
1000
0100
,
0010
0000
0001
0100
,
1000
0100
0001
0100
,
0010
0000
1000
0010
,
0001
0010
1000
0010
,
0100
0000
0001
1000
,
0001
0000
0110
0000
,
1000
0000
0001
0010
,
0100
0010
1000
0010
,
0001
0000
1000
0010
,
0100
0010
0001
0010
,
1000
0000
0001
0100
,
0010
0000
1000
0100
,
0010
0000
0110
0000
,
1001
0000
1000
0001
,
1000
1000
1000
0000
,
0001
0001
0001
0000
,
0010
0010
0010
0000
,
0100
0100
0100
0000
,
1000
0001
0100
0000
,
0001
1000
0100
0000
,
1000
0001
0010
0000
,
0110
0000
1001
0000
,
1000
0010
0010
0000
,
0001
0010
0010
0000
,
1000
0100
0100
0000
,
0001
0100
0100
0000
,
1001
0110
1001
0000
,
1001
0110
1001
0000
,
1000
0001
0100
0000
,
0001
1000
0100
0010
,
1001
0000
0000
0000
;

//--------------- dance-single - aboutblank ----------------
#NOTES:
     dance-single:
     aboutblank:
     Medium:
     12:
     0,0,0,0,0:
0000
0000
0000
0000
,
0000
0000
0000
0000
,
0000
0000
0000
0000
,
0000
0000
0000
0000
,
1000
0001
0100
0000
0010
0000
0010
0000
,
1000
0100
0010
0000
0001
0000
0001
0000
,
0011
0000
1100
0000
1000
0010
0100
0001
,
0010
0000
0000
0000
,
0110
0000
0100
0000
1000
0100
0010
0000
,
0010
0000
0001
0000
1000
0010
0100
0000
,
0001
0000
1000
0000
0001
0010
0100
0000
,
0010
0100
1000
0000
1000
0001
0100
0000
,
0010
0000
1000
0000
0001
0100
0010
0000
,
0010
1000
0010
1000
0010
0000
0101
0000
,
1000
1000
0100
0000
0001
0001
0100
0000
,
0020
0000
0000
0030
,
0001
0000
0001
0000
0001
1000
0100
0000
,
1000
0001
0100
0000
0001
1000
0100
0000
,
1000
0010
0100
0000
0010
0100
0001
0000
,
0001
0010
0100
0000
0010
0100
1000
0000
,
0001
0000
0100
0000
0010
1000
0100
0000
,
1000
0100
0001
0100
1000
0100
0010
0000
,
0001
1000
0010
0000
0100
0001
1000
0000
,
0002
0000
1000
1003
,
0002
0000
0000
0000
0013
1000
0010
0001
,
0010
1000
0010
0001
0010
1000
0010
0001
,
2000
0000
0000
0000
3010
0001
0010
1000
,
0010
0001
0010
1000
0010
0001
0010
1000
,
0002
0000
0000
0000
0103
1000
0100
0001
,
0100
1000
0100
0001
0100
1000
0100
0001
,
2000
0000
0000
0000
3100
0001
0100
1000
,
0100
0001
0100
1000
0100
0001
0100
1000
,
0020
0000
0000
0000
0130
0001
0010
0001
,
0100
0001
0010
0001
0100
0001
0010
0001
,
0200
0000
0000
0000
0310
1000
0100
1000
,
0010
1000
0100
1000
0010
1000
0100
1000
,
0001
0100
1000
0010
,
0001
0100
1000
0010
,
1000
0100
1000
0100
0010
0001
0010
0001
,
1000
0000
0000
0000
,
1001
0000
1000
0001
0100
0010
0100
1000
,
0100
0010
0100
0001
0100
0010
0100
0000
,
1001
0000
0001
1000
0100
0010
0100
0001
,
0100
0010
0100
1000
0000
0001
1000
0010
,
0110
0000
0100
0000
0001
0010
0100
0010
,
0001
0010
1000
0010
0001
0010
0100
0010
,
0001
0100
0010
1000
0001
0100
0010
1000
,
0001
1000
0000
0000
0001
0000
0000
0100
0000
0000
0010
0000
1000
0000
0100
0000
,
1000
0000
1100
0100
0001
0100
1000
0010
,
0001
0010
1000
0100
0001
0100
1000
0000
,
0001
0000
0101
0100
1000
0100
0001
0010
,
1000
0010
0001
0100
0010
1000
0001
0000
,
0100
0000
0110
0010
1000
0001
0100
0010
,
1000
0001
0100
0010
1000
0100
0010
0000
,
0011
0000
1100
0000
1000
0100
0001
0000
,
0100
0100
0010
0001
1000
1000
0001
0000
,
1001
0000
1000
1000
0001
0001
0100
0000
,
0010
1000
0001
0100
0010
1000
0001
0000
,
0010
0010
0100
0100
0010
0010
0100
0000
,
0010
0100
1000
0001
0010
0100
1000
0000
,
0001
0100
1000
0100
0001
0100
1000
0000
,
0100
0010
1000
0100
0010
0001
1000
0000
,
1000
0100
0001
0100
1000
0010
0001
0010
,
0100
0100
0001
0010
0100
0100
1000
0000
,
0001
0100
0110
0010
1000
0001
1001
0000
,
1000
0001
0011
0010
0100
1000
1001
0000
,
0001
0010
1100
0001
0010
0100
1100
0000
,
1000
0100
0011
1000
0100
0010
0011
0000
,
1000
0001
0101
0100
0010
1000
1010
0000
,
0001
1000
1100
0100
0010
0001
0011
0000
,
0011
0100
1000
0000
1010
0100
0001
0000
,
1001
0000
0001
0000
0010
0000
0100
0000
1000
0000
0001
0000
0100
0010
1000
0001
,
0100
0000
0000
0000
;

//--------------- dance-single - MEGAtive ----------------
#NOTES:
     dance-single:
     MEGAtive:
     Hard:
     16:
     0,0,0,0,0:
0000
0000
0000
0000
,
0000
0000
0000
0000
,
0000
0000
0000
0000
,
0000
0000
0000
0000
,
1000
0000
0000
0010
1000
0000
0001
0000
0010
0000
0000
0100
0010
0000
0001
0000
,
1000
0000
0000
0010
0100
0000
0001
0000
1000
0000
0000
0100
0010
0000
0100
0000
,
1000
0010
0100
0001
0010
0100
1000
0001
,
2002
0000
0000
0000
0000
0000
3003
0001
,
1000
0010
0100
0000
1000
0000
0100
0010
0000
0100
0001
0000
0101
0000
0100
0000
,
0001
0010
0100
0000
0001
0000
0100
0010
0000
0100
1000
0000
1100
0000
0100
1000
,
0001
1000
0010
0000
0100
0000
0010
0100
0000
0001
0100
0000
0101
0000
0001
0000
,
1000
0100
0010
0000
0110
0000
0100
0000
1000
0010
0000
0010
0000
0010
0200
0000
,
0301
0100
0010
0000
0001
0000
0010
0100
0000
0001
0100
0000
0110
0000
0010
0000
,
1000
0100
0020
0000
0100
0000
0001
0000
0130
0000
0010
0001
1000
0000
0010
0000
,
0110
0000
0100
0000
0101
0000
0001
0010
0100
0000
0000
1100
0000
1001
0000
0000
,
0201
0000
0000
0000
0000
0000
0000
0001
0000
0010
0000
1300
0000
0000
1200
0000
,
0000
0000
1300
0100
0001
0000
0001
0000
1000
0100
0010
0000
0010
0000
0100
1000
,
0001
0010
0001
0010
0100
0000
1000
0010
0100
0010
0100
0001
1000
0100
0010
0001
,
1000
0000
0001
0010
0000
0100
0010
0000
0011
0000
0001
0100
0001
0000
1000
0000
,
0010
0100
0010
0100
0001
0000
1000
0100
0000
0010
0100
1000
0001
0000
0100
0000
,
0101
0000
0001
0100
0010
0000
0010
0000
1000
0100
0010
0000
0010
0000
0100
1000
,
0001
0100
0001
0100
0010
0000
0100
0001
0010
0100
0010
0100
1000
0001
0100
0010
,
1000
0000
0010
0100
0000
0010
1000
0001
1000
0000
0100
0010
0100
0000
1000
0002
,
0000
0000
0000
0000
0000
0000
0000
0200
0000
0000
0303
0000
0101
0000
0001
0010
,
0200
0000
0000
0000
0320
0230
0320
0230
,
0320
0230
0320
0230
0320
0230
0320
0230
,
2300
0000
0000
0000
3002
2003
3002
2003
,
3002
2003
3002
2003
3002
2003
3002
2003
,
3020
0000
0000
0000
0230
0302
0203
0320
,
0230
0302
0203
0320
0230
0302
0203
0320
,
2030
0000
0000
0000
3200
0320
0230
2300
,
3200
0320
0230
2300
3200
0320
0230
1300
,
1200
0000
1000
0000
2300
3020
0230
0302
,
0023
0230
2300
3020
0230
0302
0023
0230
,
2300
0000
0100
0000
3200
0320
0032
0203
,
0320
2030
3200
0320
0032
0203
0320
2030
,
3002
0023
2030
3020
0032
0023
2030
3020
,
0032
0203
2300
3200
0302
0203
2300
3200
,
0302
0023
2030
3002
0203
2300
3020
0130
,
0110
0000
0000
0000
0000
0000
0000
0000
0000
0100
0001
0000
1001
0000
0000
0000
,
1000
0000
0100
0000
0001
0000
0100
0000
1000
0000
0001
0100
0010
0000
0100
0000
,
1000
0000
0100
0010
0100
0000
0001
0000
0010
0000
0100
1000
0100
0000
0010
0000
,
0001
0000
0100
0000
1000
0000
0100
0000
0001
0000
1000
0100
0010
0000
1000
0000
,
0010
0000
0100
0010
0100
0000
1000
0000
0000
1000
0100
0010
0001
0000
0200
0000
,
0310
0000
0001
0000
0010
0000
1000
0000
0100
0000
0010
0001
0010
0000
0100
0010
,
0000
0100
1000
0001
1000
0000
0010
0000
0100
0000
1000
0100
0010
0000
0100
0000
,
0001
1000
0100
0010
0000
0001
0100
0010
0000
0010
0000
1000
0100
0000
0000
0110
,
0000
1100
0000
0000
1001
0000
0001
0100
0000
0000
0110
0000
1001
0000
0000
1000
,
0001
0000
0010
0000
0100
0000
0010
0000
1000
0000
0010
0100
0010
0000
0001
0000
,
0001
0000
0100
0010
0100
0000
1000
0000
0100
0000
0010
0100
0001
0000
1000
0000
,
1000
0000
0100
0000
0010
0000
0100
0000
0001
0000
0100
0010
0100
0000
0010
0000
,
0001
0000
0100
0010
0100
0000
1000
0000
0100
0000
0001
0000
0102
0000
1000
0000
,
1003
0000
0100
0010
0100
0000
0001
0000
0100
0000
0010
0100
1000
0000
0010
0200
,
0000
0000
1000
0000
0010
0000
1000
0000
0310
0000
0100
0001
1000
0000
2001
0000
,
0000
0000
0000
3001
0010
0000
0100
0010
0001
0000
1000
0010
0000
0000
0110
0000
,
2002
0000
3003
0020
,
1030
0100
0010
0000
0001
0100
0010
0000
1000
0100
0010
0001
0000
0010
0100
1000
,
0000
1000
0010
0100
0000
0200
0001
0000
0301
0000
1000
0100
0000
0010
0100
1000
,
0001
0100
0010
0000
1000
0100
0010
0000
0001
0100
0010
1000
0000
0010
0100
0001
,
0000
0001
0010
0100
0000
0200
0010
0000
0310
0000
0100
1000
0010
0100
0002
0000
,
0103
0010
1000
0000
0100
0010
0001
0000
0100
0010
1000
0001
0000
0100
0010
1000
,
0000
1000
0100
0010
0000
0200
1000
0000
1300
0000
0001
0100
0000
0100
0010
1000
,
0001
0000
0010
0100
0010
0000
0001
1000
0000
1000
0010
0000
0001
0000
0010
0000
,
1000
0000
0100
0010
0001
0000
0100
0000
0010
0000
1000
0100
0010
0000
0100
0000
,
1000
0010
0100
0000
0001
0010
0100
0000
1000
0010
0100
0001
0000
0001
0100
0010
,
0000
1000
0100
0010
0000
0002
0100
0000
0103
0000
0010
1000
0000
0100
0010
0001
,
1000
0010
0100
0000
0001
0010
0100
0000
1000
0010
0100
0001
0000
0100
0010
1000
,
0000
0100
0010
0001
0000
0020
0100
0000
0130
0000
0010
0001
0100
0010
2000
0000
,
3010
0100
0001
0000
0010
0100
1000
0000
0010
0100
0001
1000
0000
0001
0010
0100
,
0000
0010
0001
0100
0000
0020
0100
0000
0130
0000
0010
1000
0000
1000
0100
0010
,
0001
0000
0100
0010
1000
0000
0001
0010
0000
0100
0010
0000
0001
0000
0001
0000
,
2000
0000
3020
0000
0032
0000
2003
0000
3200
0000
0310
0100
0010
0100
0001
1000
,
0002
0000
0000
0000
,
0003
0000
0000
0000
;
