#TITLE:Blue Waltz;
#SUBTITLE:;
#ARTIST:Big Idea;
#TITLETRANSLIT:;
#SUBTITLETRANSLIT:;
#ARTISTTRANSLIT:;
#GENRE:;
#CREDIT:;
#MUSIC:11. Blue Waltz.mp3;
#BANNER:;
#BACKGROUND:;
#CDTITLE:;
#SAMPLESTART:0.000;
#SAMPLELENGTH:0.000;
#SELECTABLE:YES;
#OFFSET:2.563;
#BPMS:0.000=111.000;
#STOPS:;
#BGCHANGES:;
#FGCHANGES:;

//--------------- dance-single - about-blank ----------------
#NOTES:
     dance-single:
     about-blank:
     Beginner:
     1:
     0,0,0,0,0:
0000
0000
0000
0000
,
0000
0000
0000
0000
,
0110
0000
0000
0000
,
0000
0000
0000
0000
,
0000
0000
0000
0000
,
0000
0000
0000
0000
,
0000
0000
0000
0000
,
0000
0000
0000
0000
,
0000
0000
0000
0000
,
0000
0000
0000
0000
,
0000
0000
0000
0000
,
0000
0000
0000
0000
,
0000
0000
0000
0000
,
0000
1001
0000
0000
,
0000
0000
0000
0000
,
0000
0000
0000
0000
,
0000
0000
0000
0000
,
0000
0000
0000
0000
,
0000
0000
0000
0000
,
0000
0000
0000
0000
,
0000
0000
0000
0000
,
0000
0000
0000
0000
,
0000
0000
0000
0000
,
0000
0000
0000
0000
,
0000
0000
0000
0000
,
0000
0000
0000
0000
,
0000
0000
0000
0110
,
0000
0000
0000
0000
,
0000
0000
0000
0000
,
0000
0000
0000
0000
,
0000
0000
0000
0000
,
0000
0000
0000
0000
,
0000
0000
0000
0000
,
0000
0000
0000
0000
,
0000
0000
0000
0000
,
0000
0000
0000
0000
,
0000
0000
0000
0000
,
0000
0000
0000
0000
,
0000
0000
0000
1001
;

//--------------- dance-single - UNI4 Step Team ----------------
#NOTES:
     dance-single:
     UNI4 Step Team:
     Easy:
     1:
     0,0,0,0,0:
0000
0000
0000
0000
,
0000
0000
0000
0000
,
0110
0000
0000
0000
,
0000
0000
0001
0000
,
0000
0000
0000
0000
,
1001
0000
0000
0000
,
0000
0000
1000
0000
,
0000
0000
0000
0000
,
0010
0000
0000
0000
,
0000
0000
0010
0000
,
0000
0000
0000
0000
,
0100
0000
0000
0000
,
0000
0000
0100
0000
,
0000
1001
0000
0000
,
0000
0000
0000
0001
,
0000
0000
0000
0000
,
0000
0001
0000
0000
,
0000
0000
0000
0010
,
0000
0000
0000
0000
,
0000
0010
0000
0000
,
0000
0000
0000
0100
,
0000
0000
0000
0000
,
0000
0100
0000
0000
,
0000
0000
0000
1000
,
0000
0000
0000
0000
,
0000
1000
0000
0000
,
0000
0000
0000
0110
,
0000
0000
0000
0000
,
0000
0010
0000
0000
,
0000
0000
0000
1001
,
0000
0000
0000
0000
,
0000
1000
0000
0000
,
0000
0000
0000
0110
,
0000
0000
0000
0000
,
0000
0100
0000
0000
,
0000
0000
0000
1001
,
0000
0000
0000
0000
,
0000
0001
0000
0000
,
0000
0000
0000
1001
;

//--------------- dance-single - UNI4 Step Team ----------------
#NOTES:
     dance-single:
     UNI4 Step Team:
     Medium:
     3:
     0,0,0,0,0:
0000
0000
0000
0000
,
0000
0000
0000
0000
,
0110
0000
0000
1000
,
0000
0000
0001
0000
,
0000
0010
0000
0000
,
1001
0000
0000
0001
,
0000
0000
1000
0000
,
0000
0100
0000
0000
,
0010
0000
0000
0001
,
0000
0000
0010
0000
,
0000
0001
0000
0000
,
0100
0000
0000
1000
,
0000
0000
0100
0000
,
0000
1001
0000
0000
,
0000
0000
0000
0001
,
0000
0000
1000
0000
,
0000
0001
0000
0000
,
0100
0000
0000
0010
,
0000
0000
1000
0000
,
0000
0010
0000
0000
,
0001
0000
0000
0100
,
0000
0000
1000
0000
,
0000
0100
0000
0000
,
0010
0000
0000
1000
,
0000
0000
0001
0000
,
0000
1000
0000
0000
,
0010
0000
0000
0110
,
0000
0000
1001
0000
,
0000
0011
0000
0000
,
1010
0000
0000
1001
,
0000
0000
0110
0000
,
0000
1100
0000
0000
,
0101
0000
0000
0110
,
0000
0000
1001
0000
,
0000
0101
0000
0000
,
1010
0000
0000
1001
,
0000
0000
0110
0000
,
0000
0011
0000
0000
,
1100
0000
0000
1001
;

//--------------- dance-single - UNI4 Step Team ----------------
#NOTES:
     dance-single:
     UNI4 Step Team:
     Hard:
     6:
     0,0,0,0,0:
0000
0000
0000
0000
,
0000
0000
0000
0000
,
0110
0000
0001
1000
,
0100
0000
0010
0000
0001
0000
0000
1000
,
0001
0000
0010
0001
0100
1000
0100
0001
,
1001
0000
1000
0001
,
0100
0000
0010
0000
1000
0000
0000
0001
,
0100
0100
1000
0100
,
0010
0000
0000
0000
0010
1000
0001
0000
,
1000
0100
0010
0000
,
0000
0011
1000
0010
,
0100
0000
0001
1000
0001
0100
1000
0000
,
0001
0010
1000
0010
,
0100
1001
1000
0100
,
0010
0000
0000
0000
0000
0000
0001
0100
,
0001
0100
0010
0000
1000
0100
1000
0100
,
0010
0000
0001
0010
0001
0010
0100
0000
,
0100
1000
0001
1000
0001
0000
0010
0100
,
0010
0100
1000
0000
1000
0010
1000
0010
,
0100
0000
0010
0100
0010
0100
0001
0000
,
0001
0010
0001
0010
0100
0000
0100
1000
,
0001
0010
0100
0000
1000
0100
0010
0001
,
0100
0000
0100
0001
1000
0001
0010
0000
,
0010
0001
0010
0100
1000
0000
1000
0001
,
0100
0010
0001
0000
0001
1000
0100
0010
,
1000
0000
1000
0001
0010
0100
1000
0000
,
0010
0100
0001
1000
0010
0000
0110
0000
,
0110
0000
1000
0001
1001
0000
1001
0000
,
0010
0000
0001
0000
0011
0000
0000
0000
0011
0000
0000
0000
1000
0000
0001
0100
,
1010
0000
1010
0000
1000
0001
1001
0000
,
1001
0000
0100
0010
0110
0000
0110
0000
,
1000
0100
1100
0000
1100
0000
0001
0100
,
0101
0000
0101
0000
0001
0010
0110
0000
,
0110
1000
0001
1000
1001
0000
1001
1000
,
0001
0000
0100
0000
0101
0000
0000
0000
0101
0000
0001
0000
0100
0000
0001
0100
,
1010
0000
1010
0010
1000
0001
1001
0000
,
1100
0001
0100
0010
0110
0000
1010
0001
,
0100
0010
0011
0000
0110
0010
1000
0100
,
1100
0000
1100
0100
0010
0001
1001
0000
;

//--------------- dance-single - UNI4 Step Team ----------------
#NOTES:
     dance-single:
     UNI4 Step Team:
     Challenge:
     11:
     0,0,0,0,0:
0000
0000
0000
0000
,
0000
0000
0000
0000
,
1002
0000
0103
0010
,
1000
0000
0100
0000
0002
0000
0000
1003
,
0010
0000
0001
1000
0100
0001
0010
1000
,
0002
0000
0103
1000
,
0010
0000
0001
0000
1002
0000
0000
0013
,
0100
0110
1100
0011
,
1002
0000
0000
0000
1003
0010
0001
0000
,
0011
1010
0002
0000
,
0000
0013
1000
0100
,
0002
0000
0103
0010
,
0000
0001
0011
1010
,
1100
0000
0002
1003
0100
0010
0001
0100
,
0010
0000
0000
0000
0000
0000
1000
0010
,
1000
0010
0100
0001
1000
0100
1000
0100
,
0010
0001
0100
0010
0100
0010
1000
0001
,
0010
0100
0010
0100
2000
0000
3001
0010
,
0001
0010
0100
0001
1000
0010
1000
0010
,
0100
1000
0001
0100
0001
0100
0010
1000
,
0001
0010
0100
1000
0020
0000
0031
0010
,
1010
1000
1200
0000
0301
0100
1100
1000
,
1020
0000
0031
1000
1100
0100
0201
0000
,
1300
0001
0011
0010
2010
0000
3001
1000
,
1100
0100
0101
0100
1000
0001
0101
0100
,
1100
0100
0001
1000
1010
0010
0011
0010
,
1000
0000
0001
0000
0010
0000
0100
0000
1000
0000
0000
0000
1001
0000
1000
0100
,
1000
0000
0001
0100
0001
0000
0000
0000
1001
0000
0001
0010
0001
0000
1000
0010
,
1000
0000
0000
0000
1001
0000
1000
0100
1000
0000
0100
0010
0100
0000
0010
0000
,
1001
0000
0001
0100
0001
0000
0100
0010
0100
0000
0000
0000
1001
0000
1000
0100
,
0010
0000
0010
0001
1000
0000
0000
0000
1001
0000
0001
0100
0010
0000
0010
1000
,
0001
0000
0000
0000
1001
0000
1000
0010
0100
0000
0100
0001
1000
0000
0000
0000
,
1001
0000
0000
0000
1001
0000
0000
0000
0000
0000
0000
0000
0011
0000
0001
0010
,
0100
0000
0001
0100
1000
0000
0000
0000
1010
0000
1000
0010
0100
0000
1000
0100
,
0001
0000
0000
0000
1001
0000
0001
0100
0010
0000
0001
0010
1000
0000
0100
0000
,
1001
0000
1000
0100
0010
0000
1000
0010
0001
0000
0000
0000
0101
0000
0001
1000
,
0100
0000
0001
0100
1000
0000
0000
0000
1100
0000
1000
0001
0100
0000
1000
0100
,
0001
0000
0000
0000
0011
0000
0010
0001
0100
0000
0010
1000
0001
0000
0000
0000
,
0110
0000
0000
0000
0110
0000
0000
0000
1000
0001
1000
0002
2000
0000
0000
0000
,
0000
0000
0000
0000
,
3003
0000
0000
0000
;
