#TITLE:BillyRock;
#SUBTITLE:;
#ARTIST:Big Idea;
#TITLETRANSLIT:;
#SUBTITLETRANSLIT:;
#ARTISTTRANSLIT:;
#GENRE:;
#CREDIT:;
#MUSIC:BillyRock.mp3;
#BANNER:;
#BACKGROUND:;
#CDTITLE:;
#SAMPLESTART:0.000;
#SAMPLELENGTH:0.000;
#SELECTABLE:YES;
#OFFSET:1.448;
#BPMS:0.000=316.000;
#STOPS:;
#BGCHANGES:;
#FGCHANGES:;

//--------------- dance-single - aboutblank ----------------
#NOTES:
     dance-single:
     aboutblank:
     Beginner:
     7:
     0,0,0,0,0:
0000
0000
0000
0000
,
0000
0000
0000
0000
,
0000
0000
0000
0000
,
0000
0000
0000
0000
,
0000
0000
0000
0000
,
0000
0000
0000
0000
,
0000
0000
0000
0000
,
0000
0000
0000
0000
,
0000
0000
0000
0000
,
0000
0000
0000
0000
,
1000
0000
0000
0000
,
1000
0000
0000
0000
,
0001
0000
0000
0000
,
0001
0000
0000
0000
,
0010
0000
0000
0010
0000
0000
0010
0000
,
0000
0010
0000
0000
0100
0000
0000
0000
,
1000
0001
1000
0000
,
0001
1000
0001
0000
,
0100
0000
0000
0100
0000
0000
0100
0000
,
0000
0100
0000
0000
0100
0000
0000
0000
,
0010
0000
0000
0010
0000
0000
0010
0000
,
0000
0010
0000
0000
0010
0000
0000
0000
,
1000
0000
0000
0001
0000
0000
1000
0000
,
0000
0001
0000
0000
1000
0000
0000
0000
,
0001
0000
0000
0010
0000
0000
1000
0000
,
0000
0010
0000
0000
0001
0000
0000
0000
,
0100
0000
0000
0100
0000
0000
0010
0000
,
0000
0010
0000
0000
1000
0000
0000
0000
,
0100
0000
0000
0100
0000
0000
0010
0000
,
0000
0010
0000
0000
0001
0000
0000
0000
,
0100
0000
0000
0100
0000
0000
0010
0000
,
0000
0010
0000
0000
1000
0000
0000
0000
,
0100
0000
0000
0100
0000
0000
0010
0000
,
0000
0010
0000
0000
0001
0000
0000
0000
,
1000
0000
0010
0000
,
0100
0000
0000
0100
0000
0000
0000
0000
,
0001
0000
1000
0000
,
0010
0000
0000
0010
0000
0000
0000
0000
,
1000
0000
0001
0000
,
0100
0000
0000
0100
0000
0000
0000
0000
,
0001
0000
1000
0000
,
0010
0000
0000
0010
0000
0000
0000
0000
,
1001
0000
0000
0000
,
0000
0000
0000
0000
,
1001
0000
0000
0000
,
0000
0000
0000
0000
,
0110
0000
0000
0000
,
1000
0000
0000
0000
,
0110
0000
0000
0000
,
0001
0000
0000
0000
,
1000
0000
0000
0010
0000
0000
1000
0000
,
0000
0010
0000
0000
1000
0000
0000
0000
,
0001
0000
0000
0100
0000
0000
0001
0000
,
0000
0100
0000
0000
0001
0000
0000
0000
,
0010
0000
0000
0100
0000
0000
0010
0000
,
0000
0100
0000
0000
0010
0000
0000
0000
,
0001
0000
0000
0010
0000
0000
0100
0000
,
0000
1000
0000
0000
0001
0000
0000
0000
,
0100
0000
0000
0001
0000
0000
0100
0000
,
0000
0001
0000
0000
0100
0000
0000
0000
,
0100
0000
0000
1000
0000
0000
0100
0000
,
0000
1000
0000
0000
0100
0000
0000
0000
,
0010
0000
0000
1000
0000
0000
0010
0000
,
0000
1000
0000
0000
0010
0000
0000
0000
,
0010
0000
0000
0001
0000
0000
0010
0000
,
0000
0001
0000
0000
0010
0000
0000
0000
,
0110
0000
0000
0000
,
0000
0000
0000
0000
,
0001
0000
1000
0000
,
0001
0000
1000
0000
,
0110
0000
0000
0000
,
0000
0000
0000
0000
,
1000
0000
0001
0000
,
1000
0000
0001
0000
,
0010
0000
0010
0000
,
0100
0000
0100
0000
,
1000
0000
1000
0000
,
0001
0000
0001
0000
,
0100
0000
0100
0000
,
0010
0000
0010
0000
,
1000
0000
0100
0000
,
0010
0000
0001
0000
,
2000
0000
0000
0000
,
3000
0000
0000
0000
,
0002
0000
0000
0000
,
0003
0000
0000
0000
,
0020
0000
0000
0000
,
0100
0000
0000
0000
,
0200
0000
0000
0000
,
0330
0000
0000
0000
,
0002
0000
0000
0000
,
0003
0000
0000
0000
,
2000
0000
0000
0000
,
3000
0000
0000
0000
,
0020
0000
0000
0000
,
0100
0000
0000
0000
,
0200
0000
0000
0000
,
0330
0000
0000
0000
,
0110
0000
0000
0000
,
0000
0000
0000
0000
,
0001
0000
1000
0000
,
0010
0000
0000
0010
0000
0000
0000
0000
,
1000
0000
0001
0000
,
0100
0000
0000
0100
0000
0000
0000
0000
,
0001
0000
1000
0000
,
0010
0000
0000
0010
0000
0000
0000
0000
,
1000
0000
0001
0000
,
0100
0000
0000
0100
0000
0000
0000
0000
,
0110
0000
0000
0000
,
0001
0000
0000
0000
,
0110
0000
0000
0000
,
1000
0000
0000
0000
,
1001
0000
0000
0000
,
0110
0000
0000
0000
,
1001
0000
0000
0000
,
0110
0000
0000
0000
;

//--------------- dance-single - aboutblank ----------------
#NOTES:
     dance-single:
     aboutblank:
     Easy:
     12:
     0,0,0,0,0:
0000
0000
0000
0000
,
0000
0000
0000
0000
,
0000
0000
0000
0000
,
0000
0000
0000
0000
,
0000
0000
0000
0000
,
0000
0000
0000
0000
,
0000
0000
0000
0000
,
0000
0000
0000
0000
,
0000
0000
0000
0000
,
0000
0000
0000
0000
,
1000
0100
0010
0000
,
0001
0100
0010
0000
,
1000
0010
0100
0000
,
0001
0010
0100
0000
,
1000
0000
0000
0001
0000
0000
1000
0000
,
0000
0010
0000
0000
0100
0000
0001
0000
,
0010
0001
0100
1000
,
0100
0001
0010
0100
,
1000
0000
0000
0010
0000
0000
0100
0000
,
0000
0001
0000
0000
0010
0000
0000
0000
,
0001
0000
0000
0010
0000
0000
0100
0000
,
0000
1000
0000
0000
0010
0000
0000
0000
,
1000
0000
0000
0001
0000
0000
0100
0000
,
0000
0010
0000
0000
1000
0000
0001
0000
,
0010
0100
1000
0100
,
0001
0100
1000
0000
,
0020
0000
0000
0130
0000
0000
0001
0000
,
0000
0001
0000
0000
0001
0000
0000
0000
,
0020
0000
0000
0130
0000
0000
1000
0000
,
0000
1000
0000
0000
1000
0000
0000
0000
,
0002
0000
0000
1003
0000
0000
0010
0000
,
0000
0100
0000
0000
0001
0000
0000
0000
,
2000
0000
0000
3001
0000
0000
0010
0000
,
0000
0100
0000
0000
1000
0000
0000
0000
,
0010
0100
0001
0100
,
0010
0000
0000
0010
0000
0000
0000
0000
,
0100
0010
1000
0010
,
0100
0000
0000
0100
0000
0000
0000
0000
,
0001
0010
0100
0010
,
0001
0000
0000
0001
0000
0000
0000
0000
,
1000
0010
0100
0010
,
1000
0000
0000
1000
0000
0000
0000
0000
,
0001
0010
0100
1000
,
0001
0100
0010
1000
,
0001
0010
0100
1000
,
0001
0100
0010
1000
,
0001
0010
0001
0010
,
0100
1000
0100
1000
,
0001
1000
0001
1000
,
0001
0000
0110
0000
,
1000
0100
0010
0000
,
0001
0000
0101
0000
,
0001
0100
0010
0000
,
1000
0000
0001
0000
,
1000
0010
0100
0000
,
0001
0000
0011
0000
,
0001
0000
1000
0000
,
0100
0001
0100
0000
,
1000
0010
0100
0000
,
0001
0000
0011
0000
,
0001
0010
0100
0000
,
1000
0000
0001
0000
,
0010
0001
0100
0000
,
0010
0000
1001
0000
,
1000
0100
0001
0100
,
1000
0100
0010
0000
,
1001
0000
0000
0000
,
0000
0000
0000
0000
,
0010
0100
0010
0100
,
0010
0100
0010
0100
,
1001
0000
0000
0000
,
0000
0000
0000
0000
,
0100
0010
0100
0010
,
0100
0010
0100
0010
,
1001
0000
0001
0000
,
0100
0001
0010
0000
,
1001
0000
1000
0000
,
0100
1000
0010
0000
,
0101
0000
0010
0000
,
0001
0010
0100
0000
,
1010
0000
0100
0000
,
1000
0100
0010
0000
,
0002
0000
0000
0000
,
0000
0000
0000
0000
,
2003
0000
0000
0000
,
0000
0000
0000
0000
,
3010
0010
0010
0010
,
0010
0010
0010
0010
,
0200
0000
0000
0000
,
0302
0000
0000
0000
,
2003
0000
0000
0000
,
3200
0000
0000
0000
,
0320
0000
0000
0000
,
0000
0000
0000
0000
,
0031
0001
0001
0001
,
0001
0001
0001
0001
,
1000
0000
0000
0000
,
0000
0000
0000
0000
,
1001
0000
0000
0000
,
0000
0000
0000
0000
,
0001
0010
0100
1000
,
0010
0000
0000
0110
0000
0000
0000
0000
,
1000
0100
0010
0001
,
0100
0000
0000
0110
0000
0000
0000
0000
,
0001
1000
0001
0100
,
0001
0000
0000
0011
0000
0000
0000
0000
,
1000
0001
1000
0010
,
1000
0000
0000
1100
0000
0000
0000
0000
,
1000
0100
0010
0010
,
0001
0100
0010
0010
,
1000
0001
0010
0010
,
0100
1000
0010
0010
,
0100
0001
0010
0100
,
1000
0010
0100
0001
,
1000
0100
0010
0001
,
1000
0000
0010
0000
0100
0001
0100
0000
;

//--------------- dance-single - aboutblank ----------------
#NOTES:
     dance-single:
     aboutblank:
     Medium:
     14:
     0,0,0,0,0:
0000
0000
0000
0000
,
0000
0000
0000
0000
,
0000
0000
0000
0000
,
0000
0000
0000
0000
,
0000
0000
0000
0000
,
0000
0000
0000
0000
,
0000
0000
0000
0000
,
0000
0000
0000
0000
,
0000
0000
0000
0000
,
0000
0000
0000
0000
,
1000
0000
0010
0000
0100
0001
0000
0000
,
0001
0000
0010
0000
0100
1000
0000
0000
,
1000
0000
0001
0000
0100
0010
0000
0000
,
1000
0000
0001
0000
0010
0100
0000
0000
,
2000
0000
0000
3020
0000
0000
2030
0000
,
0000
3002
0000
0000
2003
0000
3020
0000
,
1030
0000
0100
0000
0010
0000
0001
1000
,
0001
0010
0100
1000
,
0002
0000
0000
0203
0000
0000
0320
0000
,
0000
2030
0000
0000
3020
0000
0230
0000
,
0302
0000
0000
2003
0000
0000
3002
0000
,
0000
0023
0000
0000
0032
0000
0003
0000
,
0020
0000
0000
0230
0000
0000
2300
0000
,
0000
3020
0000
0000
0230
0000
0302
0000
,
1003
0000
0100
0010
0000
0100
0010
0000
,
0001
0010
0000
0001
0010
0000
0000
0000
,
0011
0000
0000
0110
0000
0000
1010
0000
,
0000
1100
0000
0000
0101
0000
0000
0000
,
1010
0000
0000
0110
0000
0000
0011
0000
,
0000
0101
0000
0000
1100
0000
0000
0000
,
1001
0000
0000
1010
0000
0000
0011
0000
,
0000
1100
0000
0000
0101
0000
0000
0000
,
1001
0000
0000
0011
0000
0000
1100
0000
,
0000
1010
0000
0000
0101
0000
0000
0000
,
0001
0000
0100
0001
0100
0000
0010
0000
,
1000
0000
0000
1010
0000
0000
0000
0000
,
1000
0000
0100
1000
0100
0000
0010
0000
,
0001
0000
0000
0011
0000
0000
0000
0000
,
0001
0000
1000
0001
1000
0000
0010
0000
,
0100
0000
0000
0110
0000
0000
0000
0000
,
1000
0000
0001
1000
0001
0000
0010
0000
,
0100
0000
0000
0110
0000
0000
0000
0000
,
1000
0010
1000
1000
,
0001
0010
0001
0001
,
0100
0010
1000
1000
,
0100
0010
0001
0001
,
1000
0010
0100
0001
,
1000
0100
0010
0001
,
1000
0000
0010
1000
0010
0000
0100
0000
,
0001
1000
0001
0000
0220
0000
0330
0000
,
2000
0000
0000
3200
0000
0000
0302
0000
,
0000
0203
0000
0000
1300
0010
1000
0000
,
0002
0000
0000
0203
0000
0000
2300
0000
,
0000
3200
0000
0000
0302
0000
0003
0000
,
0020
0000
0000
0230
0000
0000
2300
0000
,
0000
3200
0000
0000
0310
0001
0010
0000
,
0002
0000
0000
0203
0000
0000
0320
0000
,
0000
0230
0000
0000
0302
0000
0003
0000
,
0020
0000
0000
0100
0000
0130
2000
0000
,
0000
3020
0000
0000
0230
0000
0302
0000
,
2003
0000
0000
0010
0000
3010
0200
0000
,
0000
0302
0000
0000
0023
0000
0030
0000
,
0002
0000
0000
0010
0000
0013
0200
0000
,
0000
2300
0000
0000
3001
0100
0010
0000
,
1000
0000
0010
1000
0000
0010
1000
0000
,
0001
0100
0000
0001
0100
0000
0001
0000
,
2000
0000
0000
0000
,
0000
0000
0000
3020
,
0100
0100
0000
0100
,
0000
0100
0000
0130
,
0002
0000
0000
0000
,
0000
0000
0000
2003
,
0100
0100
0000
0100
,
0000
0100
0000
3100
,
1001
1000
0001
0010
,
0100
0000
1000
0000
0010
0000
0100
0001
,
0100
0010
1000
0001
,
0100
0000
0010
0000
1000
0000
0001
0010
,
0001
1000
0001
0010
,
0100
0000
1000
0000
0010
0000
0100
0010
,
0100
0001
1000
0001
,
0100
0010
0100
0010
1000
0100
1000
0000
,
0002
0000
0100
0000
,
0100
0000
0103
0000
,
2000
0000
0010
0000
,
0010
0000
3010
0000
,
0001
1000
0001
1000
0001
1000
0001
1000
,
0001
1000
0001
1000
0001
1000
0001
1000
,
0020
0000
0130
0000
,
0002
0000
0013
0000
,
0200
0000
0001
0000
,
0010
0000
1300
0000
,
2000
0000
0010
0000
,
0001
0000
3100
0000
,
1000
0100
1000
0100
1000
0100
1000
0100
,
1000
0100
1000
0100
1000
0100
1000
0100
,
1000
0000
0000
0000
,
0000
0000
0000
0000
,
1001
0000
0000
0000
,
0000
0000
0000
0000
,
0001
0000
0010
0000
0100
0001
0100
0000
,
1000
0000
0000
1001
0000
0000
0000
0000
,
1000
0000
0010
0000
0100
1000
0100
0000
,
0001
0000
0000
1001
0000
0000
0000
0000
,
0001
0000
0100
0000
0010
1000
0001
0000
,
0100
0000
0000
0110
0000
0000
0000
0000
,
1000
0000
0100
0000
0010
0001
1000
0000
,
0010
0000
0000
0110
0000
0000
0000
0000
,
1000
0000
0100
0000
0010
0001
0000
0010
,
0001
0000
0100
0000
0010
1000
0000
0010
,
1000
0000
0100
0000
0010
0001
0000
0100
,
0001
0000
1000
0000
1000
0000
0001
1000
,
0001
0000
0100
0000
0010
1000
0000
0010
,
1000
0000
0100
0000
0010
0001
0000
0010
,
0001
0000
0100
0000
0010
1000
0000
0100
,
1000
0000
0001
0000
0001
1000
0000
0000
;

//--------------- dance-single - aboutblank ----------------
#NOTES:
     dance-single:
     aboutblank:
     Hard:
     16:
     0,0,0,0,0:
0000
0000
0000
0000
,
0000
0000
0000
0000
,
0000
0000
0000
0000
,
0000
0000
0000
0000
,
0000
0000
0000
0000
,
0000
0000
0000
0000
,
0000
0000
0000
0000
,
0000
0000
0000
0000
,
0000
0000
0000
0000
,
0000
0000
0000
0000
,
1000
0000
0010
0000
0100
0010
0000
0000
,
1000
0000
0010
0000
0100
0010
0000
0000
,
1000
0000
0100
0000
0010
0001
0000
0000
,
1000
0000
0100
0000
0010
0001
0000
0000
,
0100
0000
0100
0001
0000
0001
1000
0000
,
1000
0010
0000
0010
0100
0001
0100
0000
,
0001
0010
0001
0000
1000
0000
0001
0100
,
0010
0100
0000
0001
1000
0000
0010
0000
,
1000
0000
0100
0010
0000
0010
0001
0000
,
0001
0010
0000
0010
0100
1000
0100
1000
,
0001
0000
0001
0100
0000
0100
0010
0000
,
0010
1000
0000
1000
0001
0000
0000
0000
,
0010
0000
0100
1000
0000
1000
0010
0000
,
0100
0001
0000
0001
1000
0100
0010
0001
,
0100
0000
0001
1000
0000
0010
0100
0000
,
0001
1000
0000
0100
0010
0000
0000
0000
,
0200
0000
0000
0001
0000
0000
0010
0000
,
0000
1000
0000
0000
0310
0000
0000
0000
,
0020
0000
0000
1000
0000
0000
0100
0000
,
0000
0001
0000
0000
0130
0000
0000
0000
,
2000
0000
0000
0100
0000
0000
0010
0000
,
0000
0001
0000
0000
3010
0000
0000
0000
,
0002
0000
0000
0100
0000
0000
0010
0000
,
0000
1000
0000
0000
0013
0000
0000
0000
,
0001
0000
0010
0100
1000
0100
0010
0001
,
1000
0000
0000
0110
0000
0000
0000
0000
,
0001
0000
1000
0010
0100
0001
0100
0010
,
1000
0000
0000
0101
0000
0000
0000
0000
,
0001
0000
0010
0100
0010
0001
0100
0010
,
1000
0000
0000
1010
0000
0000
0000
0000
,
1000
0000
0100
0010
0001
1000
0100
0010
,
0001
0000
0000
1001
0000
0000
0000
0000
,
0001
0000
0100
0000
0010
0200
0000
0000
,
1300
0000
0100
0000
0010
0200
0000
0000
,
0301
0000
0010
0000
0100
0020
0000
0000
,
1030
0000
0010
0000
0100
0020
0000
0000
,
0031
0000
0010
0000
0100
2000
0000
0000
,
3001
0000
0100
0000
0010
2000
0000
0000
,
3001
0000
0100
0010
1000
0000
1100
0000
,
1000
0100
1000
0001
1000
0100
0010
0001
,
1000
0000
1000
0010
0000
0010
0100
0000
,
0100
0001
0000
0001
0010
0001
0010
0001
,
0100
0000
0100
0001
0000
0001
1000
0000
,
1000
0010
0000
0010
1000
0000
0000
0000
,
0001
0000
0001
0010
0000
0010
0100
0000
,
0100
1000
0000
1000
0010
0100
0010
0100
,
0001
0000
0010
0100
0000
1000
0100
0000
,
0010
0100
0000
1000
0001
0000
0000
0000
,
0100
0000
0010
1000
0000
1000
0001
0000
,
0001
0010
0000
0010
0100
1000
0010
0100
,
0001
0000
1000
0001
0000
0100
0010
0000
,
1000
0001
0000
0010
0100
0000
0000
0000
,
1000
0000
1000
0100
0000
0100
0001
0000
,
0001
0100
0000
0100
1000
0010
1000
0001
,
0100
0000
0001
0010
0000
0001
1000
0000
,
0001
0100
0000
0010
1000
0000
1001
0000
,
2002
0000
0000
0000
,
0000
0000
3003
0001
,
0100
1000
0100
0001
,
0100
1000
0100
0110
,
0220
0000
0000
0000
,
0000
0000
0330
1000
,
0010
0001
0010
1000
,
0010
0001
0010
1000
,
0100
0000
0010
0100
1000
0100
0000
0010
,
0000
0001
0100
0000
0001
0010
0000
0010
,
0000
0100
0000
1000
0010
0100
0000
0001
,
0000
1000
0001
0000
0100
0010
0000
1000
,
0000
0001
0000
0010
0100
1000
0000
0100
,
0000
1000
0010
0000
0100
0001
0000
0010
,
0000
0001
0000
1000
0001
0100
0010
1000
,
0000
0001
0010
0000
0100
1000
0000
0100
,
0010
0000
0000
0010
0001
0000
0000
0001
,
0010
0000
0000
0010
0001
0000
0000
0001
,
1000
0000
0000
1000
0100
0000
0000
0100
,
1000
0000
0000
1000
0100
0000
0000
0100
,
0010
0001
0010
0001
0010
0001
0010
0001
,
0010
0001
0010
0001
0010
0001
0010
0001
,
1000
0000
0000
1000
0010
0000
0000
0010
,
1000
0000
0000
1000
0001
0000
0000
0001
,
0100
0000
0000
0100
0010
0000
0000
0010
,
1000
0000
0000
1000
0100
0000
0000
0100
,
0010
0000
0000
0010
0001
0000
0000
0001
,
1000
0000
0000
1000
0010
0000
0000
0010
,
0100
0001
0100
0001
0100
0001
0100
0001
,
0100
0001
0100
0001
0100
0001
0100
0001
,
1000
0000
0000
0000
1000
0001
0000
0001
,
1000
0001
0000
0001
1000
0001
0000
0000
,
1001
0000
0000
0000
0001
1000
0000
1000
,
0001
1000
0000
1000
0001
0000
0000
0000
,
1000
0000
0100
0010
0001
1000
0100
0010
,
0100
0000
0000
1010
0000
0000
0000
0000
,
0001
0000
0100
0010
1000
0001
0010
0100
,
0010
0000
0000
0101
0000
0000
0000
0000
,
0001
0000
1000
0001
0100
0001
1000
0010
,
0100
0000
0000
0011
0000
0000
0000
0000
,
0001
0000
0010
0100
1000
0100
0001
0100
,
1000
0000
0000
1010
0000
0000
0000
0000
,
1001
0000
0001
0000
1000
0100
0000
0100
,
0010
0000
1000
0000
0001
0100
0000
0100
,
0010
0000
0001
0000
1000
0100
0000
0100
,
1000
0000
0100
0000
0001
0100
0000
0100
,
0001
0000
1000
0000
0010
0100
0000
0100
,
1000
0000
0001
0000
1000
0100
0000
0100
,
0001
0000
1000
0000
0010
0100
1000
0100
,
0010
0000
0010
0001
1000
0100
0001
0100
,
1000
0000
0000
0000
;

//--------------- dance-single - aboutblank ----------------
#NOTES:
     dance-single:
     aboutblank:
     Challenge:
     17:
     0,0,0,0,0:
0000
0000
0000
0000
,
0000
0000
0000
0000
,
0000
0000
0000
0000
,
0000
0000
0000
0000
,
0000
0000
0000
0000
,
0000
0000
0000
0000
,
0000
0000
0000
0000
,
0000
0000
0000
0000
,
0000
0000
0000
0000
,
0000
0000
0000
0000
,
0001
0000
0100
0000
0010
1000
0000
0010
,
1000
0000
0100
0000
0010
0001
0000
0010
,
0001
0000
0100
0000
0010
1000
0000
0100
,
1000
0000
0100
0000
0010
0001
0000
0100
,
0001
0000
0001
0010
0000
0010
0100
0000
,
0100
1000
0000
1000
0001
0000
0110
0000
,
0001
0100
0010
0000
0100
0000
0001
0010
,
0100
0010
0001
0100
0010
0000
1000
0000
,
0100
0000
0100
0010
0000
0010
0001
0000
,
0001
1000
0000
1000
0010
1000
0010
0000
,
0100
0000
0100
0001
0000
0001
1000
0000
,
1000
0010
0000
0010
1000
0000
0000
0000
,
0001
0000
0010
0001
0000
0100
0001
0000
,
1000
0010
0000
1000
0100
0010
0100
1000
,
0010
0000
1000
0001
0000
0100
0001
0000
,
1000
0001
0000
0100
0020
0000
0000
0000
,
1030
0000
0100
1000
0000
0100
0001
0000
,
0100
1000
0000
0100
0010
0000
0010
0000
,
0001
0000
0100
0001
0000
0100
1000
0000
,
0100
0001
0000
0100
0010
0000
0010
0000
,
1000
0000
0010
0001
0000
0010
1000
0000
,
0010
0001
0000
0010
1000
0000
1000
0000
,
0001
0000
0010
1000
0000
0010
0001
0000
,
0010
1000
0000
0010
0001
0000
0001
0000
,
1000
0000
0001
0010
0001
0100
1000
0100
,
0001
1000
0000
0001
1000
0000
0000
0000
,
0001
0000
1000
0010
1000
0100
0001
0100
,
1000
0100
0000
1000
0001
0000
0000
0000
,
0010
0000
0001
0100
0010
0001
0010
1000
,
0100
0010
0000
0100
0010
0000
0000
0000
,
0001
0000
0100
0010
0100
1000
0100
0001
,
0010
0100
0000
1000
0001
0000
0000
0000
,
0101
0000
1000
0000
0100
0001
0000
0000
,
1100
0000
0001
0000
0100
1000
0000
0000
,
0011
0000
1000
0000
0010
0001
0000
0000
,
1010
0000
0001
0000
0010
1000
0000
0000
,
0110
0000
0001
0000
0100
1000
0000
0000
,
0110
0000
1000
0000
0010
0001
0000
0000
,
0110
0000
1000
0100
0001
0000
0110
0000
,
0001
0010
1000
0000
0001
0010
0100
1000
,
0001
0000
0010
0100
0000
0010
0001
0000
,
0100
0010
0001
0010
0100
0000
0001
0000
,
1000
0000
0010
0100
0000
0010
1000
0000
,
0100
0010
1000
0010
0100
0000
1000
0000
,
0001
0000
1000
0010
0000
1000
0001
0000
,
1000
0010
0001
0010
1000
0000
0001
0000
,
1000
0000
0001
0010
0000
0001
1000
0000
,
0001
0010
1000
0010
0001
0000
0000
0000
,
1100
0000
0001
1000
0100
1000
0100
0000
,
0010
0001
0010
0001
1000
0000
0001
0000
,
0101
0000
1000
0001
0100
0001
0100
0000
,
0001
1000
0010
1000
0010
0000
0000
0000
,
0110
0000
0001
0010
1000
0010
1000
0000
,
0001
0100
1000
0100
1000
0000
0001
0000
,
0110
0000
1000
0010
0000
0001
1000
0000
,
1000
0100
0001
1000
0100
0010
0001
1000
,
0002
0000
0000
0000
,
0000
0000
0000
1003
,
0020
1000
0000
1000
,
0000
1000
0000
1030
,
0200
0000
0000
0000
,
0000
0000
0000
0001
,
2300
0001
0000
0001
,
0000
0001
0000
3001
,
1100
0000
0001
0100
1000
0100
0001
0010
,
0000
0010
0001
0000
1000
0100
0000
0010
,
0000
0001
0000
1000
0010
0001
0010
1000
,
0000
0010
0100
0000
0100
0001
0000
0001
,
0000
1000
0000
0010
0100
0010
1000
0100
,
0000
0100
0010
0000
0001
1000
0000
0001
,
0000
0001
0000
0010
0100
1000
0100
0010
,
0000
0100
1000
0000
0010
0100
0010
0100
,
0001
0000
0100
0001
0100
0000
0001
0100
,
0001
0000
0100
0001
0100
0000
0001
0100
,
0010
0000
1000
0010
1000
0000
0010
1000
,
0010
0000
1000
0010
1000
0000
0010
1000
,
0001
1000
0001
1000
0001
1000
0001
1000
,
0010
0100
0010
0100
0010
0100
0010
0100
,
0001
0000
0010
0100
1000
0000
0010
0100
,
0001
0000
0010
0100
1000
0000
0010
0100
,
0001
0000
1000
0100
1000
0000
0100
1000
,
0100
0000
1000
0100
1000
0000
1000
0100
,
0010
0000
0010
0001
0010
0000
0001
0010
,
0001
0000
0010
0001
0010
0000
0010
0001
,
0100
0001
0100
0001
0100
0001
0100
0001
,
1000
0100
0010
0001
0100
0010
1000
0001
,
2000
0000
0000
0000
3100
1000
0000
0100
,
1000
0010
0000
0010
0100
0001
0000
0010
,
1001
0000
0000
0000
1000
0001
0000
0010
,
0001
0100
0000
0010
1000
0001
0000
0000
,
1000
0000
0100
0010
0100
0010
0001
0000
,
1010
0000
0000
0101
0000
0000
0000
0000
,
0001
0000
0010
0100
0010
0100
1000
0000
,
0011
0000
0000
1100
0000
0000
0000
0000
,
1000
0000
0010
0100
0010
0100
0001
0000
,
1100
0000
0000
0011
0000
0000
0000
0000
,
0001
0000
0100
0010
0100
0010
1000
0000
,
0011
0000
0000
1100
0000
0000
0000
0000
,
0110
0000
0001
0000
0010
0100
1000
0000
,
1010
0000
0001
0000
0010
0100
1000
0000
,
0110
0000
1000
0000
0010
0100
0001
0000
,
0011
0000
1000
0000
0010
0100
0001
0000
,
0110
0000
0001
0000
0100
0001
0010
0000
,
1100
0000
0001
0000
0100
0001
0010
0000
,
0101
0000
1000
0000
0100
1000
0010
0000
,
0011
0000
0010
1000
0100
0001
0100
1000
;
