#TITLE:Belmont's Destiny;
#SUBTITLE:;
#ARTIST:Kinuyo Yamashita;
#TITLETRANSLIT:;
#SUBTITLETRANSLIT:;
#ARTISTTRANSLIT:;
#GENRE:;
#CREDIT:;
#MUSIC:Belmont's Destiny.mp3;
#BANNER:;
#BACKGROUND:;
#CDTITLE:;
#SAMPLESTART:26.896;
#SAMPLELENGTH:15.000;
#SELECTABLE:YES;
#OFFSET:1.844;
#BPMS:0.000=125.000;
#STOPS:;
#BGCHANGES:;
#FGCHANGES:;

//--------------- dance-single - forcednature ----------------
#NOTES:
     dance-single:
     forcednature:
     Beginner:
     3:
     0,0,0,0,0:
0000
0000
0000
0000
,
0000
0000
0000
0000
,
0000
0000
0000
0000
,
0000
0000
0000
0000
,
0000
0000
0000
0000
,
0000
0000
0000
0000
,
0100
0000
0001
0000
,
1000
0000
0000
0000
,
0100
0000
1000
0000
,
0001
0000
0000
0000
,
0010
0010
0010
0000
,
0001
0001
0001
0000
,
1000
1000
1000
0000
,
0100
0100
0100
0000
,
1001
0000
0000
0000
,
1001
0000
0100
0000
,
0001
0000
0000
0000
,
0100
0000
1000
0000
,
0010
0000
1000
0000
,
0100
0000
0001
0000
,
0010
0000
0000
0000
,
0100
0000
0001
0000
,
0100
0000
0000
0000
,
0010
0000
0100
0000
,
0010
0000
0100
0000
,
0001
0001
0001
0000
,
1000
1000
1000
0000
,
1001
0000
0100
0000
,
0010
0010
0010
0000
,
1001
0000
0000
0000
,
0100
0000
0010
0000
,
0110
0000
0000
0000
,
0001
0000
1000
0000
,
1001
0000
0000
0000
,
0010
0000
0100
0000
,
0110
0000
0000
0000
,
1000
0000
0001
0000
,
1001
0000
0000
0000
,
0100
0000
0010
0000
,
0100
0000
0000
0000
,
0001
0000
1000
0000
,
0001
0000
0000
0000
,
0010
0000
0100
0000
,
0010
0000
0000
0000
,
1000
0000
0001
0000
,
0100
0000
0100
0000
,
0010
0000
0010
0000
,
1000
0000
1000
0000
,
0001
0001
0001
0000
,
1001
0000
0000
0000
,
0001
0000
1000
0000
,
1001
0000
0000
0000
,
0100
0000
0010
0000
,
0110
0000
0000
0000
,
1000
0000
0001
0000
,
1001
0000
0000
0000
,
0010
0000
0100
0000
,
0110
0000
0000
0000
;

//--------------- dance-single - forcednature ----------------
#NOTES:
     dance-single:
     forcednature:
     Easy:
     6:
     0,0,0,0,0:
0000
0000
0000
0000
,
0000
0000
0000
0000
,
0000
0000
0000
0000
,
0000
0000
0000
0000
,
0000
0000
0000
0000
,
0000
0000
0000
0000
,
0001
0000
0100
0000
,
0010
0010
1000
1000
,
1000
0000
0100
0000
,
0010
0010
0001
0001
,
0100
0100
0001
1000
,
0100
0100
1000
0001
,
0100
0100
0010
1000
,
0100
0100
0010
0001
,
2002
0000
0000
3003
,
1001
0100
0001
1000
,
0100
0000
0010
0000
0100
1000
0100
0000
,
0010
0001
0100
0001
,
1000
0000
0010
0000
0100
0001
0100
0000
,
1001
0100
1000
0010
,
1000
0000
0100
0000
0010
0001
0010
0000
,
1001
0100
0001
1000
,
0010
0100
0010
0000
1000
0000
0001
0000
,
0010
0000
0010
0000
0100
1000
0100
0000
,
0010
0000
0010
0000
0001
1000
0001
0000
,
0002
0000
1000
1003
,
2000
0000
0001
3001
,
1001
0001
0100
0001
,
1000
0001
0100
0100
,
1001
1000
0000
0001
,
0100
0100
1000
0100
,
1001
0100
0000
0100
,
0001
0001
0100
0100
,
0110
0001
0000
0001
,
1000
1000
0001
0100
,
0110
0001
0000
1000
,
0001
0100
1000
0100
,
2002
0000
0000
3003
,
0100
0000
0000
0010
0000
0000
0100
0000
,
2002
0000
0000
3003
,
0001
0000
0000
0100
0000
0000
1000
0000
,
0220
0000
0000
0330
,
0010
0000
0000
1000
0000
0000
0001
0000
,
0220
0000
0000
0330
,
1000
0000
0000
0001
0000
0000
0100
0000
,
0101
0001
0100
1000
,
1100
1000
0100
0001
,
0110
0001
0010
1000
,
0110
1000
0100
0001
,
1001
1000
0000
0001
,
0110
1000
0001
0100
,
1001
0010
0000
0100
,
1001
0010
1000
0001
,
0110
0001
0000
1000
,
0010
1000
0100
0001
,
0110
0001
0000
1000
,
0010
0100
0001
0010
,
2002
0000
0000
0000
,
0000
3003
0000
0000
;

//--------------- dance-single - forcednature ----------------
#NOTES:
     dance-single:
     forcednature:
     Medium:
     9:
     0,0,0,0,0:
0000
0000
0000
0000
,
0000
0000
0000
0000
,
0000
0000
0000
0000
,
0000
0000
0000
0000
,
0000
0000
0000
0000
,
0000
0000
0000
0000
,
1000
0000
0000
0001
0000
0000
0100
0000
0001
0000
0000
1000
0000
0000
0100
0000
,
0010
0000
0000
0001
0000
0000
0100
0000
0010
0000
0000
1000
0000
0000
0000
0000
,
0001
0000
1000
0001
0000
0000
0010
0000
0100
0000
0000
1000
0000
0000
0010
0000
,
1000
0000
0000
0001
0000
0000
0100
0000
0001
0000
0000
1000
0000
0000
0000
0000
,
0110
0000
0000
0001
0000
0000
0100
0000
0000
0000
0001
0000
1000
0000
0000
0000
,
0100
0000
0000
1000
0000
0000
0001
0000
0000
0000
0100
0000
0010
0000
0000
0000
,
1000
0000
0000
0100
0000
0000
0010
0000
0001
0000
0100
0000
0010
0000
0000
0000
,
1000
0000
0000
0100
0000
0000
0001
0000
0100
0000
0010
0000
0001
0000
0000
0000
,
1001
1001
1001
1001
,
0210
0000
0001
0000
0310
0100
0001
0000
,
1000
0000
0000
0100
0000
0000
1000
0000
0000
0000
0010
0000
0100
0000
0000
0000
,
0001
0000
1001
0000
1000
0100
0010
0000
,
0100
0000
0000
0010
0000
0000
0001
0000
0000
0000
0100
0000
0010
0000
0000
0000
,
1100
0000
0001
0000
0100
0001
0010
0000
,
0100
0000
0000
0010
0000
0000
0001
0000
0000
0000
0100
0000
0010
0000
1000
0000
,
0001
0000
1000
0000
0010
1000
0100
0010
,
0001
0000
0001
0000
0100
0001
1000
0000
,
1000
0000
0000
0001
0000
0000
0100
0000
0000
0000
0010
0000
0100
0000
0000
0000
,
0001
0000
0000
1000
0000
0000
0100
0000
0000
0000
0010
0000
0100
0000
0000
0000
,
2000
3001
0002
1003
,
0200
0310
0020
0130
,
1100
0000
0000
1000
0000
0000
0001
0000
0000
0000
0100
0000
0001
0000
0000
0000
,
0001
0000
0000
1000
0000
0000
0010
0000
0000
0000
0100
0000
0001
0000
0100
0000
,
0201
0000
0000
0001
0000
0001
0301
0000
,
0001
0000
0000
1000
0000
0000
0001
0000
0000
0000
0100
0000
0010
0000
0000
0000
,
1200
0000
0000
1000
0000
1000
1300
0000
,
1000
0000
0000
0001
0000
0000
1000
0000
0000
0000
0010
0000
0100
0000
0000
0000
,
0210
0000
0000
1000
0000
0001
0301
0000
,
0100
0000
0000
0001
0000
0000
1000
0000
0000
0000
0100
0000
0110
0000
0000
0000
,
1002
0000
0000
0010
0000
0100
0103
0000
,
0001
0000
0000
1000
0000
0000
0100
0000
0000
0000
0010
0000
0110
0000
0000
0000
,
2002
0000
0000
3003
,
0002
0000
0000
0203
0000
0000
0320
0000
,
2030
0000
0000
0000
,
3200
0000
0000
0320
0000
0000
0031
0000
,
0220
0000
0000
0330
,
0002
0000
0000
0203
0000
0000
2300
0000
,
3200
0000
0000
0000
,
0320
0000
0000
2030
0000
0000
3001
0000
,
0002
0010
0010
0013
,
0200
1000
1000
1300
,
0020
0001
0001
0031
,
1000
0000
0001
0000
0100
0010
0100
0010
,
0210
0000
0000
0001
0000
0001
0301
0000
,
0001
0000
0000
1000
0000
0000
0001
0000
0000
0000
0010
0000
0100
0000
0000
0000
,
1200
0000
0000
1000
0000
1000
1300
0000
,
0100
0000
0000
1000
0000
0000
0010
0000
0000
0000
1000
0000
0001
0000
0000
0000
,
0201
0000
0000
0001
0000
1000
1300
0000
,
0100
0000
0000
0001
0000
0000
0010
0000
0000
0000
0001
0000
1001
0000
0000
0000
,
0021
0000
0000
1000
0000
0001
0031
0000
,
0010
0000
0000
0001
0000
0000
0100
0000
0000
0000
0010
0000
0110
0000
0000
0000
,
2002
0000
0000
0000
,
0000
3003
0000
0000
;

//--------------- dance-single - forcednature ----------------
#NOTES:
     dance-single:
     forcednature:
     Hard:
     12:
     0,0,0,0,0:
0000
0000
0000
0000
,
0000
0000
0000
0000
,
0000
0000
0000
0000
,
0000
0000
0000
0000
,
0000
0000
0000
0000
,
0000
0000
0000
0000
,
0001
0100
0001
1000
0000
0000
0100
0000
0010
0000
0100
1000
0000
0000
0001
0000
,
0010
0000
0001
1000
0000
0000
0001
0000
0100
0000
0010
1000
0000
0000
0010
0000
,
0100
0001
1000
0001
0000
0000
1000
0000
0100
0000
0010
0001
0000
0000
0100
0000
,
0010
0000
1000
0001
0000
0000
0010
0000
0100
0000
1000
0001
0000
0000
0000
0000
,
0101
0000
0100
0001
0000
0000
1000
0000
0100
0000
0010
0001
0010
0000
0000
0000
,
1001
0000
0001
1000
0000
0000
0001
0000
0010
0000
0100
1000
0100
0000
0000
0000
,
1100
0000
0100
1000
0000
0000
0001
0000
0100
0000
0010
1000
0010
0000
0000
0000
,
1001
0000
1000
0001
0000
0000
1000
0000
0100
0000
0010
0001
0010
0000
0000
0000
,
0210
0010
0010
0310
,
1001
0000
0000
0000
1000
0000
0000
0000
0001
0000
0100
0001
0000
0000
1000
0000
,
0010
0000
0000
0110
0000
0000
1001
0000
0000
0000
1000
0000
0100
0000
0010
0000
,
0011
0000
0000
0000
0100
0000
0000
0000
0001
0000
1000
0010
0000
0000
1000
0000
,
0100
0000
0000
0110
0000
0000
2002
0000
0000
0000
0000
0000
3003
0000
0000
0000
,
1001
0000
0000
0000
0001
0000
0000
0000
0010
0000
0001
0100
0000
0000
0010
0000
,
1000
0000
0000
1100
0000
0000
0011
0000
0000
0000
0001
0000
1000
0000
0010
0000
,
0110
0000
0000
0000
0001
0000
0000
0000
1000
0000
0001
0100
0000
0000
0010
0000
,
1000
0000
0000
1010
0000
0000
0202
0000
0000
0000
0000
0000
0303
0000
0000
0000
,
0100
0000
0000
0101
0000
0000
1100
0000
0000
0000
0010
0000
1000
0000
0001
0000
,
0010
0000
0000
0011
0000
0000
1010
0000
0000
0000
0001
0000
0100
0000
0010
0000
,
2000
0100
0001
0010
,
3002
0100
1000
0013
,
1001
0000
0000
0001
1000
0000
0010
0000
0000
0000
0100
0001
0000
0000
0000
0000
,
1001
0000
0000
1000
0100
0000
0010
0000
0001
1000
0001
1000
0001
0010
0001
0010
,
0100
0000
1100
0001
0000
0100
1001
0001
,
0100
0000
0001
0100
0010
0000
1000
0000
0000
0000
0001
0000
0010
0100
0010
0100
,
0010
0000
0101
0010
0000
1000
0110
0001
,
1000
0000
0001
0010
0100
0000
1000
0000
0000
0000
0001
0000
1000
0010
1000
0010
,
1000
0000
0110
0001
0000
0100
1001
1000
,
0010
0000
0100
0001
0010
0000
0100
0000
0000
0000
1000
0000
0001
0010
0001
0010
,
0001
0000
0110
1000
0000
0010
0101
1000
,
0010
0000
0100
0001
1000
0000
0100
0000
0000
0000
0010
0000
0001
1000
0001
1000
,
0002
0000
0000
0000
0000
0000
0000
0000
0000
0000
0000
0000
0003
0000
0100
0001
,
0200
0000
0000
0320
0000
0000
2030
0000
,
3002
0000
0000
0000
0000
0000
0010
0000
0000
0000
0010
0000
0003
0000
0010
0001
,
0020
0000
0000
0100
0000
0000
0230
0000
0000
0000
1000
0000
2300
0000
0000
0000
,
3002
0000
0000
0000
0000
0000
1000
0000
0000
0000
1000
0000
0003
0000
1000
0001
,
2000
0000
0000
0010
0000
0000
3020
0000
0000
0000
0100
0000
0230
0000
0000
0000
,
0302
0000
0000
0010
0000
0000
0010
0000
0000
0000
0010
0000
0003
0000
0010
0100
,
0020
0000
0000
0100
0000
0000
0230
0000
0000
0000
1000
0000
2300
0000
0000
0000
,
3001
0000
0000
0010
0001
0000
0100
0000
0001
0000
1000
0000
0001
0000
0100
0000
,
0010
0000
0000
1000
0010
0000
0100
0000
0010
0000
0001
0000
0010
0000
1000
0000
,
0100
0000
0000
0010
0100
0000
1000
0000
0100
0000
0001
0000
0100
0000
0010
0000
,
0001
0000
0000
1000
0001
0000
0010
0000
0001
0100
0001
0100
0010
1000
0010
1000
,
0010
0000
0110
0001
0000
0100
1001
0001
,
1000
0000
0100
0010
0001
0100
0010
0000
0000
0000
1000
0000
0001
0100
0001
0100
,
0001
0000
1001
0010
0000
0100
0110
0001
,
1000
0000
0010
0100
0010
1000
0100
0000
0000
0000
0010
0000
0001
1000
0001
1000
,
0001
0000
0101
0010
0000
0001
1100
1000
,
0010
0000
0100
0001
1000
0001
0010
0000
0000
0000
0100
0000
1000
0010
1000
0010
,
1000
0000
1100
0010
0000
0001
0110
1000
,
0001
0000
0100
0010
1000
0001
0010
0000
0000
0000
0100
0000
1000
0001
1000
0001
,
2000
0000
0000
0000
,
0000
3000
0000
0000
;

//--------------- dance-single - forcednature ----------------
#NOTES:
     dance-single:
     forcednature:
     Challenge:
     14:
     0,0,0,0,0:
0000
0000
0000
0000
,
0000
0000
0000
0000
,
0000
0000
0000
0000
,
0000
0000
0000
0000
,
0000
0000
0000
0000
,
0000
0000
0000
0000
,
0001
0010
0100
1000
0000
0010
0100
0000
0001
0000
1000
0100
0000
0010
0001
0000
,
0100
0000
0010
1000
0000
0001
0010
0000
0100
0000
1000
0001
0000
0100
0001
0000
,
0010
0100
0010
0001
0000
0100
0010
0000
1000
0000
0001
0100
0000
0010
1000
0000
,
0100
0000
0010
0001
0000
0100
0010
0000
1000
0000
0001
0010
0000
0000
0000
0000
,
1100
0000
0000
0110
0000
0000
1001
0000
0000
0000
0001
0010
0100
0000
0000
0000
,
1010
0000
0000
0101
0000
0000
1001
0000
0000
0000
1000
0001
0100
0000
0000
0000
,
0011
0000
0000
1010
0000
0000
0110
0000
0000
0000
0001
0010
0100
0000
0000
0000
,
1100
0000
0000
0101
0000
0000
0110
0000
0000
0000
0001
1000
0100
0000
0000
0000
,
0220
0000
0000
0330
,
0101
0000
0001
0000
0010
0000
0001
0000
0100
0000
0010
1000
0001
0000
1000
0000
,
0100
0000
0010
0100
0000
0001
0100
0000
1000
0000
0001
0000
1000
0000
0010
0000
,
0100
0000
1000
0000
0100
0000
0001
0000
0010
0000
0100
1000
0001
0000
1000
0000
,
0010
0000
0100
0001
0000
0010
0200
0000
0000
0000
0000
0000
0300
0000
0000
0000
,
1000
0000
0001
0000
1000
0000
0010
0001
0010
0000
0100
0001
1000
0000
0100
0000
,
0010
0000
0001
0100
0000
1000
0100
0000
0010
0000
1000
0001
1000
0000
0100
0000
,
0010
0000
0001
0000
1000
0000
0010
0100
0001
0000
0010
0100
1000
0000
0001
0000
,
1000
0000
0010
0100
0000
1000
0200
0000
0000
0000
0000
0000
0300
0000
0000
0000
,
0101
0000
0000
1001
0000
0000
1200
0000
0000
0000
1300
0000
0010
0000
1000
0000
,
0110
0000
0000
0101
0000
0000
1200
0000
0000
0000
0301
0000
0100
0000
0001
0000
,
1000
0000
0000
1000
0100
0000
0000
0100
0001
0000
0000
0001
0100
0000
0000
0100
,
1000
0000
0000
1000
0010
0000
0000
0010
0100
0001
0100
0001
1000
0100
1000
0100
,
0010
0000
0000
0001
0001
0000
0100
0000
0000
0000
0010
0010
0000
0000
0000
0000
,
1000
0000
0000
0100
0100
0000
0010
0000
0001
0100
0001
0100
1000
0100
1000
0100
,
0010
0000
1100
0001
0000
0100
1010
0001
,
0010
0000
0100
1000
0001
0100
0010
0000
0000
0000
1000
0000
0100
0001
0100
1000
,
0100
0000
0101
0010
0000
1000
0110
0001
,
1000
0000
0100
0010
0001
0100
0010
0000
0000
0000
1000
0000
0010
0001
0010
1000
,
0010
0000
0011
1000
0000
0100
1001
0001
,
1000
0000
0001
0100
0010
1000
0001
0000
0000
0000
1000
0000
0010
0001
0010
1000
,
0010
0000
0101
1000
0000
0100
1001
0010
,
1000
0000
0100
0010
0001
0100
0010
0000
0000
0000
1000
0000
0010
0001
0010
1000
,
0020
0000
0000
0000
0000
0000
0000
0000
0000
0000
0000
0000
0000
0000
0130
0001
,
2000
0000
0000
3200
0000
0000
0320
0000
,
0032
0000
0000
0000
0000
0000
0100
0000
0000
0000
1000
0000
0000
0000
0013
0100
,
2000
0000
0000
0010
0000
0000
3002
0000
0000
0000
0100
0000
2003
0000
0000
0000
,
3200
0000
0000
0000
0000
0000
0001
0000
0000
0000
0010
0000
0000
0000
1300
0001
,
0200
0000
0000
1000
0000
0000
0302
0000
0000
0000
0010
0000
0203
0000
0000
0000
,
0320
0000
0000
0001
0000
0000
0100
0000
0000
0000
1000
0000
0000
0000
0130
0001
,
2000
0000
0000
0100
0000
0000
3002
0000
0000
0000
0010
0000
0203
0000
0000
0000
,
0301
0000
0010
0100
1000
0000
0010
0000
0001
0000
0010
0000
0100
0000
0001
0000
,
0010
0000
0100
1000
0001
0000
0100
0000
1000
0000
0100
0000
0001
0000
1000
0000
,
0100
0000
0010
0001
0100
0000
1000
0000
0100
0000
0001
0000
1000
0000
0010
0000
,
0001
0000
0010
1000
0001
0000
0010
0000
0100
0001
0100
1000
0001
1000
0010
0001
,
0010
0000
1001
0010
0000
0100
1001
1000
,
0001
0000
0100
0010
1000
0001
0010
0000
0000
0000
0100
0000
1000
0010
0001
0010
,
1000
0000
0110
0001
0000
1000
0110
0001
,
0100
0000
0010
1000
0001
0010
0100
0000
0000
0000
1000
0000
0001
0100
1000
0100
,
0001
0000
0011
0100
0000
0010
0110
1000
,
0001
0000
1000
0100
0001
0100
1000
0000
0000
0000
0010
0000
0100
0001
1000
0100
,
0010
0000
0011
0100
0000
0010
1010
1000
,
0001
0000
0010
0100
1000
0001
0100
0000
0000
0000
0010
0000
1000
0010
0001
0010
,
2000
0000
0000
0000
,
0000
3000
0000
0000
;

//--------------- dance-double - forcednature ----------------
#NOTES:
     dance-double:
     forcednature:
     Easy:
     5:
     0,0,0,0,0:
00000000
00000000
00000000
00000000
,
00000000
00000000
00000000
00000000
,
00000000
00000000
00000000
00000000
,
00000000
00000000
00000000
00000000
,
00000000
00000000
00000000
00000000
,
00000000
00000000
00000000
00000000
,
00001000
00000000
00010000
00000000
,
00000100
00000000
00001000
00000000
,
00000001
00000000
00000100
00000000
,
00001000
00000000
00010000
00000000
,
00001000
00010000
00001000
00100000
,
00001000
00010000
00001000
01000000
,
00010000
10000000
01000000
00100000
,
00010000
10000000
00100000
01000000
,
00002000
00000000
00000000
00000000
,
00013000
00000000
00001000
00010000
,
00000100
00000100
00001000
00000001
,
00000100
00000000
00000010
00001000
,
00000100
00000010
00000001
00000100
,
00000010
00000000
00010000
00000100
,
00010000
00001000
01000000
00010000
,
01000000
00000000
00100000
10000000
,
00010000
10000000
01000000
00000000
,
00100000
00100000
00001000
00000000
,
00010000
00010000
00001000
00000000
,
00020000
00001000
00001000
00030000
,
00000200
00001000
00001000
00000300
,
00001001
00000001
00000001
00000000
,
00000100
00000100
00000100
00000000
,
00000110
00000010
00000000
00001000
,
00000100
00001000
00000010
00010000
,
00011000
00001000
00000000
00010000
,
00001000
00100000
00010000
01000000
,
01010000
00010000
00000000
01000000
,
00010000
00100000
00001000
00010000
,
00011000
00001000
00000000
00010000
,
00000010
00001000
00000100
00001000
,
00001002
00000000
00000000
00000003
,
00000100
00000000
00000000
00000010
00000000
00000000
00000100
00000000
,
00002000
00000000
00000000
00003000
,
00010000
00000000
00000000
00001000
00000000
00000000
00010000
00000000
,
00200000
00000000
00000000
00300000
,
01000000
00000000
00000000
10000000
00000000
00000000
01000000
00000000
,
00200000
00000000
00000000
00300000
,
00001000
00000000
00000000
00010000
00000000
00000000
00001000
00000000
,
00000100
00000001
00001000
00000010
,
00001000
00000100
00000010
00000001
,
00001000
00000010
00010000
00001000
,
00010000
00000100
00010000
00001000
,
00011000
00001000
00000000
00100000
,
00010000
10000000
00100000
10000000
,
10010000
10000000
00000000
01000000
,
00100000
00010000
01000000
00001000
,
00011000
00010000
00000000
00000100
,
00001000
00000001
00000100
00000010
,
00001001
00000100
00000000
00000010
,
00010000
00000100
00010000
00001000
,
00022000
00000000
00000000
00000000
,
00000000
00033000
00000000
00000000
;

//--------------- dance-double - forcednature ----------------
#NOTES:
     dance-double:
     forcednature:
     Medium:
     8:
     0,0,0,0,0:
00000000
00000000
00000000
00000000
,
00000000
00000000
00000000
00000000
,
00000000
00000000
00000000
00000000
,
00000000
00000000
00000000
00000000
,
00000000
00000000
00000000
00000000
,
00000000
00000000
00000000
00000000
,
00001000
00000000
00000000
00010000
00000000
00000000
01000000
00000000
00100000
00000000
00000000
00010000
00000000
00000000
10000000
00000000
,
00100000
00000000
00000000
01000000
00000000
00000000
00001000
00000000
00010000
00000000
00000000
00000100
00000000
00000000
00000000
00000000
,
00000010
00000000
00000000
00000001
00000000
00000000
00000100
00000000
00001000
00000000
00000000
00010000
00000000
00000000
00000100
00000000
,
00010000
00000000
00000000
00001000
00000000
00000000
01000000
00000000
00010000
00000000
00000000
10000000
00000000
00000000
00000000
00000000
,
01100000
00000000
00010000
00000000
10000000
01000000
00010000
00000000
,
00101000
00000000
00010000
00000000
00001000
00000100
00000010
00000000
,
00000101
00000000
00001000
00000000
00000100
00000010
00001000
00000000
,
00011000
00000000
00100000
00000000
00010000
10000000
00100000
00000000
,
02100000
00100000
00100000
03100000
,
01100000
00000000
00010000
00000000
01000000
00001000
00010000
00000100
,
00001000
00000000
00000000
00000001
00000000
00000000
00000100
00000000
00000000
00000000
00000001
00000000
00001000
00000000
00000000
00000000
,
00000100
00000000
00011000
00000000
00100000
00010000
01000000
00000000
,
00100000
00000000
00000000
00010000
00000000
00000000
00001000
00000000
00000000
00000000
00100000
00000000
01000000
00000000
00000000
00000000
,
10010000
00000000
01000000
00000000
00001000
00010000
00000100
00000010
,
00000001
00000000
00000000
00000100
00000000
00000000
00001000
00000000
00000000
00000000
00000100
00000000
00000010
00000000
00010000
00000000
,
00001000
00000000
00100000
00000000
00010000
01000000
00100000
00010000
,
00001000
00000000
00000000
00100000
00000000
00000000
02000000
00000000
00000000
00000000
00000000
00000000
00000000
03000000
00000000
00000000
,
10000000
00000000
00000000
00010000
00000000
00000000
01000000
00000000
00000000
00000000
00001000
00000000
00010000
00000000
00000010
00000000
,
00000100
00000000
00000000
00000001
00000000
00000000
00000010
00000000
00000000
00000000
00000100
00000000
00010000
00000000
00001000
00000000
,
02000000
00001000
00010000
03001000
,
00000200
00001000
00010000
00001300
,
00011000
00000000
00000000
00001000
00000000
00000000
00100000
00000000
00000000
00000000
00010000
00000000
10000000
00000000
00000000
00000000
,
00100000
00000000
00000000
00010000
00000000
00000000
00001000
00000000
00000000
00000000
00100000
00000000
00001000
00000000
00000000
00000000
,
00011000
00000000
00000100
00001000
00000000
00000100
00001000
00000000
,
00000010
00000000
00000000
00000100
00000000
00000000
00000010
00000000
00000000
00000000
00001000
00000000
00000001
00000000
00000000
00000000
,
00000110
00000000
00001000
00010000
00000000
00001000
00010000
00000000
,
00100000
00000000
00000000
10000000
00000000
00000000
00010000
00000000
00000000
00000000
00100000
00000000
01000000
00000000
00000000
00000000
,
11000000
00000000
10000000
00010000
00000000
10000000
00010000
00000000
,
01000000
00000000
00000000
00001000
00000000
00000000
00010000
00000000
00000000
00000000
00000100
00000000
00001000
00000000
00000000
00000000
,
00000101
00000000
00000001
00001000
00000000
00000001
00001000
00000000
,
00000010
00000000
00000000
00010000
00000000
00000000
00001000
00000000
00000000
00000000
00100000
00000000
00010000
00000000
00000000
00000000
,
20020000
00000000
00030000
00000000
,
32000000
00000000
00000000
03020000
00000000
00000000
00032000
00000000
,
00003020
00000000
00000000
00000000
,
00000032
00000000
00000000
00000203
00000000
00000000
00002300
00000000
,
00023000
00000000
00000000
00000000
,
02030000
00000000
00000000
03200000
00000000
00000000
00320000
00000000
,
20030000
00000000
00000000
00000000
,
30200000
00000000
00000000
00320000
00000000
00000000
00032000
00000000
,
00003020
00000100
00000100
00000100
,
00000032
00001000
00001000
00001000
,
00000203
00000010
00000010
00000010
,
00002300
00010000
00010000
00013000
,
00011000
00000000
00100000
00010000
00000000
00100000
00010000
00000000
,
01000000
00000000
00000000
00100000
00000000
00000000
00010000
00000000
00000000
00000000
00001000
00000000
00000010
00000000
00000000
00000000
,
00000110
00000000
00001000
00000001
00000000
00001000
00000001
00000000
,
00000100
00000000
00000000
00001000
00000000
00000000
00010000
00000000
00000000
00000000
00000100
00000000
00010000
00000000
00000000
00000000
,
00011000
00000000
10000000
00100000
00000000
10000000
00100000
00000000
,
00010000
00000000
00000000
00001000
00000000
00000000
00000010
00000000
00000000
00000000
00000001
00000000
00001000
00000000
00000000
00000000
,
00000110
00000000
00001000
00010000
00000000
00001000
00010000
00000000
,
00100000
00000000
00000000
01000000
00000000
00000000
00001000
00000000
00000000
00000000
00010000
00000000
00000100
00000000
00000000
00000000
,
00022000
00000000
00000000
00000000
,
00000000
00033000
00000000
00000000
;

//--------------- dance-double - forcednature ----------------
#NOTES:
     dance-double:
     forcednature:
     Hard:
     12:
     0,0,0,0,0:
00000000
00000000
00000000
00000000
,
00000000
00000000
00000000
00000000
,
00000000
00000000
00000000
00000000
,
00000000
00000000
00000000
00000000
,
00000000
00000000
00000000
00000000
,
00000000
00000000
00000000
00000000
,
00010000
00001000
00010000
00000100
00000000
00000000
00000010
00000000
00000001
00000000
00000100
00000010
00000000
00000000
00001000
00000000
,
00000100
00000000
00010000
00001000
00000000
00000000
01000000
00000000
00010000
00000000
10000000
00100000
00000000
00000000
01000000
00000000
,
00001000
00010000
00000100
00010000
00000000
00000000
00001000
00000000
00000100
00000000
00000001
00000010
00000000
00000000
00000100
00000000
,
00010000
00000000
00001000
01000000
00000000
00000000
00100000
00000000
10000000
00000000
01000000
00100000
00000000
00000000
00000000
00000000
,
00011000
00000000
00001000
00010000
00000000
00000000
00000100
00000000
00001000
00000000
00000001
00001000
00000000
00000000
00000000
00000000
,
00011000
00000000
00010000
00001000
00000000
00000000
00100000
00000000
00010000
00000000
10000000
00010000
00000000
00000000
00000000
00000000
,
00011000
00000000
00001000
00010000
00000000
00000000
01000000
00000000
10000000
00000000
00010000
10000000
00000000
00000000
00000000
00000000
,
00011000
00000000
00010000
00001000
00000000
00000000
00000010
00000000
00000001
00000000
00001000
00000001
00000000
00000000
00000000
00000000
,
00022000
00000000
00000000
00033000
,
00011000
00000000
00010000
00000000
00000100
00000000
00000000
00000000
00000010
00000000
00000001
00000010
00000000
00000000
00000100
00000000
,
00010000
00000000
00000000
00001000
00000000
00000000
01010000
00000000
00000000
00000000
00100000
00000000
10000000
00000000
01000000
00000000
,
00100000
00000000
00000000
00000000
00001000
00000000
00000000
00000000
00010000
00000000
00000100
00001000
00000000
00000000
00000010
00000000
,
00000100
00000000
00000000
00000001
00000000
00000000
00000220
00000000
00000000
00000000
00000000
00000000
00000330
00000000
00000000
00000000
,
00001001
00000000
00000001
00000000
00000100
00000000
00000000
00000000
00000010
00000000
00010000
00001000
00000000
00000000
00100000
00000000
,
00010000
00000000
00000000
01000000
00000000
00000000
10010000
00000000
00000000
00000000
00010000
00000000
01000000
00000000
00001000
00000000
,
00010000
00000000
00000000
00000000
00000100
00000000
00000000
00000000
00000010
00000000
00000001
00001000
00000000
00000000
00000010
00000000
,
00010000
00000000
00000000
00001000
00000000
00000000
00220000
00000000
00000000
00000000
00000000
00000000
00330000
00000000
00000000
00000000
,
01000000
00000000
00000000
00010000
00000000
00000000
00000100
00000000
00000000
00000000
00000010
00000000
00001000
00000000
00000001
00000000
,
00000010
00000000
00000000
00001000
00000000
00000000
00100000
00000000
00000000
00000000
00010000
00000000
10000000
00000000
00100000
00000000
,
01000000
00010000
00000100
00001000
,
00100000
00010000
00000010
00001000
,
00011000
00000000
00000000
00010000
00000000
00000000
00000100
00000000
00000000
00000000
00000010
00000001
00000000
00000000
00000000
00000000
,
00010100
00000000
00000000
00001000
00000000
00000000
01000000
00000000
00100000
10000000
00100000
10000000
00010000
01000000
00010000
01000000
,
00001000
00000000
00000100
00000010
00000000
00001000
00000001
00000010
,
00001000
00000000
00010000
00000100
00001000
00000000
00000010
00000000
00000000
00000000
00010000
00000000
00001000
00100000
00001000
00100000
,
00001000
00000000
01000000
00100000
00000000
10000000
01000000
00010000
,
00001000
00000000
00100000
00001000
00010000
00000000
00000010
00000000
00000000
00000000
00000100
00000000
00000001
00001000
00000001
00001000
,
00000001
00000000
00001000
00000100
00000000
00010000
00001000
00100000
,
00010000
00000000
10000000
00100000
01000000
00000000
00010000
00000000
00000000
00000000
00100000
00000000
00001000
00010000
00001000
00010000
,
00001000
00000000
00000100
00000001
00000000
00000010
00000100
00010000
,
00100000
00000000
01000000
00010000
10000000
00000000
01000000
00000000
00000000
00000000
00100000
00000000
00001000
00010000
00001000
00010000
,
00002000
00000000
00000000
00000000
00000000
00000000
00000000
00000000
00000000
00000000
00000000
00000000
00003000
00000000
00000100
00000001
,
00000200
00000000
00000000
00000320
00000000
00000000
00020030
00000000
,
00230000
00000000
00000000
00000000
00000000
00000000
10000000
00000000
00000000
00000000
10000000
00000000
00300000
00000000
10000000
00100000
,
20000000
00000000
00000000
01000000
00000000
00000000
32000000
00000000
00000000
00000000
00010000
00000000
03020000
00000000
00000000
00000000
,
00032000
00000000
00000000
00000000
00000000
00000000
00000010
00000000
00000000
00000000
00000010
00000000
00003000
00000000
00000010
00001000
,
00000020
00000000
00000000
00000001
00000000
00000000
00000032
00000000
00000000
00000000
00000100
00000000
00000203
00000000
00000000
00000000
,
00002300
00000000
00000000
00010000
00000000
00000000
00010000
00000000
00000000
00000000
00010000
00000000
00003000
00000000
00010000
00001000
,
00020000
00000000
00000000
01000000
00000000
00000000
02030000
00000000
00000000
00000000
10000000
00000000
23000000
00000000
00000000
00000000
,
30010000
00000000
00000000
00100000
00001000
00000000
00010000
00000000
00000100
00000000
00000010
00000000
00001000
00000000
00010000
00000000
,
00000010
00000000
00000000
00000100
00000001
00000000
00001000
00000000
00000010
00000000
00000100
00000000
00010000
00000000
01000000
00000000
,
00100000
00000000
00000000
10000000
00010000
00000000
10000000
00000000
01000000
00000000
00010000
00000000
00001000
00000000
00000010
00000000
,
00000001
00000000
00000000
00001000
00000010
00000000
00000100
00000000
00001000
00010000
00001000
00010000
00001000
00100000
00001000
00100000
,
00010000
00000000
01000000
00010000
00000000
01000000
00001000
00000100
,
00000010
00000000
00001000
00000100
00000010
00000001
00000100
00000000
00000000
00000000
00000010
00000000
00010000
00001000
00010000
00001000
,
00010000
00000000
00000100
00000010
00000000
00000001
00000100
00001000
,
00010000
00000000
01000000
10000000
00100000
01000000
00100000
00000000
00000000
00000000
00010000
00000000
00001000
00000100
00001000
00000100
,
00001000
00000000
00010000
01000000
00000000
00100000
00001000
00000100
,
00000010
00000000
00001000
00000100
00010000
00001000
00010000
00000000
00000000
00000000
00100000
00000000
10000000
00010000
10000000
00010000
,
10000000
00000000
01000000
00010000
00000000
00001000
00000100
00000001
,
00000010
00000000
00000100
00010000
00001000
00010000
00000100
00000000
00000000
00000000
00000010
00000000
00001000
00010000
00001000
00010000
,
00002000
00000000
00000000
00000000
,
00000000
00003000
00000000
00000000
;

//--------------- dance-double - forcednature ----------------
#NOTES:
     dance-double:
     forcednature:
     Challenge:
     14:
     0,0,0,0,0:
00000000
00000000
00000000
00000000
,
00000000
00000000
00000000
00000000
,
00000000
00000000
00000000
00000000
,
00000000
00000000
00000000
00000000
,
00000000
00000000
00000000
00000000
,
00000000
00000000
00000000
00000000
,
00001000
00010000
01000000
10000000
00000000
00010000
01000000
00000000
00100000
00000000
10000000
00010000
00000000
00100000
00001000
00000000
,
00010000
00000000
00000010
00001000
00000000
00000001
00000010
00000000
00000100
00000000
00001000
00000001
00000000
00000100
00000010
00000000
,
00000100
00001000
00010000
00100000
00000000
00010000
00001000
00000000
00100000
00000000
00010000
10000000
00000000
01000000
00100000
00000000
,
00001000
00000000
00010000
00000100
00000000
00001000
00000001
00000000
00000100
00000000
00001000
00020000
00000000
00000000
00030000
00000000
,
01100000
00000000
00000000
11000000
00000000
00000000
01010000
00000000
00010000
00000000
00100000
00001000
00010000
00000000
00000000
00000000
,
00001100
00000000
00000000
00000101
00000000
00000000
00000110
00000000
00000001
00000000
00001000
00000010
00000100
00000000
00000000
00000000
,
00001100
00000000
00000000
00011000
00000000
00000000
00110000
00000000
00100000
00000000
10000000
00010000
00100000
00000000
00000000
00000000
,
11000000
00000000
00000000
01010000
00000000
00000000
00011000
00000000
00001000
00000000
00010000
00000100
00000010
00000000
00000000
00000000
,
00002002
00000000
00000000
00003003
,
00010100
00000000
00010000
00000000
00001000
00000000
01000000
00000000
00100000
00000000
10000000
01000000
00100000
00000000
00010000
00000000
,
01000000
00000000
00001000
00010000
00000000
00001000
00000010
00000000
00000001
00000000
00001000
00000000
00000010
00000000
00000100
00000000
,
00001000
00000000
00010000
00000000
01000000
00000000
00100000
00000000
00010000
00000000
10000000
01000000
00100000
00000000
10000000
00000000
,
00100000
00000000
00010000
10000000
00000000
00010000
02000000
00000000
00000000
00000000
00000000
00000000
03000000
00000000
00000000
00000000
,
00100000
00000000
00010000
00000000
00001000
00000000
00000010
00000001
00000100
00000000
00001000
00010000
00000100
00000000
00000010
00000000
,
00000001
00000000
00000100
00001000
00000000
00100000
00001000
00000000
00010000
00000000
01000000
10000000
00010000
00000000
01000000
00000000
,
00100000
00000000
00010000
00000000
00001000
00000000
00000010
00000100
00001000
00000000
00000010
00000100
00000001
00000000
00000010
00000000
,
00000100
00000000
00010000
00001000
00000000
01000000
00020000
00000000
00000000
00000000
00000000
00000000
00030000
00000000
00000000
00000000
,
01010000
00000000
00000000
00011000
00000000
00000000
00001100
00000000
00000000
00000000
00010000
00000000
00000100
00000000
00001000
00000000
,
00001010
00000000
00000000
00011000
00000000
00000000
00110000
00000000
00000000
00000000
00010000
00000000
01000000
00000000
00100000
00000000
,
10000000
01000000
00010000
00001000
00000010
00000100
00001000
00000001
,
00000100
00000000
00001000
00000000
00010000
00000000
00100000
00000000
01000000
00001000
01000000
00001000
00010000
00000100
00010000
00000100
,
00001000
00000000
00000000
00000010
00000010
00000000
00000100
00000000
00000000
00000000
00000001
00000001
00000000
00000000
00000000
00000000
,
00000010
00000000
00000000
00000100
00000100
00000000
00010000
00000000
00001000
01000000
00010000
01000000
00100000
01000000
10000000
01000000
,
00100000
00000000
01100000
00010000
00000000
01000000
00011000
00000100
,
00001000
00000000
00000001
00000100
00000010
00001000
00000001
00000000
00000000
00000000
00000010
00000000
00001000
00010000
00100000
01000000
,
00010000
00000000
10010000
01000000
00000000
00100000
00011000
00000010
,
00000100
00000000
00000001
00000010
00000001
00000100
00000010
00000000
00000000
00000000
00000100
00000000
00001000
00010000
01000000
10000000
,
00010000
00000000
01100000
00010000
00000000
00001000
00000110
00000001
,
00000100
00000000
00000010
00010000
00001000
00100000
00010000
00000000
00000000
00000000
01000000
00000000
00010000
10000000
01000000
00010000
,
00001000
00000000
00001010
00000100
00000000
01000000
00110000
10000000
,
00010000
00000000
01000000
00001000
00010000
00000100
00001000
00000000
00000000
00000000
00000001
00000000
00000100
00001000
00010000
01000000
,
00020000
00000000
00000000
00000000
00000000
00000000
00000000
00000000
00000000
00000000
00000000
00000000
00000000
00000000
00031000
00010000
,
00200000
00000000
00000000
20300000
00000000
00000000
30020000
00000000
,
00230000
00000000
00000000
00000000
00000000
00000000
10000000
00000000
00000000
00000000
01000000
00000000
00000000
00000000
00310000
00100000
,
00002000
00000000
00000000
01000000
00000000
00000000
00023000
00000000
00000000
00000000
00000100
00000000
00030020
00000000
00000000
00000000
,
00000230
00000000
00000000
00000000
00000000
00000000
00010000
00000000
00000000
00000000
00000010
00000000
00000000
00000000
00000301
00000100
,
00002000
00000000
00000000
00100000
00000000
00000000
00023000
00000000
00000000
00000000
00001000
00000000
02030000
00000000
00000000
00000000
,
03200000
00000000
00000000
10000000
00000000
00000000
00010000
00000000
00000000
00000000
00001000
00000000
00000000
00000000
01300000
00010000
,
00002000
00000000
00000000
01000000
00000000
00000000
00003200
00000000
00000000
00000000
00000010
00000000
00000302
00000000
00000000
00000000
,
00000013
00000000
00000100
00001000
00000001
00000000
00000100
00000000
00010000
00000000
00100000
00000000
00010000
00000000
00001000
00000000
,
00010000
00000000
01000000
10000000
00100000
00000000
01000000
00000000
00010000
00000000
00100000
00000000
00010000
00000000
00001000
00000000
,
00000100
00000000
00000010
00000001
00000100
00000000
00000010
00000000
00010000
00000000
00001000
00000000
00000010
00000000
00001000
00000000
,
00010000
00000000
00100000
10000000
00010000
00000000
00100000
00000000
01000000
00010000
00001000
00010000
00001000
00000100
00000001
00001000
,
00000001
00000000
00000110
00001000
00000000
00010000
01100000
10000000
,
00010000
00000000
10000000
01000000
00010000
00001000
00000010
00000000
00000000
00000000
00000001
00000000
00000100
00001000
00010000
00100000
,
00010000
00000000
00010100
01000000
00000000
00100000
01010000
00001000
,
00100000
00000000
01000000
10000000
00100000
00010000
00001000
00000000
00000000
00000000
00100000
00000000
01000000
00010000
00001000
00000010
,
00000100
00000000
00010010
00100000
00000000
00000010
00101000
01000000
,
00010000
00000000
10000000
00100000
00010000
00001000
00000100
00000000
00000000
00000000
00000001
00000000
00000010
00001000
00010000
01000000
,
10000000
00000000
01010000
00001000
00000000
00010000
00001100
00000001
,
00000100
00000000
00000010
00000100
00001000
00010000
00100000
00000000
00000000
00000000
10000000
00000000
01000000
00100000
00010000
00001000
,
00000200
00000000
00000000
00000000
,
00000000
00000300
00000000
00000000
;
