#TITLE:Beginning;
#SUBTITLE:;
#ARTIST:STANLEY NOVO;
#TITLETRANSLIT:;
#SUBTITLETRANSLIT:;
#ARTISTTRANSLIT:;
#GENRE:;
#CREDIT:;
#MUSIC:Beginning.mp3;
#BANNER:;
#BACKGROUND:;
#CDTITLE:;
#SAMPLESTART:42.906;
#SAMPLELENGTH:15.000;
#SELECTABLE:YES;
#OFFSET:1.639;
#BPMS:0.000=140.000;
#STOPS:;
#BGCHANGES:;
#FGCHANGES:;

//--------------- dance-single - forcednature ----------------
#NOTES:
     dance-single:
     forcednature:
     Beginner:
     2:
     0,0,0,0,0:
0000
0000
0000
0000
,
0000
0000
0000
0000
,
0000
0000
0000
0000
,
1000
0000
0000
0000
,
0001
0000
0000
0000
,
0100
0000
0000
0000
,
0010
0000
0000
0000
,
1000
0000
0000
0000
,
0001
0000
0000
0000
,
0010
0000
0000
0000
,
0010
0000
0000
0000
,
0100
0000
0000
0000
,
0100
0000
0000
0000
,
1000
0000
0000
0000
,
0001
0000
0000
0000
,
1000
0000
0000
0000
,
0001
0000
0000
0000
,
0100
0000
0000
0000
,
0010
0000
0000
0000
,
1000
0000
0000
0000
,
0001
0000
0000
0000
,
0010
0000
0000
0000
,
0100
0000
0000
0000
,
1000
0000
1000
0000
,
0001
0000
0001
0000
,
0100
0000
0000
0000
,
1001
0000
0000
0000
,
0010
0000
0000
0000
,
0100
0000
0000
0000
,
0010
0000
0000
0000
,
1000
0000
0000
0000
,
0010
0000
0000
0000
,
0001
0000
0000
0000
,
0010
0000
0000
0000
,
1001
0000
0000
0000
,
0100
0000
0000
0000
,
0010
0000
0000
0000
,
0100
0000
0000
0000
,
1000
0000
0000
0000
,
0001
0000
0000
0000
,
1000
0000
0000
0000
,
0001
0000
0000
0000
,
0100
0000
0100
0000
,
0100
0000
0000
0000
,
0010
0000
0010
0000
,
0010
0000
0000
0000
,
1000
0000
1000
0000
,
1000
0000
0000
0000
,
0001
0000
0001
0000
,
0001
0000
0000
0000
,
0010
0000
0000
0000
,
0010
0000
0010
0000
,
0100
0000
0000
0000
,
0100
0000
0100
0000
,
1000
0000
0000
0000
,
1000
0000
1000
0000
,
0001
0000
0000
0000
,
0001
0000
0001
0000
,
0100
0000
0000
0000
,
0010
0000
0000
0000
,
1000
0000
0000
0000
,
0001
0000
0000
0000
,
0010
0000
0000
0000
,
0100
0000
0000
0000
,
1000
0000
0000
0000
,
0001
0000
0000
0000
;

//--------------- dance-single - forcednature ----------------
#NOTES:
     dance-single:
     forcednature:
     Easy:
     5:
     0,0,0,0,0:
0000
0000
0000
0000
,
0000
0000
0000
0000
,
0000
0000
0000
0000
,
1000
0000
1000
0000
,
0001
0000
0001
0000
,
0100
0100
0000
0100
,
0010
0010
0000
0010
,
1000
0100
0010
0001
,
0200
0000
0000
0300
,
0010
0000
1000
1000
,
0010
0000
0001
0001
,
0010
0000
1000
1000
,
0100
0000
0001
0001
,
0100
0000
0010
0010
,
0001
0000
0100
0100
,
1000
0000
0001
0001
,
0100
0000
1000
1000
,
0010
1000
1000
1000
,
0010
1000
1000
1000
,
0010
0001
0001
0001
,
0010
0001
0001
0001
,
0100
1000
1000
1000
,
0100
0001
0001
0001
,
1000
0001
1000
0001
,
0010
0010
0100
0010
,
0200
0000
0000
0300
,
1000
0000
0001
0000
,
0100
0100
0100
0100
,
0010
0000
1000
0000
,
0100
0100
0100
0100
,
0010
0000
0001
0000
,
1000
1000
1000
1000
,
0010
0000
1000
0000
,
0001
0001
0001
0001
,
0010
0000
0100
0100
,
0010
0000
0100
0100
,
1000
0000
0100
0100
,
0001
0000
0100
0100
,
0010
0000
0001
0001
,
0010
0000
1000
1000
,
0010
0000
0100
0100
,
0020
0000
0000
0030
,
0002
0000
0000
0003
,
0100
1000
0100
0001
,
0200
0000
0000
0300
,
0010
0001
0010
1000
,
0020
0000
0000
0030
,
0100
0001
0010
0001
,
2000
0000
0000
3000
,
0100
1000
0010
1000
,
0200
0000
0010
0300
,
0100
1000
0001
0100
,
0020
0000
0100
0030
,
0010
1000
0001
0010
,
0200
0000
1000
0300
,
0100
0010
0001
1000
,
0002
0000
0010
0003
,
0001
0100
0010
1000
,
0001
0000
0001
0000
,
1000
0000
1000
0000
,
0010
0000
0000
0000
,
0100
0000
0000
0000
,
0001
0000
0000
0000
,
1000
0000
0000
0000
,
0100
0000
0000
0000
,
0010
0000
0000
0000
;

//--------------- dance-single - forcednature ----------------
#NOTES:
     dance-single:
     forcednature:
     Medium:
     7:
     0,0,0,0,0:
0000
0000
0000
0000
,
0000
0000
0000
0000
,
0000
0000
0000
0000
,
1000
1000
0001
0001
,
0100
0100
0010
0010
,
1000
0100
1000
0010
,
0100
0001
0010
0001
,
0100
0010
1000
0001
,
0020
0000
0000
0030
,
0110
0000
1000
0000
0001
0100
0001
0000
,
1000
0000
0010
0000
1000
0100
1000
0000
,
0010
0000
0100
0000
0001
1000
0001
0000
,
0010
0000
0010
0000
0100
1000
0100
0000
,
0010
0000
0001
0000
1000
0010
1000
0001
,
0100
0000
0010
0000
1000
0100
0010
0001
,
0100
0000
0001
0000
1000
0100
1000
0010
,
0100
0000
0001
0000
0010
0100
0010
0001
,
0100
1000
0100
0000
0001
0000
0001
0000
,
0010
1000
0010
0000
0001
0000
0001
0000
,
0100
1000
0100
0000
0001
0000
0001
0000
,
0010
1000
0010
0000
0001
0000
0001
0000
,
1000
0100
1000
0000
0010
0000
0010
0000
,
0100
0001
0100
0000
0010
0000
0010
0000
,
1000
0100
0001
0000
0001
0100
1000
0000
,
1000
0001
1000
0000
0010
0100
0010
0000
,
2002
0000
0000
3003
,
0001
0000
0010
0000
0001
1000
0100
0010
,
0002
0100
1000
0010
,
1003
0000
0010
0000
0100
0001
0010
0001
,
0200
1000
0010
0001
,
0310
0000
0100
0000
0001
0100
0010
1000
,
0002
0010
1000
0100
,
0013
0000
0100
0000
1000
0001
1000
0010
,
0200
1000
0010
0001
,
0300
0100
0001
0100
0000
0010
1000
0010
,
0000
1000
0100
1000
0000
0001
0010
0001
,
0000
0100
0010
0100
0000
0001
1000
0001
,
0000
0010
0100
0010
0000
0001
1000
0001
,
0000
1000
0100
0010
0000
0100
1000
0010
,
0000
0100
0001
0010
0000
0100
0010
0001
,
0000
0100
0010
1000
0000
0100
0010
0002
,
0000
0000
0000
0003
,
0101
1000
0010
1000
,
0001
0001
0010
0010
,
1100
0001
1000
0010
,
0100
0100
0010
0010
,
1100
0010
1000
0001
,
1000
1000
0100
0100
,
0110
0001
1000
0010
,
0100
0100
0001
0001
,
1001
0000
0001
0000
1000
0100
0010
0000
,
0100
1000
0010
0100
,
1001
0000
0100
0000
0001
0010
0100
0000
,
0010
0001
0100
0010
,
1001
0000
0100
0000
1000
0001
0100
0000
,
0010
1000
0001
0000
0010
0001
1000
0000
,
0010
0100
0010
0000
1000
0001
1000
0000
,
0100
0010
0100
0010
,
0001
1000
0001
1000
,
0010
0100
0010
0100
,
0000
0001
0000
0001
0000
0001
0000
1000
,
0000
1000
0000
1000
0000
1000
0000
0001
,
0000
0010
0000
0010
0000
0100
0000
0100
,
0000
1000
0000
1000
0000
0001
0000
0001
,
0000
0100
0000
1000
0000
0100
0000
0001
,
0000
0010
0000
0100
0000
0010
0000
0001
;

//--------------- dance-single - forcednature ----------------
#NOTES:
     dance-single:
     forcednature:
     Hard:
     10:
     0,0,0,0,0:
0000
0000
0000
0000
,
0000
0000
0000
0000
,
0000
0000
0000
0000
,
1000
0001
0010
0100
,
0001
1000
0010
0100
,
1000
0010
0100
1000
,
0001
0010
0100
0001
,
1000
0100
0010
0001
,
0200
0010
0010
0310
,
0101
0000
1000
0000
0001
0010
0001
0000
,
0100
0000
0001
0000
0010
0100
0010
0000
,
0001
0000
1000
0000
0100
0010
0100
0000
,
1000
0000
0010
0000
0100
0001
0100
0000
,
0110
0000
0001
0000
1000
0100
1000
0000
,
0010
0000
0100
0000
0001
0010
0001
0000
,
0100
0000
0010
0000
1000
0100
1000
0000
,
0001
0000
0001
0100
1000
0000
1000
0000
,
0110
0000
0000
0000
1000
0100
0010
0000
,
0101
0000
0000
0000
0010
0100
1000
0000
,
0110
0000
0000
0000
1000
0001
0010
0000
,
1001
0000
0000
0000
0100
1000
0010
0000
,
1010
0000
0000
0000
1000
0100
0010
0000
,
0110
0000
0000
0000
0010
0001
0100
0000
,
0101
1000
0100
0010
,
0001
0000
1000
0000
0001
0000
0000
0000
0100
0001
0000
0000
0100
0000
0000
0000
,
0000
0001
0001
0000
0000
1000
1000
0000
,
0001
0100
0010
0100
1000
0100
0001
0010
,
0100
0010
1000
0010
0001
1000
0010
0000
,
1000
0100
0010
0100
0001
0100
1000
0001
,
0100
1000
0100
0010
0100
0001
0010
0000
,
0100
1000
0010
0001
0010
1000
0100
0001
,
0100
0010
0001
1000
0010
0100
0001
0000
,
1000
0010
0001
1000
0100
0001
1000
0100
,
0010
1000
0001
0100
0010
0001
0100
0000
,
0010
0010
0010
1000
0000
0100
0000
0010
,
0001
0001
0001
0001
0000
1000
0000
0010
,
1000
1000
1000
1000
0000
0100
0000
0010
,
0001
0001
0001
0001
0000
0100
0000
0010
,
1000
1000
0001
0001
0000
0010
0000
0100
,
1000
1000
0001
0001
0000
0100
0000
0010
,
0100
0100
0001
0001
0000
0010
0000
0100
,
2000
0000
0000
3000
,
0100
0000
0000
1000
0000
0000
0010
0000
0000
1000
0000
0000
0100
0000
0000
0000
,
0010
0001
0100
0001
,
0010
0000
0000
0001
0000
0000
0100
0000
0000
0001
0000
0000
0010
0000
0000
0000
,
0100
1000
0010
1000
,
0001
0000
0000
0100
0000
0000
1000
0000
0000
0100
0000
0000
0001
0000
0000
0000
,
1000
0100
0010
0001
,
1000
0000
0000
0100
0000
0000
0001
0000
0000
0100
0000
0000
1000
0000
0000
0000
,
0001
0100
0010
1000
,
0001
0000
0000
0010
0001
0000
1000
0000
0000
0001
0010
0000
0001
0000
0000
0000
,
1000
1000
0001
0001
,
1000
0000
0000
0100
1000
0000
0001
0000
0000
1000
0100
0000
1000
0000
0000
0000
,
0010
0100
0001
1000
,
0100
0000
0000
0010
0001
0000
0100
0000
0000
0010
1000
0000
0100
0000
0000
0000
,
0010
0100
1000
0000
0001
0100
0010
0000
,
1000
0000
0000
0001
0100
0000
0010
0000
0000
1000
0001
0000
0010
0000
0000
0000
,
0100
0001
0100
1000
0100
0001
0100
1000
,
0100
0010
0100
0000
0100
0000
0100
0000
,
0010
0010
0010
0010
,
0001
0001
0001
0001
,
1000
1000
1000
1000
,
0010
1000
0000
0100
0001
0100
0000
1000
,
0010
1000
0000
0001
0010
0001
0000
0100
,
0010
0100
0000
0001
0010
0001
0000
0100
,
1000
0100
0000
0010
1000
0010
0000
0001
;
