#TITLE:Beautiful People;
#SUBTITLE:;
#ARTIST:Chris Brown feat. Benny Benassi;
#TITLETRANSLIT:;
#SUBTITLETRANSLIT:;
#ARTISTTRANSLIT:;
#GENRE:;
#CREDIT:;
#MUSIC:Beautiful People.mp3;
#BANNER:;
#BACKGROUND:;
#CDTITLE:;
#SAMPLESTART:0.000;
#SAMPLELENGTH:0.000;
#SELECTABLE:YES;
#OFFSET:1.795;
#BPMS:0.000=128.020;
#STOPS:;
#BGCHANGES:3.59=Beautiful People.avi=1.000=1=0=0,
99999=-nosongbg-=1.000=0=0=0 // don't automatically add -songbackground-
;
#FGCHANGES:;

//--------------- dance-single - OrangeRight ----------------
#NOTES:
     dance-single:
     OrangeRight:
     Beginner:
     1:
     0,0,0,0,0:
0000
0000
0000
0000
,
0000
0000
0000
0000
,
0000
0000
0000
0000
,
0000
0000
0000
0000
,
0000
0000
0000
0000
,
1000
0000
0000
0000
,
1000
0000
0000
0000
,
0001
0000
0000
0000
,
0001
0000
0000
0000
,
1000
0000
0000
0000
,
1000
0000
0000
0000
,
0001
0000
0000
0000
,
0001
0000
0000
0000
,
0100
0000
0000
0000
,
0010
0000
0000
0000
,
0100
0000
0000
0000
,
0010
0000
0000
0000
,
1000
0000
0000
0000
,
0001
0000
0000
0000
,
1000
0000
0000
0000
,
0001
0000
0000
0000
,
2000
0000
0000
0000
,
3000
0000
0000
0000
,
0002
0000
0000
0000
,
0003
0000
0000
0000
,
2000
0000
0000
0000
,
3000
0000
0000
0000
,
0002
0000
0000
0000
,
0003
0000
0000
0000
,
1000
0000
0000
0000
,
1000
0000
0000
0000
,
0001
0000
0000
0000
,
0001
0000
0000
0000
,
0100
0000
0000
0000
,
0001
0000
0000
0000
,
1000
0000
0000
0000
,
0100
0000
0000
0000
,
1000
0000
1000
0000
,
1000
0000
0000
0000
,
0001
0000
0001
0000
,
0001
0000
0000
0000
,
0100
0000
0010
0000
,
0100
0000
0000
0000
,
0001
0000
1000
0000
,
0001
0000
0000
0000
,
2000
0000
3000
0000
,
1000
0000
0000
0000
,
0002
0000
0003
0000
,
0001
0000
0000
0000
,
1000
0000
0001
0000
,
1000
0000
0000
0000
,
0001
0000
0100
0000
,
0010
0000
0000
0000
,
1000
0000
0000
0000
;

//--------------- dance-single - OrangeRight ----------------
#NOTES:
     dance-single:
     OrangeRight:
     Easy:
     3:
     0,0,0,0,0:
0000
0000
0000
0000
,
0000
0000
0000
0000
,
0000
0000
0000
0000
,
0000
0000
0000
0000
,
0000
0000
0000
0000
,
1000
0000
0000
0000
0000
0001
0000
0000
,
0000
0000
0000
0000
,
1000
0000
0000
1000
0000
0000
1000
0000
,
0000
0000
0000
0000
,
0001
0000
0000
0000
0000
1000
0000
0000
,
0000
0000
0000
0000
,
0001
0000
0000
0001
0000
0000
0001
0000
,
0000
0000
1000
0001
,
1000
0001
0000
0000
,
0000
0000
0001
1000
,
0001
1000
0000
0000
,
0000
0000
1000
0010
,
0100
0001
0000
0000
,
0000
0000
0001
0010
,
0100
1000
0000
0000
,
0000
0000
0000
0001
,
2000
0000
3001
0100
,
0010
0100
0001
0000
,
0002
0000
1003
0010
,
0100
0010
1000
0000
,
2000
0000
3100
0010
,
0100
1000
0010
0000
,
0200
0000
0301
0010
,
0100
1000
0001
0000
,
1000
0100
1000
0001
,
0100
0000
0100
0000
,
0001
0010
0001
0100
,
0010
0000
1000
0000
,
0001
0010
0001
1000
,
0010
0000
0100
0000
,
0010
1000
0100
0001
,
0100
0000
1000
0000
,
0001
0100
0010
0000
,
1000
0100
0010
0001
,
1000
0010
0100
0000
,
0001
0010
0100
1000
,
0001
1000
0100
0000
,
1000
0001
0100
0010
,
1000
0001
0010
0000
,
0001
0100
0010
1000
,
0002
0000
0103
0001
,
0100
0010
1000
0000
,
2000
0000
3100
1000
,
0100
0010
0001
0000
,
0002
0000
0013
0100
,
1000
0001
1000
0000
,
2000
0000
3001
0100
,
1000
0100
0001
0000
,
2000
0000
0000
0000
,
3000
0000
0000
0000
;

//--------------- dance-single - OrangeRight ----------------
#NOTES:
     dance-single:
     OrangeRight:
     Medium:
     7:
     0,0,0,0,0:
0000
0000
0000
0000
,
0000
0000
0000
0000
,
0000
0000
0000
0000
,
0000
0000
0000
0000
,
0000
0000
0000
0000
,
1000
0000
0000
1000
0000
0000
1000
0000
0000
0000
0001
0000
0000
0001
0000
0000
,
0001
0000
0000
0000
,
1000
0000
0000
0001
0000
0000
0100
0000
0000
0001
0000
0000
1000
0000
0000
0000
,
0000
0000
0000
0000
,
0001
0000
0000
0001
0000
0000
0001
0000
0000
0000
1000
0000
0000
1000
0000
0000
,
1000
0000
0000
0000
,
0001
0000
0000
1000
0000
0000
0100
0000
0000
1000
0000
0000
0001
0000
0000
0000
,
0001
0000
0000
0000
0000
0000
0000
0000
0100
0000
0000
0100
0000
0000
0100
0000
,
0001
1001
0000
0000
,
0000
0000
0000
0000
0000
0000
0000
0000
0100
0000
0000
0100
0000
0000
0100
0000
,
1000
1001
0000
0000
,
0000
0000
0000
0000
0000
0000
0000
0000
0010
0000
0000
0001
0000
0000
0010
0000
,
0001
0101
0000
0000
,
0000
0000
0000
0000
0000
0000
0000
0000
0010
0000
0000
1000
0000
0000
0010
0000
,
1000
1100
0000
0000
,
0000
0000
0000
0001
,
2000
0000
0000
0000
3000
0001
0100
0001
,
0000
1000
0100
1000
0000
0000
1000
0000
,
0002
0000
0000
0000
0003
1000
0010
1000
,
0000
0001
0010
0001
0000
0000
0001
0000
,
2000
0000
0000
0000
3000
0010
0100
0010
,
0000
0100
0010
0100
0000
0000
0100
0000
,
0002
0000
0000
0000
0003
0010
0100
1000
,
0000
0010
0100
0001
0000
0000
0000
0000
,
1000
0000
0000
0001
0000
0000
1000
0000
0000
0000
0001
0000
0000
1000
0000
0000
,
0001
0100
0010
1000
,
0001
0000
0000
0010
0000
0000
0001
0000
0000
0100
0000
0000
0010
0000
0000
0000
,
1000
0000
0000
0000
0010
0000
0000
0000
0100
0000
0000
0001
0000
0000
0100
0000
,
0001
0000
0000
1000
0000
0000
0001
0000
0000
0000
1000
0000
0000
0001
0000
0000
,
1000
0100
0010
0001
,
1000
0000
0000
0010
0000
0000
1000
0000
0000
0100
0000
0000
0010
0000
0000
0000
,
0001
0000
0100
0000
0010
1000
0010
0000
,
1000
0001
0010
0100
,
1000
0000
0010
0000
0100
0001
0010
0001
,
0100
0010
1000
0100
,
0010
0000
0001
0000
1000
0010
0100
0010
,
1000
0100
0010
0001
,
0100
0000
0010
0000
1000
0001
1000
0100
,
0010
0001
0100
0010
,
1000
0000
0100
0000
0010
0100
1000
0000
,
0001
0000
0000
1000
0000
0000
0001
0000
0000
0000
1000
0000
0100
0000
1000
0000
,
0000
0001
0010
0001
0000
0000
0001
0000
,
1000
0000
0000
0001
0000
0000
1000
0000
0000
0000
0001
0000
0100
0000
0001
0000
,
0000
1000
0010
1000
0000
0000
0010
0000
,
0100
0000
0000
0010
0000
0000
0100
0000
0000
0000
0001
0000
0010
0000
0100
0000
,
0000
1000
0010
0100
0000
0000
0010
0000
,
0100
0000
0000
0010
0000
0000
0100
0000
0000
0000
0001
0000
0100
0000
0010
0000
,
0000
1000
0100
0010
0001
0000
1000
0000
,
0200
0000
0000
0000
,
0300
0000
0000
0000
;

//--------------- dance-single - OrangeRight ----------------
#NOTES:
     dance-single:
     OrangeRight:
     Hard:
     11:
     0,0,0,0,0:
0000
0000
0000
0000
,
0000
0000
0000
0000
,
0000
0000
0000
0000
,
0000
0000
0000
0000
,
0000
0000
0000
0000
,
1000
0000
0000
0100
0000
0000
1000
0000
0000
0000
0001
0000
0000
0100
0000
0000
,
0001
0000
0000
0000
,
0001
0000
0000
0100
0000
0000
0001
0000
0000
1000
0000
0000
0100
0000
0000
0000
,
0000
0000
0000
0000
,
1000
0000
0000
0010
0000
0000
1000
0000
0000
0000
0001
0000
0000
0010
0000
0000
,
0001
0000
0000
0000
0000
0000
0000
1000
,
0001
0000
0000
0010
0000
0000
0001
0000
0000
1000
0000
0000
0010
0000
1000
0000
,
0001
0000
0000
0000
0100
0000
0000
0000
0010
0000
0000
1000
0000
0000
0100
0000
,
0010
1001
1000
0010
,
0100
0000
0000
0000
0001
0000
0000
0000
0010
0000
0000
0001
0000
0000
0100
0000
,
0010
1001
0001
0010
,
0100
0000
0000
0000
1000
0000
0000
0000
0001
0000
0000
0100
0000
0000
0010
0000
,
1000
1100
1000
0100
,
0010
0000
0000
0000
0100
0000
0000
0000
1000
0000
0000
0100
0000
0000
0010
0000
,
0001
0101
0001
0100
,
0010
0000
0100
0000
0001
0000
1000
0001
,
0100
0000
0000
0010
0000
0000
0100
0000
0000
0001
1000
0000
0100
0000
0010
0000
,
0000
0000
0001
0000
0100
0000
0010
0000
1000
0000
0000
0001
0000
0000
1000
0000
,
0100
0000
0000
0010
0000
0000
0100
0000
0000
1000
0001
0000
0100
0000
0010
0000
,
0000
0000
1000
0000
0100
0000
0010
0000
0001
0000
0000
1000
0000
0000
0001
0000
,
0100
0000
0000
0001
0000
0000
0100
0000
0000
0010
1000
0000
0001
0000
0010
0000
,
0000
0000
0001
0000
1000
0000
0010
0000
0100
0000
0000
0001
0000
0000
1000
0000
,
0002
0000
0000
0203
0000
0000
0320
0000
0000
2030
0000
0000
3200
0000
0000
0302
,
0000
0000
0203
0000
0000
2300
0000
0000
3002
0000
0000
2003
0000
0000
3001
0000
,
1000
0000
0000
1000
0100
0000
0010
0000
0001
0000
1000
0000
0010
0100
0000
0000
,
0001
0010
0001
0000
1000
0100
1000
0000
,
0001
0000
0000
0001
0100
0000
0010
0000
1000
0100
0000
0000
0110
0000
0000
0000
,
0010
0100
0010
0000
0001
1000
0001
0000
,
1000
0000
0000
1000
0010
0000
0100
0000
0001
0000
0010
0000
0100
0010
0000
0000
,
0001
0100
0001
0000
1000
0010
1000
0000
,
0001
0000
0000
0001
1000
0000
0100
0000
0010
0001
0000
0000
0101
0000
0000
0000
,
0001
0100
0010
0000
1000
0100
0010
0000
,
0001
0000
0000
0001
0100
0000
0010
0000
1000
0100
0000
0000
0010
0000
0000
0001
,
0010
0000
0100
0000
1000
0000
0001
0000
1000
0100
0000
0010
0000
0001
0000
0000
,
0001
0000
0000
0001
0010
0000
0100
0000
1000
0010
0000
0000
0100
0000
0000
0001
,
0100
0000
0010
0000
1000
0000
0100
0000
1000
0001
0000
1000
0000
0001
0000
0000
,
1000
0000
0000
1000
0100
0000
0010
0000
0001
0100
0000
0000
0010
0000
0000
1000
,
0010
0000
0100
0000
0001
0000
0010
0000
0001
0100
0000
0010
0000
1000
0000
0000
,
1000
0000
0000
1000
0010
0000
0100
0000
0001
0010
0000
0000
0200
0000
0000
2300
,
0000
0000
3020
0000
0000
0032
0000
0000
0023
0000
0000
2030
0000
0000
3001
0000
,
1000
0000
0000
0010
0100
0000
0001
0000
0010
0000
0100
0000
1000
0000
0010
0000
,
0001
0000
0010
0000
1000
0000
0100
0000
1000
0000
0000
1000
0001
0000
1000
0000
,
0100
0000
0000
0010
0001
0000
0100
0000
0010
0000
1000
0000
0100
0000
0001
0000
,
0100
0000
1000
0000
0010
0000
1000
0000
0001
0000
0000
1000
0001
0000
1000
0000
,
0001
0000
0000
0010
0100
0000
1000
0000
0010
0000
0100
0000
0001
0000
0010
0000
,
1000
0000
0010
0000
0001
0000
0100
0000
0001
0000
0000
0001
1000
0000
0001
0000
,
0100
0000
0000
0010
1000
0000
0100
0000
0010
0000
0001
0000
0100
0000
1000
0000
,
0100
0000
0001
0000
0010
0000
0001
0000
1000
0000
0000
0001
1000
0000
0001
0000
,
0200
0000
0000
0000
,
0300
0000
0000
0000
;

//--------------- dance-double - OrangeRight ----------------
#NOTES:
     dance-double:
     OrangeRight:
     Easy:
     3:
     0,0,0,0,0:
00000000
00000000
00000000
00000000
,
00000000
00000000
00000000
00000000
,
00000000
00000000
00000000
00000000
,
00000000
00000000
00000000
00000000
,
00000000
00000000
00000000
00000000
,
10000000
00000000
00000000
00000000
00000000
00010000
00000000
00000000
,
00000000
00000000
00000000
00000000
,
00010000
00000000
00000000
01000000
00000000
00000000
00010000
00000000
,
00000000
00000000
00000000
00000000
,
00010000
00000000
00000000
10000000
00000000
00000000
00000000
00000000
,
00000000
00000000
00000000
00000000
,
10000000
00000000
00000000
01000000
00000000
00000000
10000000
00000000
,
00000000
00000000
00010000
10000000
,
00010000
01000000
00000000
00000000
,
00000000
00000000
00010000
01000000
,
00001000
00010000
00000000
00000000
,
00000000
00000000
00001000
00010000
,
00000100
00001000
00000000
00000000
,
00000000
00000000
00000001
00001000
,
00000001
00000010
00000000
00000000
,
00000000
00000000
00000000
00000001
,
00002000
00000000
00003100
00000000
,
00010000
00001000
00010000
00000000
,
00002000
00000000
00013000
00000000
,
00001000
00100000
00010000
00000000
,
20000000
00000000
30010000
01000000
,
00010000
00100000
00010000
00000000
,
00200000
00000000
00310000
00100000
,
00001000
00010000
00000100
00001000
,
00000001
00000000
00000001
00001000
,
00000100
00000000
00000100
00000000
,
00001000
00000000
00000100
00010000
,
00001000
00000000
00010000
00000000
,
00001000
00000000
00001000
00100000
,
00010000
00000000
00010000
00000000
,
10000000
00000000
00010000
00100000
,
01000000
00000000
10000000
00000000
,
00100000
01000000
00100000
00000000
,
10000000
01000000
10000000
00010000
,
01000000
00100000
01000000
00000000
,
00010000
01000000
00001000
00010000
,
00000100
00001000
00000100
00000000
,
00000010
00000001
00000100
00000010
,
00001000
00000001
00001000
00000000
,
00000100
00001000
00000010
00000100
,
00000002
00000000
00000103
00000001
,
00001000
00000100
00001000
00000000
,
00000200
00000000
00010300
00001000
,
01000000
00010000
01000000
00000000
,
00020000
00000000
01030000
00100000
,
10000000
01000000
00100000
00000000
,
02000000
00000000
13000000
00100000
,
00010000
00100000
10000000
01000000
,
00200000
00000000
00000000
00000000
,
00300000
00000000
00000000
00000000
;

//--------------- dance-double - OrangeRight ----------------
#NOTES:
     dance-double:
     OrangeRight:
     Medium:
     6:
     0,0,0,0,0:
00000000
00000000
00000000
00000000
,
00000000
00000000
00000000
00000000
,
00000000
00000000
00000000
00000000
,
00000000
00000000
00000000
00000000
,
00000000
00000000
00000000
00000000
,
10000000
00000000
00000000
10000000
00000000
00000000
10000000
00000000
00000000
00000000
00010000
00000000
00000000
00010000
00000000
00000000
,
00010000
00000000
00000000
00000000
,
10000000
00000000
00000000
00010000
00000000
00000000
01000000
00000000
00000000
00010000
00000000
00000000
10000000
00000000
00000000
00000000
,
00000000
00000000
00000000
00000000
,
00010000
00000000
00000000
00010000
00000000
00000000
00010000
00000000
00000000
00000000
01000000
00000000
00000000
01000000
00000000
00000000
,
01000000
00000000
00000000
00000000
,
00010000
00000000
00000000
01000000
00000000
00000000
00001000
00000000
00000000
00010000
00000000
00000000
00001000
00000000
00000000
00000000
,
00010000
00000000
00000000
00000000
00000000
00000000
00000000
00000000
00001000
00000000
00000000
00010000
00000000
00000000
00001000
00000000
,
00010000
00010100
00000000
00000000
,
00000000
00000000
00000000
00000000
00000000
00000000
00000000
00000000
00001000
00000000
00000000
00010000
00000000
00000000
00001000
00000000
,
01000000
01001000
00000000
00000000
,
00000000
00000000
00000000
00000000
00000000
00000000
00000000
00000000
00010000
00000000
00000000
00001000
00000000
00000000
00010000
00000000
,
00000010
00010010
00000000
00000000
,
00000000
00000000
00000000
00000000
00000000
00000000
00000000
00000000
00001000
00000000
00000000
00010000
00000000
00000000
00001000
00000000
,
00100000
00101000
00000000
00000000
,
00000000
00000000
00000000
00100000
,
00020000
00000000
00000000
00000000
00030000
01000000
00100000
01000000
,
00000000
00010000
01000000
00010000
00000000
00000000
00000000
00000000
,
00200000
00000000
00000000
00000000
00300000
00010000
00100000
00010000
,
00000000
00100000
00001000
00100000
00000000
00000000
00001000
00000000
,
00020000
00000000
00000000
00000000
00030000
00001000
00010000
00001000
,
00000000
00010000
00000100
00010000
00000000
00000000
00000100
00000000
,
00002000
00000000
00000000
00000000
00003000
00000001
00000010
00000100
,
00000000
00001000
00000010
00000100
00000000
00000000
00000000
00000000
,
00000001
00000000
00000000
00000100
00000000
00000000
00000001
00000000
00000000
00000000
00001000
00000000
00000000
00000100
00000000
00000000
,
00001000
00000100
00000010
00000100
,
00001000
00000000
00000000
00000100
00000000
00000000
00010000
00000000
00000000
00001000
00000000
00000000
00010000
00000000
00000000
00000000
,
00001000
00100000
00010000
01000000
,
00100000
00000000
00000000
01000000
00000000
00000000
00100000
00000000
00000000
00000000
10000000
00000000
00000000
00010000
00000000
00000000
,
10000000
01000000
00100000
00010000
,
01000000
00000000
00000000
00001000
00000000
00000000
00010000
00000000
00000000
00000100
00000000
00000000
00001000
00000000
00000000
00000000
,
00000001
00000000
00000100
00000000
00000010
00001000
00000010
00000000
,
00001000
00000100
00001000
00000010
,
00001000
00000000
00000100
00000000
00010000
00001000
00010000
00001000
,
01000000
00010000
00100000
00010000
,
01000000
00000000
00010000
00000000
00100000
00010000
00100000
00000000
,
00010000
00100000
00010000
01000000
,
00010000
00000000
00100000
00000000
00010000
01000000
00010000
01000000
,
00001000
00010000
00001000
00010000
,
00000100
00000000
00001000
00000000
00000010
00000100
00000010
00000000
,
00001000
00000000
00000000
00000100
00000000
00000000
00001000
00000000
00000000
00000000
00000100
00000000
00000010
00000000
00000100
00000000
,
00000000
00001000
00000100
00001000
00000000
00000000
00000001
00000000
,
00001000
00000000
00000000
00000010
00000000
00000000
00001000
00000000
00000000
00000000
00000010
00000000
00010000
00000000
00000010
00000000
,
00000000
00010000
00001000
00010000
00000000
00000000
00001000
00000000
,
01000000
00000000
00000000
00010000
00000000
00000000
01000000
00000000
00000000
00000000
00100000
00000000
10000000
00000000
01000000
00000000
,
00000000
00100000
00010000
01000000
00000000
00000000
00010000
00000000
,
10000000
00000000
00000000
01000000
00000000
00000000
00100000
00000000
00000000
00000000
00010000
00000000
01000000
00000000
00100000
00000000
,
00000000
10000000
01000000
00100000
00010000
00000000
10000000
00000000
,
02000000
00000000
00000000
00000000
,
03000000
00000000
00000000
00000000
;

//--------------- dance-double - OrangeRight ----------------
#NOTES:
     dance-double:
     OrangeRight:
     Hard:
     11:
     0,0,0,0,0:
00000000
00000000
00000000
00000000
,
00000000
00000000
00000000
00000000
,
00000000
00000000
00000000
00000000
,
00000000
00000000
00000000
00000000
,
00000000
00000000
00000000
00000000
,
10000000
00000000
00000000
00100000
00000000
00000000
10000000
00000000
00000000
00000000
00010000
00000000
00000000
01000000
00000000
00000000
,
00010000
00000000
00000000
00000000
,
00100000
00000000
00000000
00001000
00000000
00000000
00010000
00000000
00000000
00000100
00000000
00000000
00001000
00000000
00000000
00000000
,
00000000
00000000
00000000
00000000
,
00000001
00000000
00000000
00000100
00000000
00000000
00000001
00000000
00000000
00000000
00001000
00000000
00000000
00000010
00000000
00000000
,
00001000
00000000
00000000
00000000
,
00000010
00000000
00000000
00010000
00000000
00000000
00001000
00000000
00000000
01000000
00000000
00000000
00010000
00000000
10000000
00000000
,
00010000
00000000
00000000
00000000
01000000
00000000
00000000
00000000
00100000
00000000
00000000
10000000
00000000
00000000
01000000
00000000
,
00100000
00120000
01030000
00001000
,
00010000
00000000
00000000
00000000
00000100
00000000
00000000
00000000
00000010
00000000
00000000
00000001
00000000
00000000
00000100
00000000
,
00000010
00002010
00003100
00010000
,
00001000
00000000
00000000
00000000
00100000
00000000
00000000
00000000
00010000
00000000
00000000
00100000
00000000
00000000
00001000
00000000
,
00010000
00010200
00001300
00000100
,
00000010
00000000
00000000
00000000
00000001
00000000
00000000
00000000
00001000
00000000
00000000
00000010
00000000
00000000
00010000
00000000
,
00001000
00201000
00310000
00100000
,
01000000
00000000
10000000
00000000
00100000
00000000
01000000
00100000
,
10000000
00000000
00000000
01000000
00000000
00000000
00100000
00000000
00000000
00100000
00010000
00000000
01000000
00000000
00100000
00000000
,
00000000
00000000
10000000
00000000
01000000
00000000
00100000
00000000
00010000
00000000
00000000
10000000
00000000
00000000
00010000
00000000
,
01000000
00000000
00000000
00001000
00000000
00000000
00010000
00000000
00000000
00001000
00010000
00000000
00000100
00000000
00010000
00000000
,
00000000
00000000
00001000
00000000
00100000
00000000
00001000
00000000
00010000
00000000
00000000
00000100
00000000
00000000
00001000
00000000
,
00000010
00000000
00000000
00000100
00000000
00000000
00000010
00000000
00000000
00000010
00001000
00000000
00000100
00000000
00000010
00000000
,
00000000
00000000
00000001
00000000
00000100
00000000
00000010
00000000
00001000
00000000
00000000
00000001
00000000
00000000
00001000
00000000
,
00000200
00000000
00000000
00020300
00000000
00000000
00032000
00000000
00000000
00203000
00000000
00000000
00320000
00000000
00000000
02030000
,
00000000
00000000
23000000
00000000
00000000
32000000
00000000
00000000
03020000
00000000
00000000
20030000
00000000
00000000
30010000
00000000
,
10000000
00000000
00000000
10000000
01000000
00000000
00100000
00000000
01000000
00000000
00100000
00000000
00010000
01000000
00000000
00000000
,
00001000
00010000
00001000
00000000
00100000
00010000
00100000
00000000
,
00001000
00000000
00000000
00010000
00000100
00000000
00001000
00000000
00000010
00000100
00000000
00000000
00000110
00000000
00000000
00000000
,
00000010
00001000
00000100
00000000
00000010
00000001
00000100
00000000
,
00000001
00000000
00000000
00000001
00000100
00000000
00000010
00000000
00000100
00000000
00000010
00000000
00001000
00000100
00000000
00000000
,
00010000
00001000
00010000
00000000
00000010
00001000
00000010
00000000
,
00010000
00000000
00000000
00001000
01000000
00000000
00010000
00000000
00100000
00010000
00000000
00000000
01010000
00000000
00000000
00000000
,
00100000
10000000
01000000
00000000
00100000
00010000
01000000
00100000
,
10000000
00000000
00000000
10000000
00100000
00000000
01000000
00000000
00010000
00100000
00000000
00000000
00010000
00000000
00000000
00010000
,
01000000
00000000
00001000
00000000
00010000
00000000
00000100
00000000
00010000
00001000
00000000
00010000
00000000
00001000
00000000
00000000
,
00010000
00000000
00000000
00010000
00000100
00000000
00001000
00000000
00000010
00000100
00000000
00000000
00000001
00000000
00000000
00000001
,
00001000
00000000
00000100
00000000
00000010
00000000
00000001
00000000
00001000
00000001
00000000
00001000
00000000
00000001
00000000
00000000
,
00000001
00000000
00000000
00000001
00000010
00000000
00000100
00000000
00001000
00000010
00000000
00000000
00010000
00000000
00000000
00001000
,
01000000
00000000
00010000
00000000
00100000
00000000
01000000
00000000
10000000
01000000
00000000
00100000
00000000
00010000
00000000
00000000
,
10000000
00000000
00000000
10000000
00100000
00000000
01000000
00000000
00010000
00100000
00000000
00000000
00001000
00000000
00000000
00010000
,
00000100
00000000
00002000
00000000
00000000
00003020
00000000
00000000
00000230
00000000
00000000
00000302
00000000
00000000
00001003
00000000
,
00000001
00000000
00000000
00000100
00000010
00000000
00001000
00000000
00000100
00000000
00010000
00000000
00000100
00000000
00001000
00000000
,
00000010
00000000
00000100
00000000
00000010
00000000
00001000
00000000
00000100
00000000
00000000
00000100
00010000
00000000
00001000
00000000
,
00100000
00000000
00000000
00100000
00010000
00000000
01000000
00000000
00100000
00000000
10000000
00000000
01000000
00000000
00100000
00000000
,
01000000
00000000
10000000
00000000
00100000
00000000
01000000
00000000
00010000
00000000
00000000
10000000
00000000
00000000
00010000
00000000
,
10000000
00000000
00000000
00100000
01000000
00000000
00010000
00000000
00100000
00000000
00001000
00000000
00100000
00000000
00010000
00000000
,
01000000
00000000
00100000
00000000
01000000
00000000
00010000
00000000
00100000
00000000
00000000
00100000
00001000
00000000
00010000
00000000
,
00000100
00000000
00000000
00000100
00001000
00000000
00000010
00000000
00010000
00000000
00001000
00000000
00100000
00000000
00010000
00000000
,
01000000
00000000
00001000
00000000
00010000
00000000
00000100
00000000
00001000
00000000
00000000
00000010
00000000
00000000
00010000
00000000
,
00002000
00000000
00000000
00000000
,
00003000
00000000
00000000
00000000
;
