#TITLE:Bad Routine;
#SUBTITLE:;
#ARTIST:D.J. Spugna;
#TITLETRANSLIT:;
#SUBTITLETRANSLIT:;
#ARTISTTRANSLIT:;
#GENRE:;
#CREDIT:;
#MUSIC:Bad Routine.ogg;
#BANNER:Bad Routine.png;
#BACKGROUND:Bad Routine-bg.png;
#CDTITLE:./CDTITLES/BEATMANIA IIDX.PNG;
#SAMPLESTART:31.406;
#SAMPLELENGTH:15.000;
#SELECTABLE:YES;
#OFFSET:0.000;
#BPMS:0.000=128.500
,4.000=130.000
;
#STOPS:34.000=0.923
,152.000=0.923
;
#DISPLAYBPM:130.000;
#BGCHANGES:;
#FGCHANGES:;

//--------------- dance-single - KONAMI ----------------
#NOTES:
     dance-single:
     KONAMI:
     Beginner:
     3:
     0.162,0.207,0.063,0,0:
0000
0000
0000
0000
,
0000
0000
0000
0000
,
0000
0000
0000
0000
,
0000
0000
0000
0000
,
0000
0000
0000
0000
,
1000
0000
0100
0000
,
1000
0000
0001
0000
,
0010
0000
0100
0000
,
0010
0010
0010
0010
,
0000
0100
0000
1000
,
0000
1000
0000
1000
,
0000
0100
0000
0001
,
0001
0001
0000
0010
,
0000
0100
0000
0001
,
0000
0001
0000
0001
,
0000
0100
0000
1000
,
1000
1000
0000
0100
,
0000
0010
0000
1000
,
0000
1000
0000
1000
,
0000
0010
0000
0001
,
0001
0001
0000
0100
,
0000
0010
0000
0001
,
0000
0001
0000
0001
,
0000
0010
0000
1000
,
1000
1000
1000
0000
,
1000
0000
1000
0000
,
0110
0000
0001
0000
,
0001
0000
0001
0000
,
0110
0110
0000
0000
,
0000
1001
0000
0000
,
0110
0000
1000
0000
,
0001
0000
0000
1000
,
1000
1000
0000
0001
,
0001
0001
0000
0100
,
0100
0100
0000
1000
,
0000
0001
0000
1000
,
0000
0001
0000
1000
,
0000
0001
0001
0001
,
0000
0010
0000
1000
,
0000
1000
0000
1000
,
0000
0010
0000
0001
,
0001
0001
0001
0000
,
0000
0010
0000
0001
,
0000
0001
0000
0001
,
0000
0010
0000
1000
,
1000
1000
1000
0000
,
1000
1000
0000
1000
,
0000
1000
0000
0110
,
0000
0001
0000
0001
,
0000
0001
0001
0001
;

//--------------- dance-single - KONAMI ----------------
#NOTES:
     dance-single:
     KONAMI:
     Easy:
     5:
     0.217,0.259,0.156,0.042,0:
0000
0000
0000
0000
,
0000
0000
0000
0000
,
0000
0000
0000
0000
,
0000
0000
0000
0000
,
0000
0000
0000
0000
,
1000
0000
0100
0000
,
1000
0100
0001
0000
,
0010
0000
0100
0000
,
0010
0010
0110
0000
,
0100
0000
0100
0100
,
1000
1000
0010
1000
,
0100
0000
0001
0001
,
1000
0100
0000
0001
,
1000
0001
0001
0100
,
0010
0100
0010
0100
,
0010
0010
1001
0000
,
1001
0000
0000
0000
,
1000
0000
0001
0001
,
0010
0010
0001
0010
,
0100
0000
1000
1000
,
0100
0001
0000
0110
,
0000
0110
0001
0100
,
0010
0000
0001
1000
,
0001
0001
0100
0000
,
0100
1000
1001
0000
,
1001
0000
0100
0000
,
0010
0100
0110
0000
,
1001
0000
0110
0000
,
1000
0001
0000
0000
,
1000
0101
0001
0000
,
0001
1000
1000
0000
,
0001
0000
0002
0000
,
0003
0000
2000
0000
,
3000
0000
0020
0000
,
0000
0030
0100
0000
,
0100
0000
1000
0001
,
0001
1000
1000
0100
,
1000
0000
0001
0000
,
1001
0000
0000
0000
,
0010
0010
0100
0100
,
0010
0001
0100
0000
,
0001
0001
1000
0100
,
0010
0010
1000
1000
,
0100
0100
0001
0001
,
1000
0001
1000
0000
,
1001
0000
1001
0000
,
1000
0000
0100
0100
,
0001
0000
0010
1000
,
1000
0100
0100
1000
,
0002
0003
1000
1001
;

//--------------- dance-single - KONAMI ----------------
#NOTES:
     dance-single:
     KONAMI:
     Medium:
     7:
     0.329,0.337,0.229,0.104,0.01:
0000
0000
0000
0000
,
0000
0000
0000
0000
,
0000
0000
0000
0000
,
0000
0000
0000
0000
,
0000
0000
0000
0000
,
1000
1000
0000
0100
0010
0000
1000
0000
,
0001
0100
0001
0000
0010
1000
0100
0000
,
0001
0000
1000
0000
0001
0000
0001
1000
,
0000
1000
0100
0000
0101
0000
1001
0000
,
0100
0010
0000
0001
,
0010
0000
1000
0000
0001
0100
0010
0000
,
1000
0100
1000
0000
0010
0000
0001
0000
,
0100
1000
0000
1001
,
0010
1001
0100
0001
,
0100
0000
1000
0000
0010
0100
0001
0000
,
1000
0000
0100
0000
0010
0000
0000
0000
2002
0000
0000
3003
0000
0000
0000
0000
,
0100
0100
0010
1001
,
0100
0010
0000
1000
,
0010
0000
0001
0000
1000
0100
0010
0000
,
0001
0100
0001
0000
0010
0000
1000
0000
,
0100
0001
0000
1001
,
0010
1001
0100
1000
,
0100
0000
0001
0000
0010
0100
1000
0000
,
0001
0000
0100
0000
0010
0000
0000
0000
2002
0000
0000
3003
0000
0000
0000
0000
,
1000
0000
1000
0000
1000
1000
0000
0000
,
0001
0001
0000
0000
0100
0100
0000
0000
,
0110
0000
0000
0000
1000
0001
0000
0000
,
0001
1000
0000
0000
1000
0100
0000
0000
,
0001
0100
0000
0000
0010
0100
0000
0000
0000
0000
0000
0000
0000
0000
0000
0000
,
1000
1000
1010
0000
0001
0001
0000
0000
,
0011
0000
0000
0000
1000
0100
0000
0000
,
0001
0000
0010
0002
0000
0000
1000
0000
,
1000
0000
1003
0200
0000
0000
1000
0000
,
1000
0000
1300
0020
0000
0000
0100
0000
,
0100
0130
0110
0001
,
1000
0001
0000
1000
,
0100
0001
1000
0001
,
0100
1000
0020
0130
,
0110
1001
0100
1001
,
0000
0001
0010
1000
,
0001
1000
0001
0000
1000
0100
1000
0000
,
0010
0001
0100
1000
,
0110
1001
0100
1001
,
0000
1000
0010
0001
,
1000
0001
1000
0000
0001
0100
0001
0000
,
2002
0000
0000
3003
0000
0000
0000
0000
1000
0000
0000
0000
1000
0000
0000
0000
,
1000
1000
0000
0100
0010
0000
1000
0000
,
0001
0100
0001
0000
0010
1000
0100
0000
,
0001
0000
1000
0000
0001
0000
0001
1000
,
0000
1000
0100
0000
0101
0000
1001
0000
;

//--------------- dance-single - KONAMI ----------------
#NOTES:
     dance-single:
     KONAMI:
     Hard:
     9:
     0.376,0.364,0.167,0.313,0.01:
0000
0000
0000
0000
,
0000
0000
0000
0000
,
0000
0000
0000
0000
,
0000
0000
0000
0000
,
0000
0000
0000
0000
,
0010
1000
0100
1000
0000
0010
0000
0100
,
0000
0101
0000
1000
0001
0010
0100
0000
,
2000
0000
3002
0000
0013
0000
1000
0200
,
0000
0300
0110
1001
,
0000
0100
0000
0001
0000
1000
0200
0000
,
0310
0200
0000
1300
0200
0000
0310
0000
,
0010
1000
0100
0000
0001
0000
1000
0000
,
0010
0001
0100
0001
1000
0000
1001
0000
,
0001
0010
0000
1000
0000
0010
0002
0000
,
1003
0002
0000
0023
0002
0000
0033
0000
,
0010
1000
0100
0000
1000
0100
0001
0000
,
1000
0100
0010
0110
,
0002
0000
0103
0000
0010
1000
0100
0000
,
0010
0001
0100
0000
2000
0000
3100
0000
,
0002
0003
0010
1000
,
0100
0000
0001
0000
1000
0010
0100
0000
,
0001
0000
1000
0000
0010
1000
0100
0000
,
0001
0100
2000
0000
,
3002
0000
0203
0000
,
0300
0000
1001
0000
0010
0010
0000
0100
,
0010
0010
0000
1000
0001
0000
0100
0000
,
1100
0000
1000
0001
0100
0000
0000
0010
,
0001
0000
0000
0100
0001
0000
0001
0000
,
0010
0001
0000
0000
0001
0100
0000
0000
0000
0000
0100
0000
0000
0000
0001
0000
,
0000
1000
1001
0000
0000
1000
0001
0100
,
0000
1000
0010
0100
0000
0001
0000
1000
,
0000
0100
0010
0002
0000
0000
0000
0000
,
0013
1000
0100
0020
0000
0000
0000
0000
,
0031
1000
0010
0200
0000
0000
0000
0000
,
0301
1000
0001
0000
0110
0000
0002
0000
,
0003
0000
2000
0001
3000
0010
0001
1000
,
0001
0100
0010
0100
0000
0000
0010
0000
,
0000
0000
0100
0020
0000
0000
0130
0000
,
1001
0000
1001
0000
0000
0010
0000
0001
,
0000
1000
0020
0000
0130
0020
0000
1030
,
0020
0000
0130
0000
0100
0010
1000
0000
,
0001
0000
1000
0000
0100
0010
0001
0001
,
1000
0000
1001
0000
0000
0100
0000
0010
,
0000
0100
0002
0000
1003
0002
0000
0203
,
0002
0000
0303
0000
0100
0001
0010
0000
,
0001
0010
0100
0000
0010
0100
1000
0000
,
1000
0010
0100
0000
1000
0001
0100
0000
,
0001
0101
1000
1100
,
0011
0000
1100
0000
1000
0000
0001
1000
,
0200
0000
0000
0300
1000
0010
1000
0100
;

//--------------- dance-single - Nezemarth ----------------
#NOTES:
     dance-single:
     Nezemarth:
     Challenge:
     13:
     0.632,0.597,0.5,0.24,0.255:
0000
0000
0000
0000
,
0000
0000
0000
0000
,
0000
0000
0000
0000
,
0000
0000
0000
0000
,
0000
0000
0000
0000
,
0011
0000
1000
0010
1000
0000
0001
0010
0001
0000
0100
0000
0010
0000
1000
0100
,
1000
0000
0001
0100
0001
0000
1000
0000
0100
0010
0001
0000
1000
0001
0000
0000
,
0101
0100
1000
0100
0001
0100
0010
2000
,
0000
0100
0100
0100
3100
0000
1001
0000
,
0000
1000
0010
0100
0000
0002
0010
0013
,
2000
0010
3010
0001
0010
0100
1001
0000
,
0101
0000
0001
0000
1000
0000
1000
0000
0100
0000
0100
0000
0001
0000
0100
0010
,
0000
0100
1000
0000
0001
0000
0100
0000
0010
0000
1000
0000
1001
0000
0000
0000
,
0000
0001
0010
0100
0000
2000
0010
3010
,
0002
0010
0013
1000
0010
0100
1001
0000
,
1100
0001
0011
0001
1000
0010
1010
1000
,
1001
1000
1100
1000
1001
0001
0101
0000
,
0000
0000
0100
0000
0010
1000
0002
0000
0000
0000
0010
0000
2003
0000
0100
0000
,
0001
3002
0100
1000
2003
0010
3001
0100
,
1001
0000
0000
0000
1010
0000
1000
0000
1001
0000
0001
0000
1000
0000
0100
0010
,
0000
0100
1000
0000
0001
0000
0100
0000
0110
0000
1000
0000
1001
0000
0000
0000
,
0000
0000
0001
0000
0010
0100
2000
0000
0000
0000
0010
0000
3002
0000
0100
0000
,
1000
2003
0010
0001
3002
0010
1003
0100
,
1001
0000
0011
0001
0100
0100
0010
0010
,
1000
1000
0001
0001
0011
1000
0000
1000
,
1100
0001
0000
0001
0011
1000
0000
1000
,
0120
0000
0031
0000
0000
0010
0000
0000
1010
0000
1000
0010
1000
0000
0001
0100
,
0001
0000
0010
0000
0000
0000
0001
0010
0001
0000
1000
0100
1000
0000
0010
0000
,
0100
0001
0000
0000
1000
0100
0000
0000
0011
0000
0100
0000
0000
0000
0100
0000
,
1010
0000
0001
0000
0100
0010
0000
0000
1010
0000
0100
0000
0000
0000
0100
0000
,
0012
0000
0100
0003
0000
0000
0001
0000
1100
0000
1000
0000
0000
0000
1000
0000
,
1010
0000
0001
0000
0000
0000
1001
0000
0000
0000
1000
0100
0010
0000
0001
1000
,
0010
0000
1000
0001
0010
0000
1001
0000
0000
0000
0001
0100
0010
0000
1000
0001
,
0010
0000
0100
1000
0001
0000
1001
0000
0000
0000
1000
0100
0010
0000
0001
1000
,
0100
0000
1000
0001
0100
0010
1000
0001
1001
0000
0001
1000
0100
0000
0010
0000
,
0001
0000
0100
0010
1000
0000
0000
0000
1000
0000
0001
0010
0100
0000
1000
0000
,
0010
0000
0100
0001
1000
0000
0000
0000
0100
0000
0010
0001
1000
0000
0010
0000
,
0100
0000
0000
0000
0000
0000
0001
0000
0000
0010
0000
0000
0100
0000
0000
0000
0000
0000
2001
0000
0000
0000
0000
0000
0000
0000
0000
0000
0000
0000
0010
0000
0000
0000
0000
0000
3010
0000
0000
0000
0000
0000
1000
0000
0001
0000
1000
0000
,
0001
0000
0000
0000
1001
0000
0000
0000
1000
0000
0001
0000
0100
0010
2000
0000
,
0000
0100
3002
0010
1000
2003
0100
0001
,
3001
0010
1001
0000
1010
0000
0101
0001
,
1000
0000
1000
0000
0100
0000
0010
0100
0000
0001
0100
0000
1000
0000
0001
0000
,
0100
0000
0010
0000
1010
0000
0000
0000
0000
0000
0010
0000
1000
0100
0020
0000
,
0000
0130
2000
0010
0001
3002
0100
1000
,
1003
0100
1001
0000
0011
0000
1100
1000
,
0010
0010
0100
0100
0001
0001
1000
1000
,
1100
0000
0001
0100
0010
0000
1000
0100
0010
0000
0001
0000
0000
0000
1000
0010
,
0100
0000
0001
0010
0100
0000
1000
0000
0001
0100
0001
0000
1000
0001
0000
0000
,
1000
0100
0001
0100
1000
0100
0010
0002
,
0000
0100
1000
1000
0010
0013
0011
1100
;

//--------------- dance-double - KONAMI ----------------
#NOTES:
     dance-double:
     KONAMI:
     Easy:
     4:
     0.21,0.285,0.125,0.125,0:
00000000
00000000
00000000
00000000
,
00000000
00000000
00000000
00000000
,
00000000
00000000
00000000
00000000
,
00000000
00000000
00000000
00000000
,
00000000
00000000
00000000
00000000
,
00010000
00000000
10000000
00000000
,
01000000
00000000
00010000
00010000
,
00001000
00000000
00010000
00000000
,
00001000
00000010
00000100
00001000
,
00000000
00001000
00000000
00000001
,
00000100
00001000
00010000
00010000
,
00001000
00000000
00010000
00000000
,
00100000
00000000
01100000
00000000
,
10000000
00000000
00010000
00010000
,
10000000
00000000
10000000
01000000
,
00010000
00010000
00001000
00001000
,
00010000
00000000
00011000
00000000
,
00000000
00000000
00001000
00000100
,
00000001
00000000
00000001
00001000
,
00000100
00000100
00000010
00000000
,
00000100
00000000
00001001
00000000
,
00000000
00000000
00000100
00001000
,
00010000
00000000
00001000
00010000
,
00100000
01000000
00010000
00010000
,
10000000
10000000
20020000
30030000
,
00000000
00000000
01000000
00000000
,
01000000
01000000
00000000
01000000
,
00000000
00010000
00000000
00001000
,
00011000
00011000
00000000
00010000
,
00000000
00001000
00000000
00000010
,
00000001
00000100
00000000
00000100
,
00000000
00000010
00002002
00003003
,
00000000
00000000
00000220
00000330
,
00000000
00000000
00022000
00033000
,
00000000
00000000
00001000
00010000
,
01000000
10000000
00010000
00010000
,
10000000
00000000
00020000
00030000
,
20000000
30000000
02200000
03300000
,
01100000
00010000
00010000
10000000
,
00000000
10000000
10000000
00010000
,
00000000
10000000
00000000
01000000
,
00010000
00010000
00001000
00000000
,
00001000
00000010
00000001
00000000
,
00001000
00001000
00000100
00000000
,
00000001
00000001
00000100
00000100
,
00001000
00010000
00001000
00000000
,
00011000
00000000
00000000
00000000
,
00000000
00000000
00000000
00000000
,
00100000
10000000
10000000
01000000
,
01000000
00010000
00010000
00001000
;

//--------------- dance-double - KONAMI ----------------
#NOTES:
     dance-double:
     KONAMI:
     Medium:
     8:
     0.314,0.337,0.198,0.052,0:
00000000
00000000
00000000
00000000
,
00000000
00000000
00000000
00000000
,
00000000
00000000
00000000
00000000
,
00000000
00000000
00000000
00000000
,
00000000
00000000
00000000
00000000
,
00100000
00000000
01000000
00000000
,
10000000
10000000
00010000
00010000
,
00100000
01000000
10000000
00100000
,
00010000
00001000
00000110
00000010
,
00000100
00001000
00000001
00000100
,
00000010
00001000
00000100
00000010
,
00000001
00000100
00001000
00010000
,
01000000
10000000
00010000
00000000
01100000
00000000
00010000
00000000
,
00100000
10000000
00010000
01000000
,
00100000
10000000
01000000
00010000
,
00001000
00000000
00000100
00000000
00000001
00001000
00000001
00000000
,
00000010
00000100
00001001
00000100
,
00000010
00000010
00001000
00000001
,
00000010
00000100
00001000
00000000
00000001
00000000
00000100
00000000
,
00001000
00010000
00100000
01000000
,
00010000
10000000
01000000
00000000
00120000
00000000
01000000
00000000
,
01000000
01030000
20100000
01000000
,
01000000
31000000
00010000
00001000
,
00000010
00000001
00000100
00000010
,
00000100
00000100
00002002
00000000
,
00000000
00000000
00000000
00003003
,
00000100
00000100
00000010
00000001
,
00001000
00001000
00000010
00000100
,
00000101
00001100
00010000
00100000
,
10000000
00000000
01000000
00000000
00100000
00010000
01000000
00000000
,
00100000
00100000
10000000
00010000
,
01000000
00000000
00000000
11000000
00000000
00100000
00010000
01000000
,
00000000
01000000
00000000
10010000
00000000
01000000
00010000
00001000
,
00000000
00001000
00000000
00001100
00000000
00000010
00000001
00000100
,
00000010
00000100
00000010
00000000
00001001
00000000
00000100
00000000
,
00000010
00000001
00000100
00000000
00000010
00000000
00001100
00000000
,
00000001
00000010
00001000
00000000
00010000
00000000
00011000
00000000
,
00100000
10000000
01000000
00000000
00100000
00000000
00100000
00000000
,
10010000
01000000
00100000
00010000
,
10000000
00100000
00010000
00001000
,
00000010
00000010
00000001
00000001
,
00001000
00000000
00001000
00000000
00000010
00000100
00000010
00000000
,
00001001
00000100
00000010
00000001
,
00001000
00000010
00000100
00000001
,
00000010
00001000
01000000
01000000
,
00100000
10000000
00010000
10000000
,
01100000
00000000
00010000
10000000
00000000
10000000
00000000
10000000
,
00000000
00100000
00010000
00001000
00000000
00001000
00010000
00001000
,
00020000
00000000
00000000
00000000
00030000
00000000
00000000
00001000
,
00000000
00001000
00000100
00000000
00000101
00000000
00001100
00000000
;

//--------------- dance-double - KONAMI ----------------
#NOTES:
     dance-double:
     KONAMI:
     Hard:
     9:
     0.39,0.442,0.229,0.146,0.01:
00000000
00000000
00000000
00000000
,
00000000
00000000
00000000
00000000
,
00000000
00000000
00000000
00000000
,
00000000
00000000
00000000
00000000
,
00000000
00000000
00000000
00000000
,
00000002
00000103
00002000
00003100
,
00000001
00000010
00000100
00001000
,
00000010
00000100
00000001
00000010
,
00001000
00010000
00001000
01000000
00100000
00000000
10010000
00000000
,
00100000
01000000
00100000
00000000
00010000
00000000
10000000
00000000
,
00100000
00010000
00001000
00000010
,
00000001
00000000
00001000
00000000
00001000
00000010
00000100
00000000
,
00000001
00000010
00000100
00000000
00001001
00000000
00000100
00000000
,
00000010
00001000
00000100
00000000
00000010
00001000
00010000
00000000
,
00100000
10000000
01000000
00100000
,
00010000
01000000
00000000
10100000
00000000
00000000
00110000
00000000
,
11000000
01100000
10010000
01000000
,
00010000
00001000
00010000
00000000
00000100
00000000
00000010
00000000
,
00000001
00001000
00000010
00000000
00000100
00000000
00000001
00000000
,
00000010
00000100
00002000
00003001
,
00000020
00000130
00002002
00003003
,
00000100
00000010
00000100
00000000
00001000
00000000
00000001
00000000
,
00000010
00001000
00010000
00000000
00001000
00000000
01000000
00000000
,
00100000
00000000
10000000
00010000
00000000
00010000
00100000
01000000
,
10000000
00100000
00010000
00001000
00022000
00000000
00000000
00000000
,
00000000
00033000
00001000
00000010
,
00000001
00000100
00000010
00000000
00000000
00000000
00001000
00000000
,
00000100
00000000
00000010
00000000
00000001
00000100
00001000
00000000
,
00001000
00010000
00000000
00000000
00010000
01000000
00000000
00000000
20010000
00000000
00000000
00000000
31000000
00000000
00000000
00000000
,
10020000
01030000
20010000
31000000
,
00010000
00001000
00000010
00000000
00001100
00000000
00000001
00000000
,
00000101
00000000
00001000
00000010
00000000
00000100
00000001
00000010
,
00001000
00010000
00001000
01000000
00000000
00100000
10000000
01000000
,
00100000
00010000
10000000
00100000
00000000
00010000
00001000
00000010
,
00000100
00001000
00000001
00000000
00000210
00000000
00001300
00000000
,
00000210
00000301
00000010
00000100
,
00001000
00000000
00000001
00000000
00000100
00001000
00010000
00000000
,
00010000
01000000
10000000
00100000
00000000
01000000
00100000
10000000
,
01000000
10010000
01000000
00100000
,
00010000
00000000
10000000
00010000
01000000
00000000
00010000
10000000
,
01000000
00100000
00010000
10000000
,
01000000
00010000
00001000
01000000
00100000
00010000
00001000
00000000
,
00001100
00000000
00000010
00000001
00000100
00000010
00001000
00000000
,
00000001
00000001
00001000
00001000
,
00000010
00000100
00000001
00000000
00000010
00000000
00000100
00001000
,
00000000
00000001
00000100
00001000
00010000
01000000
10000000
00000000
,
01100000
00000000
00010000
10000000
00000000
00100000
01000000
00010000
,
00000000
00100000
01000000
10000000
11000000
00000000
01010000
00000000
,
00102000
00000000
00010000
00000000
00010000
00000000
00013000
00001000
,
00000000
00000010
00000001
00001000
00000010
00000100
00000001
00001000
;

//--------------- dance-double - forcednature ----------------
#NOTES:
     dance-double:
     forcednature:
     Challenge:
     11:
     0,0,0,0,0:
00000000
00000000
00000000
00000000
,
00000000
00000000
00000000
00000000
,
00000000
00000000
00000000
00000000
,
00000000
00000000
00000000
00000000
,
00000000
00000000
00000000
00000000
,
00001000
00010000
01000000
00010000
00001000
00010000
00100000
00010000
,
00001000
00000010
00000001
00000100
00001000
00001000
00010000
00000000
,
02100000
10000000
00010000
10000000
,
03000000
01000000
01000000
00100000
00100000
00000000
10010000
00000000
,
10000000
01000000
00010000
00001000
00000000
01000000
00010000
00100000
,
00001000
00010000
00000000
00000010
00010000
00001000
00000010
00000000
,
00000100
00001000
00000001
00000000
00000100
00001000
00010000
01000000
,
00100000
00001000
00010000
00100000
01100000
00000000
10010000
00000000
,
10000000
01000000
00100000
00010000
00000000
01000000
00001000
00010000
,
00000100
00010000
00000000
00001000
00000100
00000001
00000010
00000000
,
00000100
00001000
00000010
00000110
00000000
00000100
00001000
00010000
,
01000000
00000000
00100000
00010000
00100000
00000000
01000000
00000000
10010000
00000000
00000000
00000000
01100000
00000000
00000000
00000000
,
10000000
00000000
01000000
00000000
00100000
00010000
00200000
00000000
00000000
00000000
00301000
00000000
00010000
00000000
00100000
00000000
,
00010000
00001000
00000010
00000100
00001000
00000010
00000200
00000000
,
00001300
00010000
02000000
00000000
03100000
00010000
00100000
00001000
,
00000010
00000100
00001000
00000001
00001001
00000000
00000110
00000000
,
00000001
00000100
00001000
00020000
00000000
00130000
10000000
00010000
,
10000000
01000000
00010000
00001000
01000000
00010000
00100000
00000000
,
01000000
00010000
00001000
00000010
00000000
00000100
00000100
00001000
,
00001000
00000010
00000010
00000100
00000110
00000000
00000001
00000100
,
00001000
00000000
00010000
01000000
10000000
00000000
10000000
00100000
,
00020000
00000000
00032000
00000000
00003010
00000000
00000100
00001000
,
00010000
00000000
01000000
00010000
00001000
00000000
00000100
00001000
,
00010000
01000000
00000000
00000000
10000000
01000000
00000000
00000000
01100000
00000000
00000000
00000000
10000000
00000000
01000000
00000000
,
00010000
00001000
01000000
00010000
00001000
00000010
00010000
00001000
,
00000010
00000001
00000100
00000010
00001000
00000001
00000010
00001000
,
00010000
00000010
00001000
00011000
00000000
01000000
00010000
00100000
,
00001000
00000010
00000100
00001001
00000000
00000100
00001000
00000010
,
00010000
00100000
01000000
10010000
00000000
10000000
01000000
00010000
,
00001000
00000100
00000001
00000010
00000110
00000000
00011000
00000000
,
00000010
00011000
00000100
00011000
,
01000000
00011000
00100000
00011000
,
00000000
00000000
00000000
00000000
00011000
00000000
00000100
00000000
00000000
00000000
00001000
00000000
00001000
00000000
00000100
00000010
,
00000001
00000000
00000101
00000000
00000001
00000010
00000100
00002000
,
00000000
00003010
00010000
00001000
00100000
00001000
00000000
00010000
,
00100000
01000000
00020000
00000000
10030000
01000000
00020000
00000000
,
00031000
00100000
00010000
01000000
00001000
00010000
00000100
00000000
,
00000110
00000000
00001001
00000000
00000001
00000100
00000010
00020000
,
00000000
00031000
00000010
00000100
00001000
00000010
00000100
00001000
,
00010000
01000000
00200000
00000000
00301000
00010000
00100000
01000000
,
00010000
10000000
10000000
01000000
01000000
00010000
00010000
00001000
,
00011000
00000000
00000100
00010000
00001000
00000000
00000100
00001000
,
00010000
00000000
00000100
00010000
00001000
00000100
00000001
00000010
,
00000100
00000000
00010000
00000000
00100000
00000000
10000000
00010000
,
00000000
00001000
00000010
00000100
00000100
00001000
00001000
00100000
;
