#TITLE:Bad Little Kitty;
#SUBTITLE:;
#ARTIST:Big Idea feat. Abe Kaelin;
#TITLETRANSLIT:;
#SUBTITLETRANSLIT:;
#ARTISTTRANSLIT:;
#GENRE:;
#CREDIT:;
#MUSIC:12. Bad Little Kitty.mp3;
#BANNER:;
#BACKGROUND:;
#CDTITLE:;
#SAMPLESTART:2.169;
#SAMPLELENGTH:15.000;
#SELECTABLE:YES;
#OFFSET:-0.064;
#BPMS:0.000=114.000;
#STOPS:;
#BGCHANGES:;
#FGCHANGES:;

//--------------- dance-single - eataninja ----------------
#NOTES:
     dance-single:
     eataninja:
     Beginner:
     2:
     0,0,0,0,0:
0000
0000
0000
0000
,
0000
1000
0000
1000
,
0000
0001
0000
0001
,
0000
0100
0000
0100
,
0000
0010
0000
0010
,
0000
1000
0000
0001
,
0000
2002
0000
3003
,
1000
0000
0100
0000
,
1000
0000
0000
0000
,
0000
0001
0000
0001
,
0000
1000
0000
1000
,
0000
0010
0000
0010
,
0000
0100
0000
0100
,
0000
0001
0000
1000
,
2000
0000
3000
0000
,
1000
0000
0001
0000
,
0100
0000
0000
0000
,
0100
0000
0110
0000
,
0010
0000
0000
0000
,
1000
0000
0001
0000
,
1000
1000
0000
0000
,
0100
0000
0110
0000
,
0010
0000
0000
0000
,
0001
0001
0001
0000
,
2002
0000
3003
0000
,
0000
1000
0000
0010
,
0000
0100
0000
0001
,
0000
1000
0000
0100
,
0000
0010
0000
0100
,
0000
1000
0000
0010
,
0000
0100
0000
0001
,
0000
0010
0000
0100
,
0000
0010
0000
0001
,
0000
1000
0000
0010
,
0000
0100
0000
0100
,
0000
0001
0000
0010
,
0000
0100
0000
1000
,
0000
0001
0000
1000
,
0000
0010
0000
0010
,
0100
0000
0100
0000
,
0110
0000
0110
0000
,
2002
0000
0000
0000
,
3003
0000
0000
0000
;

//--------------- dance-single - eataninja ----------------
#NOTES:
     dance-single:
     eataninja:
     Easy:
     4:
     0,0,0,0,0:
0000
0000
0000
0000
,
1000
0100
1000
0000
,
0001
0100
0010
0000
,
1000
0100
0010
0001
,
1000
1000
1000
0000
,
0010
0100
0010
0000
,
1000
2002
0000
3003
,
0001
0010
1000
0010
,
0000
0100
0100
0100
,
1000
0001
1000
0000
,
0010
0100
0001
0000
,
1000
0100
1000
1000
,
0001
0100
0010
0000
,
0100
0001
1000
0000
,
0001
2002
0000
3003
,
1000
0100
1000
0000
,
0010
0010
0100
0000
,
0001
0100
1000
0000
,
1000
0100
0001
0000
,
1000
0100
0010
0001
,
1000
0100
0010
0000
,
0001
0100
1000
0000
,
1000
0100
0001
0000
,
1000
1000
0001
0001
,
0010
0010
0010
0000
,
0100
0010
0110
0000
,
1000
0000
1000
0000
,
1001
0000
0001
0100
,
0020
0000
0030
0000
,
0100
0010
0110
0000
,
0001
0000
0001
0000
,
1000
0100
0001
0100
,
2000
0000
3000
0000
,
0001
1000
1001
0000
,
0010
0010
0100
0000
,
1001
0000
0001
0010
,
0200
0000
0300
0000
,
1000
0001
1001
0000
,
0001
0001
1000
0000
,
0010
0000
0110
0000
,
0100
1000
0100
0001
,
0020
0000
0000
0000
,
0030
0000
0000
0000
;

//--------------- dance-single - eataninja ----------------
#NOTES:
     dance-single:
     eataninja:
     Medium:
     7:
     0,0,0,0,0:
0000
0000
0000
0000
,
1000
0100
0001
0100
,
0010
0010
0001
0001
,
1000
0010
0001
1000
,
0100
0100
0010
0010
,
1000
0001
0010
0100
,
1000
0202
0000
0303
,
1000
0001
0100
0010
,
1000
0000
0001
0000
0000
0001
0000
0000
0010
0100
0000
0000
,
1000
0001
0100
0100
,
0010
1000
0100
0010
,
0001
1000
0010
0010
,
0001
1000
0100
0001
,
0010
0100
0010
0001
,
0200
0000
1000
0310
,
0100
0010
1000
0001
,
0010
0000
0100
0000
0000
0100
0000
0000
1000
0001
0000
0000
,
1000
1010
0001
0011
,
1000
0000
0100
0000
0000
2100
0000
0000
3001
1000
0000
0000
,
0010
0100
1000
0100
,
0001
0010
0100
1000
,
0001
0101
1000
1100
,
0001
0000
0100
0000
0000
0102
0000
0000
1003
0001
0000
0000
,
1000
0100
0001
1000
,
0010
0010
0100
0100
,
1000
0000
0000
0001
0000
0100
0010
0000
0100
0000
0000
0000
,
0001
1000
0100
0010
,
0011
0000
0000
1000
0000
0000
0001
0000
0100
0001
0000
0000
,
0100
1000
0100
0001
,
0010
0000
0000
0100
0000
0010
0001
0000
1000
0000
0000
0000
,
0010
0100
0010
1000
,
1001
0001
0010
0010
,
1000
0010
0100
1000
,
0001
0000
0000
0100
0000
0010
1000
0000
0001
0000
0000
0000
,
0010
0100
1000
0001
,
1010
0000
0000
0001
0000
0000
0101
0000
0000
1000
0000
0001
,
0010
0100
1000
1000
,
0001
0000
0000
0100
0000
0010
0100
0000
0001
0000
0000
0000
,
1000
1000
0001
0001
,
0010
0000
0010
0000
0010
0000
0010
0000
0000
0000
0000
0000
,
0012
1003
0012
0103
,
0200
0000
0000
0000
,
0300
0000
0000
0000
;

//--------------- dance-single - eataninja ----------------
#NOTES:
     dance-single:
     eataninja:
     Hard:
     10:
     0,0,0,0,0:
0000
0000
0000
0000
,
0001
0000
0000
0100
0000
0000
0010
0000
0000
1000
0000
0001
,
0010
0000
0000
0100
0000
0000
0001
0000
0000
0100
0000
0010
,
0001
0000
0000
1000
0000
0000
0010
0000
0000
0100
0000
0010
,
1000
0000
0001
0010
0000
0010
0100
0000
0000
1000
0000
0001
,
0100
0000
0000
1000
0000
0000
0010
0000
0000
0001
0000
1000
,
0000
2001
0100
3100
,
1000
0000
0000
0010
0000
0000
0100
0000
0000
0001
0000
0010
,
0000
0000
0100
0001
0000
0100
1000
0000
0100
0010
0000
0001
,
1000
0000
0000
0010
0000
0000
0100
0000
0000
0001
0000
1000
,
0001
0000
0000
0010
0000
0000
0100
0000
0000
1000
0000
0010
,
0100
0000
0000
1000
0000
0000
0100
0000
0000
0001
0000
0010
,
0100
0000
0000
0001
0000
0000
0100
0000
1000
0001
0000
0100
,
0010
0000
0000
0100
0000
0000
0001
0000
0000
1000
0000
0100
,
0000
0000
0100
0010
0000
0000
0001
0000
0000
1000
0000
0010
,
1000
0000
0000
0001
0000
0000
0010
0000
0100
0010
0000
0000
,
0001
0000
1000
0010
0000
0100
0010
0000
1000
0001
0000
0010
,
0100
0000
0000
1100
0000
1000
0001
0000
0000
0101
0000
0001
,
1000
0000
1100
0000
0000
0120
0000
0000
0031
0100
0000
0100
,
0010
0000
0000
1000
0000
0001
1000
0000
0000
0100
0000
0010
,
0001
0000
1000
0010
0000
0100
0001
0000
0000
1000
0000
0100
,
0010
0000
0000
0011
0000
0001
1000
0000
0000
1010
0000
1000
,
0001
0000
0011
0000
0000
0210
0000
0000
1300
0001
0000
0001
,
0100
0000
0010
0100
0000
0001
0100
0000
0010
1000
0000
0100
,
0010
0000
0001
0100
0000
0001
0100
0000
0001
0100
0000
0100
,
2000
0000
0000
3100
0000
0001
0010
0000
0100
1000
0000
0000
,
0001
0000
0100
0010
0000
0000
1000
0000
0010
0100
0000
0000
,
1001
0000
0000
0001
0000
0001
0010
0000
0100
1000
0000
0010
,
0100
0000
0002
0000
0000
2003
0000
0000
3200
0000
0000
0310
,
2000
0000
0000
3010
0000
0001
0100
0000
0010
1000
0000
0000
,
0001
0000
0100
0010
0000
0000
1000
0000
0001
0010
0000
0000
,
1001
0000
0000
1000
0000
1000
0010
0000
0010
0000
0000
0100
,
0001
0000
1000
0100
0000
1000
0100
0000
1000
0100
0000
0100
,
0002
0000
0000
0103
0000
0010
0001
0000
1000
0010
0000
0000
,
0100
0000
1000
0100
0000
0000
0001
0000
0100
0001
0000
0000
,
1000
0000
0000
1001
0000
0000
0001
0000
0000
1100
0000
1000
,
0001
0000
0100
0010
0000
0010
1000
0000
0001
0100
0000
0010
,
0002
0000
0000
0013
0000
0100
0001
0000
1000
0100
0000
0000
,
0010
0000
1000
0010
0000
0000
0001
0000
0010
0001
0000
0000
,
1000
0000
1000
0000
0110
0000
1001
0000
0000
0000
0000
0000
,
0001
0000
0000
0010
0000
0000
1000
0000
0000
0100
0000
0001
,
2000
0000
0000
3000
;
