#TITLE:Aria on G-Strings (Bab2MIX);
#SUBTITLE:;
#ARTIST:apostrophe fish;
#TITLETRANSLIT:;
#SUBTITLETRANSLIT:;
#ARTISTTRANSLIT:;
#GENRE:;
#CREDIT:;
#MUSIC:Aria On G-Strings (Bab2MIX).mp3;
#BANNER:;
#BACKGROUND:;
#CDTITLE:;
#SAMPLESTART:64.212;
#SAMPLELENGTH:12.798;
#SELECTABLE:YES;
#OFFSET:1.378;
#BPMS:0.000=150.023
,100.000=75.012
,129.500=150.023
;
#STOPS:99.500=0.400
,131.000=0.200
;
#BGCHANGES:;
#FGCHANGES:;

//--------------- dance-single - aboutblank ----------------
#NOTES:
     dance-single:
     aboutblank:
     Beginner:
     5:
     0,0,0,0,0:
0000
0000
0000
0000
,
0000
0000
0000
0000
,
0000
0000
0000
0000
,
0000
0000
0000
0000
,
0000
0000
0000
0000
,
0000
0000
1000
0000
,
1000
0000
1000
0000
,
0001
0000
0000
0000
,
0100
0000
0000
0000
,
0010
0000
0010
0000
,
0010
0000
0000
0000
,
0100
0000
0100
0000
,
0100
0000
0000
0000
,
0001
0000
0001
0000
,
0001
0000
0001
0000
,
1000
0000
1000
0000
,
1001
0000
0000
0000
,
1000
0000
1000
0000
,
1000
0000
0000
0000
,
0100
0000
0100
0000
,
0100
0000
0000
0000
,
0010
0000
0010
0000
,
0010
0000
0000
0000
,
0001
0000
0001
0000
,
1001
0000
0000
0000
,
0000
0000
0000
0000
,
0000
0000
0000
0000
0000
0000
0000
1001
,
0000
0000
0000
0000
0000
0000
0000
1001
,
0000
0000
0000
0000
0000
0000
0000
0001
,
0000
0001
0000
0001
0000
0000
0000
1000
,
0000
1000
0000
1000
0000
0000
0000
0001
,
0000
1000
0000
0001
0000
1000
0000
0001
,
0000
0000
0000
0000
,
0000
0001
0000
0001
,
0000
1000
1000
1000
,
0000
0001
0000
0001
,
0000
0100
0100
0100
,
0000
0010
0000
0000
,
0000
1000
0000
0000
,
0000
0010
0010
0010
,
0000
0100
0000
0000
,
0000
0010
0000
0100
,
0000
0010
0000
0000
,
0000
0100
0000
0010
,
0000
0100
0000
0000
,
0000
0001
0000
1000
,
0000
0001
0000
0000
,
0000
1000
0000
0001
,
0000
1000
0000
0000
,
0000
0100
0000
0100
,
0000
0010
0010
0010
,
0000
0100
0000
0100
,
0000
0010
0010
0010
,
0000
0001
0000
1000
,
0000
0001
0000
1000
,
0000
0001
0001
1000
,
1000
1001
0000
0000
,
0000
0110
0000
0000
;

//--------------- dance-single - aboutblank ----------------
#NOTES:
     dance-single:
     aboutblank:
     Easy:
     9:
     0,0,0,0,0:
0000
0000
0000
0000
,
0000
0000
0000
0000
,
0000
0000
0000
0000
,
0000
0000
0000
0000
,
0000
0000
0000
0000
,
0000
0000
1000
0100
,
0010
0001
0100
0010
,
1000
1000
1000
1000
,
0002
0000
0013
0000
0100
0100
0100
0000
,
1000
0100
0001
0010
,
1000
0010
0001
0100
,
1000
0100
0010
0001
,
0100
0001
1000
0010
,
0100
0100
0001
0001
,
1000
1000
0010
0010
,
0100
0001
0010
1000
,
0010
0010
0000
1001
,
0001
0100
0010
1000
,
0002
0003
0011
1100
,
0001
1000
0100
0100
,
0010
0001
1000
1000
,
0010
0100
1000
1000
,
0100
0010
1000
1000
,
0100
0010
0001
1000
,
0010
0010
0010
0000
1000
0001
1000
0000
,
0002
0000
0000
1000
0000
0000
0000
0203
,
0000
0000
0000
0010
0000
0000
0000
0320
,
0000
0000
0000
1000
0000
0000
0000
2030
,
0000
0000
0000
0000
0000
0100
0100
0000
0000
0000
0000
0000
0000
0000
3002
0000
,
0000
2003
0000
3200
0000
0320
0000
0032
,
0000
0203
0000
0320
0000
2030
0000
3002
,
0000
1000
0000
2003
0000
0001
0000
0002
,
0000
0000
0000
3003
,
0000
1000
0100
0010
,
0001
0100
1000
0100
,
0010
1000
0100
0010
,
0001
0010
0100
0010
,
0001
1000
1000
0020
,
0130
0001
0001
0200
,
0310
1000
1000
1000
,
1000
0000
0200
0000
0310
0000
0001
0001
,
1000
0000
0020
0000
0130
0000
0001
0100
,
0001
0000
1000
0000
0100
0000
0010
0100
,
0010
0200
1300
0001
,
1000
0100
0001
0010
,
1000
0000
0002
0000
0103
0000
0001
0100
,
0001
0000
2000
0000
3010
0000
1000
0010
,
1000
0002
0013
2000
,
3100
0000
1000
0001
1000
0001
0100
0010
,
0100
0010
1000
0000
0100
0000
0001
0000
,
0010
1000
0010
0001
,
0100
1000
0100
0001
,
0010
1000
0100
0010
,
0001
0011
0100
1010
,
0100
0101
0010
1100
,
0010
0001
1000
0010
,
0100
0000
0001
1000
0001
1000
0001
1000
,
0001
1000
0001
0000
0000
0000
0000
0000
;

//--------------- dance-single - aboutblank ----------------
#NOTES:
     dance-single:
     aboutblank:
     Medium:
     12:
     0,0,0,0,0:
0000
0000
0000
0000
,
0000
0000
0000
0000
,
0000
0000
0000
0000
,
0000
0000
0000
0000
,
0000
0000
0000
0000
,
0000
0000
2000
3100
,
0002
0013
2000
3001
,
1000
0001
1000
0001
1000
0001
1000
0000
,
1100
0000
0000
0000
0011
0000
0000
0000
1000
0000
0000
0010
0000
0100
0000
0000
,
0001
1000
0001
1000
0001
0100
0001
0100
,
0001
0010
0001
0010
0001
1000
0100
0010
,
0001
0010
0001
0010
0100
0010
0100
0010
,
0100
1000
0100
1000
0001
1000
0001
1000
,
0200
0000
0301
0100
0100
1000
0001
1000
,
0002
0000
1003
0010
0010
0100
0001
1000
,
0001
1100
1000
0101
,
1001
0000
0110
0000
0000
1000
0001
0000
,
1000
0010
0100
0001
1000
0100
0010
0001
,
2000
3001
1010
0101
,
2000
0000
3001
0000
1000
0100
0001
0000
,
1200
0301
0021
1030
,
0002
0000
1003
0000
0001
0010
1000
0000
,
0002
0103
2000
3010
,
0101
0000
1100
0000
0001
1000
0100
0000
,
0010
0010
0010
0000
0001
0100
1000
0100
,
2002
0000
3000
0020
0003
0000
0000
0200
,
0030
0000
0000
2000
0300
0000
0000
3002
,
0000
0203
0000
0320
1000
0001
0000
0230
,
0000
0302
0000
0023
0001
1000
0001
0130
,
0110
0010
0110
0001
1001
1000
1001
0100
,
0101
0001
0101
0010
1010
1000
1010
0001
,
0010
0000
1000
0000
0100
0000
0001
1000
0001
1000
0001
0000
0110
0000
2002
0000
,
0000
0000
0000
3003
,
0001
0000
1000
0100
1000
0100
0010
0100
,
0010
0100
0010
0001
0010
0001
1000
0001
,
1000
0001
0100
0001
0100
0001
0100
1000
,
0100
1000
0100
0010
0100
0010
1000
0100
,
1000
0100
0010
0000
0001
1000
0100
0010
,
0010
0000
0001
0100
0010
1000
0100
0010
,
0010
0000
0001
0100
0001
0100
1000
0100
,
1000
0000
0110
0000
1001
0000
1000
0100
,
0001
0100
0020
0000
0001
0031
1000
0100
,
0010
0000
0200
0000
1000
1300
0001
0010
,
1000
0000
0020
0000
0100
0130
1000
0001
,
0100
0000
1000
0100
0001
0000
1000
0100
,
0010
0000
0021
0000
0130
1000
0010
0010
,
0100
0001
0102
0000
1003
1000
0001
0100
,
0010
1000
0002
0000
0103
0000
2000
0000
,
3100
0000
0001
0100
1000
0100
0001
0010
,
1000
0010
0001
1000
0001
1000
0010
0100
,
0010
0100
0001
0010
0001
0010
0100
1000
,
0100
1000
0010
1000
0010
1000
0100
0010
,
0100
0010
0001
0010
0001
0010
0100
1000
,
0100
1000
0001
1000
0100
0010
0001
1000
,
0100
0010
0001
1000
0010
0100
0001
1000
,
0010
0100
0001
0001
1000
1000
0010
0010
,
0100
0000
0100
0000
0001
0000
1000
0000
0001
0000
1000
0000
0100
0010
0100
0010
,
0100
0010
0100
0010
0001
0000
0000
0000
0000
0000
0000
0000
0000
0000
0000
0000
;

//--------------- dance-single - aboutblank ----------------
#NOTES:
     dance-single:
     aboutblank:
     Hard:
     14:
     0,0,0,0,0:
0000
0000
0000
0000
,
0000
0000
0000
0000
,
0000
0000
0000
0000
,
0000
0000
0000
0000
,
0000
0000
0000
0000
,
2000
0000
0000
0000
3100
0000
0000
0000
0110
0000
0000
0000
0001
0000
0000
0100
,
2000
3002
0023
0230
,
0301
0010
0001
0010
0001
0010
0001
0010
0001
0010
0001
0010
0001
0000
0000
0000
,
2001
0000
0000
0000
3100
0000
0000
0000
1000
0100
0000
0010
0000
0001
0000
0000
,
1000
0000
0010
0000
0001
0000
0010
0000
1000
0000
0100
0000
0010
0100
0010
0100
,
0010
0000
0001
0000
1000
0000
0100
0000
0010
0000
0001
0000
0100
0001
0100
0001
,
0100
0000
0001
0000
1000
0000
0100
0000
1000
0000
0001
0000
1000
0010
1000
0010
,
2000
3100
0002
0013
,
2000
0000
3100
0100
0010
0010
0001
0001
,
0200
0000
0310
0010
1000
1000
0001
0001
,
0200
0301
0020
1030
,
0101
0000
1010
0000
0000
0110
1001
0000
,
0001
0000
1000
0000
0100
0000
0010
0000
0001
1000
0001
1000
0001
0100
0001
0100
,
0002
1003
1100
0011
,
2000
0000
0000
0000
3010
0000
0000
0000
1000
0000
0100
0010
0001
0000
0000
0000
,
0200
1300
0020
0031
,
2000
0000
0000
0000
3001
0000
0000
0000
1000
0000
0100
0010
0100
0000
0010
0000
,
0002
0103
2000
3010
,
0001
0000
0000
0001
0000
0000
1000
0000
0010
0100
0000
0010
0100
0000
0000
0000
,
1001
0000
1001
0000
1001
0000
0000
0000
0001
1000
0100
0010
0001
0000
1000
0000
,
0020
0100
0000
0230
0000
0001
0000
0302
,
0000
1000
0000
2003
0000
0010
0000
3020
,
0100
0230
0001
0302
1000
2003
0100
3200
,
0010
0000
0320
0000
0031
0000
0001
0010
0100
0010
0001
0000
1000
0000
0020
0000
,
0130
0001
1000
0100
1000
0100
0010
0001
0010
0001
0100
0001
0100
0001
1000
0100
,
0010
0001
1000
0100
0010
0001
1000
0010
0100
0001
1000
0010
0100
0001
2000
0000
,
3100
0000
0000
0000
0002
0000
0000
0000
0013
0000
0000
0000
1000
0001
1000
0001
1000
0001
1000
0001
1000
0000
0000
0000
0110
0000
0000
0000
2002
0000
0000
0000
,
0000
0000
0000
3003
0000
0000
0000
0000
,
2000
0000
3001
0100
1000
0100
0001
0100
,
1000
0100
0001
0010
1000
0010
0001
0010
,
1000
0010
0001
0100
0010
0001
1000
0100
,
0010
1000
0100
0001
0100
0010
0001
1000
,
0010
0000
0100
0000
0001
0000
1000
0000
0001
0100
0001
0000
1000
0010
1000
0010
,
1000
0000
0000
0000
0001
0000
1000
0000
0100
0010
0100
0000
0010
0001
0010
0001
,
1000
0000
0000
0000
0001
1000
0001
1000
0001
1000
0001
1000
0001
1000
0001
1000
,
0001
0000
0000
0000
0101
0000
0000
0000
1010
0000
0000
0000
0001
0010
0100
1000
,
0100
0010
0001
0000
0200
0000
0000
0000
0310
0000
1000
0000
0100
0010
0100
0010
,
0100
0000
0010
0000
0001
0000
1000
0000
0001
0000
0100
0000
0001
0010
0001
0010
,
0001
0000
2000
0000
0000
0000
0000
0000
3010
0000
0100
0000
0001
0100
0001
0000
,
1000
0100
1000
0000
0010
0000
1000
0000
0001
0100
0010
0000
1000
0000
0001
0000
,
1000
0100
0010
0000
0001
0000
0010
0000
0100
0000
1000
0000
0010
0100
0010
0100
,
0001
0100
0001
0100
0001
0000
1000
0000
0100
0000
0010
0000
0100
1000
0100
1000
,
0001
0010
0001
0010
0100
0000
1000
0000
0001
1000
0001
0000
0100
0000
0001
0000
,
1000
0001
1000
0000
0100
0000
0100
0000
0010
0000
0010
0000
0001
0000
0001
0000
,
1000
0000
1000
0000
0001
0100
0001
0100
0001
0100
0001
0100
0001
0000
1000
0000
,
0100
0000
0010
0000
0001
1000
0001
1000
0001
1000
0001
1000
0001
0000
0100
0000
,
0010
0000
0100
0000
0010
1000
0010
1000
0010
1000
0010
1000
0010
0000
0100
0000
,
0001
1000
0100
0001
0100
1000
0010
0001
,
0010
0000
1000
0000
0100
1000
0100
1000
0200
0000
0000
0000
0310
0001
0010
0001
,
0020
0000
0000
0000
0031
1000
0001
1000
0002
0000
0000
0000
1003
0010
1000
0010
,
2000
0000
0000
0000
3100
0010
0100
0000
0010
0100
0010
0000
0001
1000
0001
0000
,
1000
0001
1000
0000
0010
0000
0010
0000
0010
0000
0010
0000
0010
0100
0010
0100
,
0010
0100
0010
0100
0001
0000
0000
0000
0000
0000
0000
0000
0000
0000
0000
0000
;

//--------------- dance-single - aboutblank ----------------
#NOTES:
     dance-single:
     aboutblank:
     Challenge:
     17:
     0,0,0,0,0:
0000
0000
0000
0000
,
0000
0000
0000
0000
,
0000
0000
0000
0000
,
0000
0000
0000
0000
,
0000
0000
0000
0000
,
0000
0000
0000
0000
0000
0000
0000
0000
2000
0000
0000
0000
3010
0000
0000
0100
,
0002
1003
0200
1300
,
0001
0010
0001
0010
0001
0010
0001
0010
0001
0010
0001
0010
0001
0000
0000
0000
,
1002
0000
0000
0000
0103
0000
0000
0000
1000
0001
0000
1100
0000
0101
0000
0000
,
1000
0000
0010
0000
0100
0000
0001
0000
1000
0100
1000
0100
0010
0100
0010
0100
,
0010
0000
0001
0000
0100
0000
0001
0000
1000
0001
1000
0001
0100
0001
0100
0001
,
1000
0000
0100
0000
0010
0000
0001
0000
1000
0100
1000
0100
0001
0100
0001
0100
,
0010
0000
0001
0000
1000
0001
1000
0000
0010
0000
0100
0000
0001
1000
0001
0000
,
1100
0000
0001
0000
1000
0100
0010
0100
1000
0000
0001
0000
0100
0001
0100
0000
,
0101
0000
1000
0000
0001
0100
0010
0100
0001
0000
1000
0000
0010
1000
0010
0000
,
0101
1000
0110
0001
1100
0001
0110
1000
,
0011
0000
1000
0001
0100
0000
0110
0000
0000
0000
1010
0000
0101
0000
0000
0000
,
1000
0100
0010
0001
0100
0010
0100
0001
1000
0010
1000
0001
1000
0100
0010
0100
,
2000
3001
1100
0011
,
0001
1000
0001
0000
0100
0000
0010
0000
1000
0000
1000
0100
1000
0000
0001
0000
,
0101
0000
0000
0010
1000
0000
0001
0000
0010
0100
0010
0000
0100
1000
0100
0010
,
0100
0000
0000
0010
0001
0000
1000
0000
0001
0100
0010
0000
2000
0000
0010
0000
,
3010
0000
1000
0001
0000
1000
0010
0000
1000
0001
0000
1000
0100
0000
0010
0000
,
0001
0000
1000
0001
0000
0100
0001
0000
1000
0100
0000
0010
0001
0000
1000
0000
,
0110
0000
0110
0000
0110
0000
0000
0000
0001
1000
0100
0010
0001
0000
1000
0000
,
1020
0230
0302
2003
3200
0320
0032
2003
,
3002
0000
0203
0000
0320
0000
0230
0000
0302
0000
2003
0000
3020
0000
0230
0001
,
0000
0001
0320
1000
0000
1030
0200
1000
0000
1300
0020
0001
0000
0031
2000
0100
,
0000
3100
0002
0010
0000
0013
1000
0100
0010
0001
1000
0000
0110
0100
0002
0000
,
1003
0010
1000
0000
0001
0000
1000
0000
0100
0010
0100
0000
0010
0000
0001
0000
1000
0001
1000
0000
0001
0000
0100
0000
0001
0100
0001
0000
1000
0000
0010
0000
,
1000
0010
1000
0000
0001
0000
1000
0000
0100
1000
0100
0000
0010
0000
0001
0000
1000
0001
1000
0000
0100
0000
0010
0000
0001
0100
0001
0000
2010
0000
0000
0000
,
3010
0000
0000
0000
0102
0000
0000
0000
0103
0000
0000
0000
0001
0010
0100
1000
0001
0010
0100
1000
0002
0000
0000
0000
0103
0000
0000
0000
0220
0000
0000
0000
,
0000
0000
0000
0330
,
2000
0000
3000
0000
0002
0000
0103
0010
0100
0000
0001
1000
0001
0000
1000
0100
,
1000
0000
0010
1000
0001
1000
0100
1000
0001
1000
0100
0010
0001
1000
0010
0100
,
0001
1000
0020
0000
0130
0000
0100
0001
0100
0000
0010
1000
0010
0000
1000
0100
,
1000
0000
0001
0010
0001
1000
0100
0010
0001
0100
0001
1000
0010
1000
0001
1000
,
0100
0010
0100
0010
0002
0000
1003
0000
0001
1000
0001
0000
1000
0000
1010
0000
,
0101
0000
0000
0000
1000
0000
0001
0000
0010
0100
0010
0000
0001
0000
0011
0000
,
1100
0000
0000
0000
1000
0001
1000
0001
1000
0001
1000
0001
1000
0001
1000
0001
,
1000
0000
0000
0000
1002
0000
0000
0000
1003
0000
0000
0000
1000
0001
0000
1100
,
0000
0011
0000
0000
2000
0000
3100
0000
0001
0000
0100
0000
0010
0001
0010
1000
,
0010
0000
0001
0000
1000
0000
0010
0000
0001
0000
1000
0000
0100
0001
1000
0100
,
0010
0000
0001
0000
1000
0000
0100
0000
0001
0100
1000
0000
0010
0000
0100
0000
,
1000
0100
0001
0000
0010
0000
0100
0000
0001
0100
0010
0000
1000
0000
0010
0000
,
0100
1000
0010
0000
0100
0000
0001
0000
1000
0100
0001
0100
1000
0000
0010
0000
,
0100
0001
0100
0000
1010
0000
0001
0000
0100
1000
0100
0001
0010
0000
0100
0000
,
0001
0100
1000
0000
0110
0000
0001
1000
0001
0000
0100
0010
0100
0000
0010
1000
,
0010
0000
0100
0001
1000
0000
1000
0000
0100
0000
0100
0000
0010
0000
0010
0000
,
0001
0000
0001
0000
1000
0100
0010
0001
1000
0100
0010
0001
1000
0100
0010
0100
,
0010
0001
0100
0010
1000
0010
0100
0001
1000
0010
0100
0001
1000
0010
0100
0010
,
0100
0001
0010
0100
1000
0001
0100
0010
1000
0001
0100
0010
1000
0001
0100
0010
,
0100
0001
1000
0010
1000
0001
0010
0100
1000
0001
0010
0100
1000
0001
0010
0100
,
0010
0001
1000
0010
1000
0100
0010
0000
0001
0000
1000
0000
0001
0100
0010
0000
,
1000
0000
0001
0000
1000
0010
0100
0000
0001
0000
1000
0000
0001
0010
0100
0000
,
1000
0000
0001
0000
1000
0100
1000
0000
0001
0010
0001
0000
1000
0010
1000
0000
,
0001
0100
0001
0000
1001
0000
1001
0000
1001
0000
1001
0000
1000
0100
0010
1000
,
0001
0100
0010
0001
1000
0000
0000
0000
0000
0000
0000
0000
0000
0000
0000
0000
;
