#TITLE:Anna Sun;
#SUBTITLE:;
#ARTIST:Walk The Moon;
#TITLETRANSLIT:;
#SUBTITLETRANSLIT:;
#ARTISTTRANSLIT:;
#GENRE:;
#CREDIT:;
#MUSIC:Anna Sun.mp3;
#BANNER:;
#BACKGROUND:;
#CDTITLE:;
#SAMPLESTART:41.696;
#SAMPLELENGTH:17.143;
#SELECTABLE:YES;
#OFFSET:-0.553;
#BPMS:0.000=140.000;
#STOPS:;
#BGCHANGES:-1.106=Anna Sun.avi=1.000=1=0=0,
99999=-nosongbg-=1.000=0=0=0 // don't automatically add -songbackground-
;
#FGCHANGES:;

//--------------- dance-single - eataninja ----------------
#NOTES:
     dance-single:
     eataninja:
     Beginner:
     3:
     0,0,0,0,0:
0000
0000
0000
0000
,
0000
0000
0000
0000
,
0000
0000
0000
0000
,
0000
0000
0000
0000
,
0000
0000
0000
0000
,
0000
0000
0000
0000
,
0000
0000
0000
0000
,
0000
0000
0000
0000
,
1000
0000
1000
0000
,
0001
0000
0000
0000
,
0001
0000
0001
0000
,
0010
0000
0000
0000
,
0010
0000
0100
0000
,
1000
0000
0000
0000
,
1000
0000
0001
0000
,
1000
0000
1000
0000
,
0010
0000
0100
0000
,
0001
0000
0010
0000
,
0200
0000
0000
0000
,
0300
0000
0000
0000
,
0100
0000
0010
0000
,
0001
0000
0100
0000
,
0020
0000
0000
0030
,
0010
0000
0000
0000
,
1000
0000
1001
0000
,
0001
0000
0010
0000
,
0001
0000
1001
0000
,
1000
0000
0010
0000
,
1000
0000
0100
0000
,
0010
0010
0010
0000
,
0001
0000
1000
0000
,
1001
0000
0110
0000
,
0000
0000
0000
0100
,
0100
0000
0100
0000
,
0001
0000
1000
0000
,
0200
0000
0300
0000
,
1000
0000
0010
0000
,
0002
0000
0003
0000
,
0010
0000
0100
0000
,
0020
0000
0030
0000
,
1000
0000
0100
0000
,
0002
0000
0003
0000
,
0100
0000
0100
0000
,
0010
0000
0010
0000
,
0001
0000
1000
0000
,
0001
0000
0001
0000
,
0100
0000
0010
0000
,
1000
0000
0001
0000
,
0010
0010
0010
0000
,
0100
0100
0100
0000
,
1001
0000
0001
0000
,
0100
0000
0010
0000
,
2000
0000
0000
0000
,
3000
0000
0000
0000
,
0001
0000
1000
0000
,
0100
0000
0010
0000
,
0002
0000
0000
0003
,
0001
0000
0000
0000
,
1000
0000
1001
0000
,
0100
0000
0001
0000
,
0001
0000
1001
0000
,
0100
0000
1000
0000
,
1000
0000
0001
0000
,
0100
0100
0100
0000
,
0001
0000
0010
0000
,
0100
0000
1000
0000
,
0001
0000
1001
0000
,
0010
0000
1000
0000
,
1000
0000
1001
0000
,
0010
0000
0001
0000
,
0001
0000
1000
0000
,
0100
0100
0100
0000
,
1000
0000
0010
0000
,
0100
0000
0001
0000
,
1000
0000
1000
0000
,
0001
0001
0001
0000
,
0010
0000
0100
0000
,
2000
0000
3000
0000
,
0010
0000
0100
0000
,
0001
0000
1001
0000
,
0100
0000
0010
0000
,
0002
0000
0003
0000
,
0100
0000
0010
0000
,
2000
0000
3000
0000
,
1001
0000
0000
0000
;

//--------------- dance-single - eataninja ----------------
#NOTES:
     dance-single:
     eataninja:
     Easy:
     5:
     0,0,0,0,0:
0000
0000
0000
0000
,
0000
0000
0000
0000
,
0000
0000
0000
0000
,
0000
0000
0000
0000
,
0000
0000
0000
0000
,
0000
0000
0000
0000
,
0000
0000
0000
0000
,
0000
0000
0000
0000
,
1000
0100
1000
0000
,
0010
0010
1000
0000
,
0001
0100
0001
0000
,
0010
0010
0100
0000
,
1000
0001
0100
0000
,
0001
1000
1000
0000
,
0100
0010
0001
0001
,
1000
0010
0100
0100
,
0001
0000
1001
0000
,
0002
0000
0013
0000
,
0200
0000
0000
0000
,
0300
0000
0000
0000
,
1000
0000
1001
0000
,
2000
0000
3010
0000
,
0200
0000
0000
0000
,
0302
1000
1000
1003
,
0010
0100
0001
0000
,
0001
0010
1000
0010
,
0100
0010
0001
0000
,
1000
0010
0001
0010
,
0100
0100
0001
0001
,
1000
1000
0100
0001
,
0100
0010
0001
0100
,
0010
1000
1000
0000
,
0002
0000
2003
0000
,
3100
0001
0100
1000
,
0001
0100
0010
1000
,
0200
0000
0300
0000
,
0100
1000
0001
0100
,
2000
0000
3200
0000
,
0301
0010
0100
1000
,
0020
0000
0030
0000
,
0010
1000
0001
0010
,
2000
0000
3020
0000
,
0031
1000
0001
0001
,
0010
0010
0100
1000
,
0001
1000
0010
0100
,
0100
0001
1000
0100
,
0010
1000
0010
0001
,
0010
1000
0010
0100
,
1000
0001
1000
1000
,
0010
0100
0001
0010
,
0100
0000
0110
0000
,
2000
0000
3001
0000
,
0200
0000
0000
0000
,
0010
0010
0310
0000
,
0010
0000
0110
0000
,
0002
0000
1003
0000
,
0200
0000
0000
0000
,
0320
0000
0031
0000
,
1000
0010
1000
1000
,
0001
0010
0100
0000
,
0100
0010
0001
0001
,
1000
0001
0100
0000
,
0010
0100
0100
0001
,
0010
1000
0010
0001
,
1000
0010
0100
0001
,
1000
0100
0100
0000
,
0010
0110
0001
0001
,
1000
0010
0001
0010
,
0100
0110
1000
1000
,
0001
0010
1000
0010
,
0100
1000
1000
0001
,
0100
0100
1000
0100
,
0001
0020
0230
2300
,
3010
0100
0100
0000
,
0002
0000
2003
0000
,
0100
0100
3001
0000
,
1000
0010
0001
0010
,
0200
0000
0301
0000
,
0001
0010
0100
1000
,
0010
0100
0010
0010
,
1000
0100
0001
0100
,
0020
0000
0031
0000
,
1000
0010
0001
0010
,
0200
0302
0023
0230
,
1300
0000
0000
0000
;

//--------------- dance-single - eataninja ----------------
#NOTES:
     dance-single:
     eataninja:
     Medium:
     7:
     0,0,0,0,0:
0000
0000
0000
0000
,
0000
0000
0000
0000
,
0000
0000
0000
0000
,
0000
0000
0000
0000
,
0000
0000
0000
0000
,
0000
0000
0000
0000
,
0000
0000
0000
0000
,
0000
0000
0000
0000
,
1000
1000
1000
1000
,
0010
0010
0010
0010
,
0100
0100
0100
0100
,
0001
0001
0001
0001
,
1000
0000
0001
0000
0010
0100
0010
0000
,
0001
1000
0010
0010
,
1000
0000
0001
0000
0100
0010
0100
0000
,
0001
0010
0100
1000
,
0002
0000
0100
0000
0000
0100
0003
0000
,
2000
0000
0100
0000
0000
0100
3000
0000
,
0001
1000
0001
0010
,
0100
1000
0010
0100
,
0002
0000
0010
0000
0000
0010
0003
0000
,
2000
0000
0010
0000
0000
0010
3000
0000
,
0001
0010
0001
0010
,
0100
0000
1000
0000
0001
0100
0100
0000
,
0010
1010
1001
0010
,
0100
0000
1000
0000
0001
0100
0001
0100
,
0000
0010
0110
0001
,
1000
0000
0001
0000
0010
0100
0010
0100
,
0000
0000
1000
0001
1000
0000
0010
0100
,
0001
0000
1001
0000
0010
0100
1000
0000
,
1000
0020
0032
0023
,
0130
0001
1000
0000
0100
0000
0010
0000
,
0000
1000
0010
0100
,
0110
0000
1001
0000
0010
0100
0001
0000
,
1000
0010
0000
0100
0000
0100
0000
0001
,
0000
0010
0000
0100
0000
0100
0000
1000
,
0001
1000
0000
0010
0000
0100
0000
2000
,
0000
3200
0000
0301
1000
0001
0000
0010
,
0100
1000
0000
0001
0000
0001
0000
0100
,
0000
0010
0000
1000
0000
1000
0000
0001
,
0010
0001
0000
1000
0000
0010
0000
0002
,
0000
0023
0000
2030
0000
0001
3001
0000
,
1000
0010
0100
0100
,
1001
1001
0010
0100
,
1000
0001
1000
0000
0010
0100
0001
0000
,
1000
0100
0001
0100
,
0010
0000
0001
0000
1000
0010
0100
0000
,
0100
0000
0001
0000
0010
0000
0100
1000
,
0001
0000
1000
0000
0010
0001
0010
0000
,
0110
0000
0100
0000
0001
1000
0100
0000
,
0010
0001
0101
0000
,
0020
2030
3001
0000
,
0020
0230
1000
1300
,
0020
0230
0001
0301
,
1000
0001
0110
0000
,
0200
0302
1003
0000
,
2000
0010
3002
0010
,
2003
3200
0320
0032
,
1003
0000
0010
0100
0001
0000
1001
0000
,
1000
0000
0100
0000
1000
0001
1000
0010
,
0000
0100
0110
1001
,
0010
0000
0100
0000
1000
0001
0010
0001
,
0000
0000
0100
0010
1000
0000
0100
0100
,
0010
0000
0010
0000
0001
0100
1000
0000
,
0100
0020
2030
3002
,
0013
0100
1000
0000
1100
0000
0101
0000
,
1000
0010
1000
0000
0010
0100
0001
0000
,
1001
0000
1100
0000
0010
0001
0010
0001
,
0000
0000
1000
0010
0100
0000
0001
0000
,
1001
0000
1010
0000
0001
0100
0001
0100
,
0000
0010
1000
0100
0010
0000
0001
1000
,
0001
0000
0001
0000
1000
0010
0001
0000
,
0010
0200
0302
2003
,
3100
0010
0001
0000
0011
0000
1100
0000
,
0000
1000
1000
0001
,
0100
0000
0010
0000
0001
0010
1000
0000
,
0001
0100
0000
0010
0000
0010
0000
1000
,
0001
1000
0000
0100
0000
0100
0000
0010
,
0001
1000
0000
0010
0000
0010
0000
0100
,
0010
0000
1000
0000
0001
1000
0001
0000
,
1000
0100
0000
0010
0000
0010
0000
0001
,
1000
0001
0000
0100
0000
0100
0000
0001
,
1000
0100
0000
0010
0000
0100
0000
0002
,
0000
0203
0000
1300
0002
0000
0103
0000
,
1001
0000
0000
0000
;

//--------------- dance-single - eataninja ----------------
#NOTES:
     dance-single:
     eataninja:
     Hard:
     10:
     0,0,0,0,0:
0000
0000
0000
0000
,
0000
0000
0000
0000
,
0000
0000
0000
0000
,
0000
0000
0000
0000
,
0000
0000
0000
0000
,
0000
0000
0000
0000
,
0000
0000
0000
0000
,
0000
0000
0000
0000
,
1000
0000
1000
0000
0100
0010
0001
0010
,
0100
1000
0001
0001
,
0100
0000
0010
0000
2010
0000
3001
0010
,
0100
0000
1000
0000
0001
0100
1000
0100
,
0001
0000
1000
1000
0001
0010
0100
1000
,
0001
0000
0001
0100
1000
0000
0100
0010
,
1000
0000
0200
0000
0310
0001
0100
0000
,
0101
0000
0020
0000
0130
0010
1000
0000
,
1001
0000
0000
0000
1100
0000
0100
0010
,
2000
0000
3010
0001
2000
0000
3010
0100
,
0002
0000
1000
0000
0010
0010
0013
0000
,
2000
0000
0001
0000
0010
0010
3010
0000
,
0100
0000
0000
0000
0101
0000
0001
0010
,
2000
0000
3010
0100
2000
0000
3010
0100
,
0002
1000
0010
1003
,
0100
0010
0001
1000
0010
0100
0100
0100
,
0001
1000
0001
0010
0100
0000
1100
0000
,
1001
0000
0101
0000
1000
0001
1000
1000
,
0000
0010
0100
0001
0010
0100
1000
0000
,
1001
0000
0011
0000
0010
0100
0001
0000
,
0001
0100
1000
1000
0001
1000
0001
0100
,
0110
0000
1001
0000
1000
0100
0010
0001
,
0100
0020
0032
2003
,
3100
0010
1000
0000
0010
0000
1001
0000
,
0000
1000
1000
0011
,
1001
0000
0110
0000
0100
0001
1000
0001
,
0010
0100
1000
0002
0000
2003
0000
3020
,
0000
0130
0001
1000
0000
1000
0001
0001
,
0010
0100
1000
0002
0000
0203
0000
2300
,
0000
3200
0000
0310
1000
0001
1000
1000
,
0100
0010
0001
1000
0010
1000
0001
0000
,
0100
0010
0100
0001
1000
0100
0010
0000
,
0001
0010
0100
0010
0001
0100
0010
2000
,
0000
3100
0001
0100
2000
0001
3001
0100
,
0010
0000
1000
0000
1000
0100
0001
0100
,
0010
0000
0110
0000
0010
0001
1000
0010
,
0100
0001
1000
0000
0100
0010
0011
0000
,
1001
0000
1000
0000
0010
0000
0100
0010
,
0001
0010
1000
1000
0001
0010
0100
1000
,
0001
0000
1000
0010
0001
0000
0001
0010
,
0200
0000
0301
0000
0101
0100
0010
0000
,
1000
0000
0100
0010
0001
1000
0001
0000
,
0100
0000
0010
0000
0110
0010
1000
0000
,
0001
0010
0011
0000
1000
0010
1010
0000
,
0001
0100
0001
0100
0010
1000
0010
1000
,
0100
0010
0001
1000
0001
0100
0010
0000
,
0100
0000
0001
0000
1001
1000
0100
0000
,
0010
0001
0011
0000
1000
0010
1010
0000
,
0001
1000
0001
1000
0100
0010
0100
0010
,
0001
1000
0010
0100
0001
1000
1000
1000
,
0100
0000
0010
0001
1000
0000
1010
0000
,
0110
0000
0101
0000
1000
0001
0010
0100
,
0000
0100
0001
0100
0010
0001
1000
0000
,
1001
0000
0110
0000
0010
0001
0010
1000
,
0000
0001
1000
1000
0001
0010
0100
1000
,
1100
0000
0101
0000
0001
0100
0010
1000
,
0001
0020
2030
3020
,
0130
1000
0001
0000
0100
0000
0020
0000
,
0130
0001
0100
0001
1000
0100
0010
0000
,
0011
0000
1001
0000
1000
0010
0100
0001
,
1000
1000
0100
0010
1000
0010
0001
0000
,
0011
0000
1001
0000
1000
0010
0001
0010
,
0100
0001
1000
1000
0001
0010
0100
1000
,
0010
0000
0010
0000
0100
1000
0100
0001
,
1000
0200
0320
0032
,
1003
0010
1000
0000
0110
0000
1001
0000
,
0000
1000
0010
1010
,
0101
0000
1001
0000
1000
0100
0010
0001
,
1000
0010
0001
0010
0100
0001
0010
0200
,
0000
2300
0000
3001
0001
1000
0010
0000
,
1000
0001
1000
0100
0010
0001
1000
0010
,
0002
0000
0023
0000
1030
0001
1000
0000
,
0100
0010
0100
1000
0001
1000
0010
0200
,
0000
0302
0000
1003
0001
1000
1000
0000
,
0100
0010
0001
1000
0001
0100
0010
0002
,
0000
0023
0000
1030
0001
1000
0100
0010
,
0001
0000
0000
0000
;
