#TITLE:All Through The Night;
#SUBTITLE:;
#ARTIST:Big Idea feat. Abe Kaelin;
#TITLETRANSLIT:;
#SUBTITLETRANSLIT:;
#ARTISTTRANSLIT:;
#GENRE:;
#CREDIT:;
#MUSIC:10. All Through The Night.mp3;
#BANNER:;
#BACKGROUND:;
#CDTITLE:;
#SAMPLESTART:20.348;
#SAMPLELENGTH:15.000;
#SELECTABLE:YES;
#OFFSET:1.263;
#BPMS:0.000=180.000;
#STOPS:258.000=0.667;
#BGCHANGES:;
#FGCHANGES:;

//--------------- dance-single - forcednature ----------------
#NOTES:
     dance-single:
     forcednature:
     Beginner:
     3:
     0,0,0,0,0:
0000
0000
0000
0000
,
0000
0000
0000
0000
,
0000
0000
0000
0000
,
0000
0000
0000
0000
,
0000
0000
0000
0000
,
1000
0000
0000
0000
,
0000
0000
0000
0000
,
0010
0000
0000
0000
,
0000
0000
0000
0000
,
0100
0000
0000
0000
,
0000
0000
0000
0000
,
0001
0000
0000
0000
,
0000
0000
0000
0000
,
0010
0000
0000
0000
,
0000
0000
0000
0000
,
0100
0000
0000
0000
,
0100
0000
0000
0000
,
0000
1001
0000
0000
,
0000
0000
0000
0000
,
0000
0110
0000
0000
,
0000
0000
0000
0000
,
0000
1001
0000
0000
,
0000
0000
0000
0000
,
0000
0110
0000
0000
,
0000
0000
0000
0000
,
0001
0000
0001
0000
,
1000
0000
1000
0000
,
0010
0000
0010
0000
,
0010
0000
0000
0000
,
1000
0000
0000
0000
,
0001
0000
0000
0000
,
0010
0000
0000
0000
,
0000
0000
0000
0000
,
0001
0000
0000
0000
,
1000
0000
0000
0000
,
0010
0000
0000
0000
,
0000
0000
0000
0000
,
0100
0000
0000
0000
,
0001
0000
0000
0000
,
1000
0000
0000
0000
,
0100
0000
0000
0000
,
0000
0110
0000
0000
,
0000
0000
0000
0000
,
0000
1001
0000
0000
,
0000
0000
0000
0000
,
0000
0110
0000
0000
,
0000
0000
0000
0000
,
0000
1001
0000
0000
,
0000
0000
0000
0000
,
0001
0000
1000
0000
,
0010
0010
0010
0000
,
0100
0000
0001
0000
,
1000
0000
0000
0000
,
0100
0000
0000
0000
,
0000
0000
0000
0000
,
0010
0000
0000
0000
,
0000
0000
0000
0000
,
0001
0000
0000
0000
,
0000
0000
0000
0000
,
1000
0000
0000
0000
,
0000
0000
0000
0000
,
0010
0000
0010
0000
,
0010
0000
0000
0000
,
0100
0000
0100
0000
,
0100
0000
0000
1001
,
0000
0000
0000
0000
,
0000
0000
0000
0110
,
0000
0000
0000
0000
,
0000
0000
0000
1001
,
0000
0000
0000
0000
,
0000
0000
0000
0110
,
0000
0000
0000
0000
,
0000
0000
0001
0000
,
0001
0000
1000
1000
,
1000
0000
0010
0000
,
0100
0000
0001
0000
,
0000
0000
0000
0000
0000
1001
0000
0000
0000
0000
0000
0000
0000
0000
0000
0000
0000
0000
0000
0000
0000
0000
0000
0000
;

//--------------- dance-single - forcednature ----------------
#NOTES:
     dance-single:
     forcednature:
     Easy:
     8:
     0,0,0,0,0:
0000
0000
0000
0000
,
0000
0000
0000
0000
,
0000
0000
0000
0000
,
0000
0000
0000
0000
,
0000
0000
0000
0000
,
1000
1000
0100
0010
,
0001
0001
0100
0000
,
0010
1000
0001
0010
,
0100
0000
0000
0010
0000
0000
0000
0000
0010
0000
0000
0000
,
0001
1000
0010
0100
,
0001
1000
0100
0010
,
0001
0100
0010
1000
,
0000
0000
0000
0100
0000
0000
0000
0000
0100
0000
0000
0000
,
0010
0001
0100
0001
,
0010
0100
1000
0000
,
0010
0100
0001
1000
,
0001
0000
0000
0010
0000
0000
0100
0000
0000
1000
0000
0001
,
0000
0110
0001
1000
,
0010
0000
0000
0100
0000
0000
0001
0000
0000
1000
0000
0100
,
0000
0110
0010
0001
,
1000
0000
0000
0010
0000
0000
0100
0000
0000
0001
0000
1000
,
0000
1001
0001
0010
,
0100
0000
0000
1000
0000
0000
0001
0000
0000
0100
0000
0010
,
0000
1001
1000
0100
,
1000
0010
0100
0000
,
0011
0000
1010
0000
,
0001
1000
0010
0100
,
1001
1000
1000
0001
,
0001
0000
0000
0000
0000
0100
0000
0000
0000
0000
0000
0000
,
0010
1000
0010
0000
,
0100
0001
0100
0000
,
0001
0010
0100
1000
,
0010
0000
0100
0000
0000
0000
0100
0000
0000
0001
0000
0000
,
1000
0100
1000
0001
,
0100
0001
0010
0000
,
0100
1000
0001
0100
,
0000
0000
0010
0000
0000
0000
0010
0000
0000
0100
0000
0000
,
0001
1000
0001
0010
,
0100
1000
0010
0000
,
0100
0001
1000
0100
,
0010
0000
0000
0001
0000
0000
0100
0000
0000
0010
0000
1000
,
0000
1001
1000
0100
,
0010
0000
0000
0001
0000
0000
0100
0000
0000
0010
0000
1000
,
0000
0110
0001
0010
,
0100
0000
0000
1000
0000
0000
0001
0000
0000
0100
0000
0010
,
0000
1001
0001
0010
,
0001
0000
0000
0100
0000
0000
0010
0000
0000
1000
0000
0100
,
0000
0110
0010
0001
,
1000
0010
0100
0000
,
0101
0000
1100
0000
,
0001
0100
0010
1000
,
0100
0100
0100
0100
,
0010
0000
0001
0000
0000
0000
2002
0000
0000
0000
0000
0000
,
3003
0110
0000
0001
,
0000
0001
0000
0001
,
0000
1000
0000
1000
,
0000
1000
0000
1000
,
0000
0100
0000
0100
,
0000
0100
0000
0100
,
0000
0010
0000
0010
,
0000
0010
0000
0010
,
0001
0000
0001
0000
0000
0002
0000
0000
0000
0003
0000
0000
,
1000
0000
0000
1000
0000
2000
0000
0000
0000
3000
0000
0000
,
0010
0010
0100
0100
,
0001
0000
0000
0000
0000
0000
0000
0000
0000
0000
0000
0000
0000
0000
0000
0000
0000
0000
0000
0000
0000
0000
0000
0000
0000
0000
0000
0000
0000
0000
0000
0000
1000
0000
0000
0000
0000
0000
0000
0000
0000
0000
0000
0000
0000
0000
0000
0000
0000
0000
0000
0000
0000
0000
0000
0000
0000
0000
0000
0000
0000
0000
0000
0000
0000
0000
0000
0000
0000
0000
0000
0000
0000
0000
0000
0000
0000
0000
0000
0000
2002
0000
0000
0000
0000
0000
0000
0000
0000
0000
0000
0000
0000
0000
0000
0000
0000
0000
0000
3003
0000
0000
0000
0000
0000
0000
0000
0000
0000
0000
0000
0000
0000
0000
0000
0000
0000
0000
0000
0000
0000
0000
0000
0000
0000
0000
0000
0000
0000
0000
0000
0000
0000
0000
0000
0000
0000
0000
0000
0000
0000
0000
0000
0000
0110
0000
0000
0000
0000
0000
0000
0000
0000
0000
0000
0000
0000
0000
0000
0000
0000
0000
0000
0000
0000
0000
0000
0000
0000
0000
0000
0000
0000
0000
0000
0000
0000
0000
0000
0000
0000
0000
0000
0000
0000
0000
0000
0000
0000
0000
0000
0000
,
0000
0001
1000
0010
,
0100
0000
0000
0001
0000
1000
0000
0000
0000
0110
0000
0000
,
0000
0010
0001
1000
,
0010
0000
0000
0100
0000
0001
0000
0000
0000
1001
0000
0000
,
0000
1000
0100
1000
,
0010
0000
0000
0100
0000
0001
0000
0000
0000
1001
0000
0000
,
0000
0001
0010
0100
,
1000
0000
0101
1000
,
1100
0001
0110
0100
,
0110
0010
1001
1000
,
0001
0000
0000
0100
0000
0000
0010
0000
0000
0010
0000
0100
,
0000
0000
0000
0000
0000
2002
0000
0000
0000
0000
0000
0000
0000
0000
0000
0000
0000
0000
0000
0000
0000
0000
0000
0000
,
3003
0000
0000
0000
;

//--------------- dance-single - forcednature ----------------
#NOTES:
     dance-single:
     forcednature:
     Medium:
     12:
     0,0,0,0,0:
0000
0000
0000
0000
,
0000
0000
0000
0000
,
0000
0000
0000
0000
,
0000
0000
0000
0000
,
0000
0000
0000
0000
,
1000
0000
1000
0100
0000
1000
0100
0000
0000
0010
0000
0000
,
0001
0000
0001
0100
0000
0001
0100
0000
0000
0010
0000
0000
,
1000
0000
0001
1000
0000
0001
0010
0000
0010
0100
0000
1200
,
0000
0000
0000
0001
0000
0000
0000
0000
0001
0300
0000
0000
,
0010
0000
0001
0100
0000
0001
0100
0000
0000
0110
0000
0000
,
0010
0000
1000
0100
0000
1000
0100
0000
0000
0110
0000
0000
,
0001
0000
1000
0001
0000
1000
0010
0000
0000
0010
0000
0200
,
0000
0000
0000
1000
0000
0000
0000
0000
1000
0300
0000
0000
,
0100
0000
0001
0100
0000
0001
1000
0000
0000
0100
0000
0010
,
0000
0000
0001
0010
0000
0000
1100
0000
0000
0001
0000
1000
,
0010
0000
0100
0001
0000
1000
0010
0000
0000
1000
0000
0100
,
0000
0000
0000
0011
0000
0000
0110
0000
0000
1100
0000
2002
,
0000
3003
0000
0110
0000
0000
0001
0000
0100
0001
0000
1000
,
0010
0000
0000
1010
0000
0000
0110
0000
0000
0101
0000
2002
,
0000
3003
0000
0110
0000
0000
1000
0000
0100
1000
0000
0001
,
0010
0000
0000
0101
0000
0000
0110
0000
0000
1010
0000
2002
,
0000
3003
0000
0110
0000
0000
0001
0000
0010
0001
0000
1000
,
0100
0000
0000
1100
0000
0000
0110
0000
0000
0011
0000
2002
,
0000
3003
0000
0110
0000
0000
1000
0000
0010
1000
0000
0001
,
0100
0000
0100
0010
0000
2000
0000
0000
0000
3000
0000
1000
,
0100
0000
0000
0011
0000
0001
0100
0000
0000
1010
0000
0001
,
1000
0000
0001
1000
0000
0100
0010
0000
0000
0001
0000
0100
,
0010
0000
1000
0100
0000
0100
0010
0000
0010
0001
0000
0001
,
1000
0000
1000
0010
0000
0202
0000
0000
0000
0303
0000
0000
,
0001
0000
0000
0010
0000
0001
0100
0000
0000
0010
0000
1000
,
0100
0000
1000
0100
0000
0000
0010
0000
0000
0001
0000
1000
,
0010
0000
0100
0001
0000
0000
1000
0000
0100
0000
0000
0020
,
0000
0000
1000
0000
0000
0000
1000
0030
0000
0010
0000
0001
,
0010
0000
0000
0100
0000
1000
0100
0000
0000
1000
0000
0010
,
1000
0000
0000
0001
0000
0100
0001
0000
0000
0001
0000
0010
,
0100
0000
0100
1000
0000
1000
0010
0000
0100
0000
0000
0020
,
0000
0000
0001
0000
0000
0000
0031
0000
0010
0010
0000
0000
,
0100
0000
0001
1000
0000
0100
1000
0000
0010
0000
0000
0110
,
0000
0000
0100
0001
0000
0001
1000
0000
0000
0100
0000
0010
,
0001
0000
0000
0100
0000
0010
1000
0000
0000
0100
0000
0010
,
0000
0000
0001
0100
0000
0100
0010
0000
0010
1000
0000
2002
,
0000
3003
0000
0110
0000
0000
1000
0000
0100
0010
0000
0001
,
1000
0000
0000
1100
0000
0000
0110
0000
0000
0011
0000
2002
,
0000
3003
0000
0110
0000
0000
0001
0000
0100
0001
0000
1000
,
0010
0000
0000
1010
0000
0000
0110
0000
0000
0101
0000
2002
,
0000
3003
0000
0110
0000
0000
1000
0000
0100
1000
0000
0001
,
0010
0000
0000
0011
0000
0000
0110
0000
0000
1100
0000
2002
,
0000
3003
0000
0110
0000
0000
0001
0000
0100
0001
0000
1000
,
0010
0000
0010
0100
0000
0002
0000
0000
0000
0003
0000
0001
,
0010
0000
0000
1100
0000
1000
0010
0000
0000
0101
0000
1000
,
0100
0000
0010
0001
0000
1000
0010
0000
0100
0001
0000
0000
,
1001
0000
0001
0100
0000
0001
0100
0000
0010
1000
0000
0010
,
1000
0000
0100
0000
0000
0000
0010
0001
0010
0001
0010
0001
,
0100
0010
0000
0010
,
0000
0010
0000
0010
,
0000
1000
0000
1000
,
0000
1000
0000
1000
,
0000
0001
0000
0001
,
0000
0001
0000
0001
,
0000
0010
0000
0010
,
0000
0010
0000
0010
,
0001
0000
0100
0000
0000
0202
0000
0000
0000
0303
0000
0000
,
1000
0000
0000
0100
0000
2200
0000
0000
0000
3300
0000
0000
,
0001
0000
0100
0010
0000
1000
0001
0000
0010
0100
0000
1000
,
0001
0000
0000
0000
0000
0000
0000
0000
0000
0000
0000
0000
0000
0000
0000
0000
0000
0000
0000
0000
0000
0000
0000
0000
0000
0000
0000
0000
0000
0000
0000
0000
0001
0000
0000
0000
0000
0000
0000
0000
0000
0000
0000
0000
0000
0000
0000
0000
0000
0000
0000
0000
0000
0000
0000
0000
0000
0000
0000
0000
0000
0000
0000
0000
0000
0000
0000
0000
0000
0000
0000
0000
0000
0000
0000
0000
0000
0000
0000
0000
2002
0000
0000
0000
0000
0000
0000
0000
0000
0000
0000
0000
0000
0000
0000
0000
0000
0000
0000
3003
0000
0000
0000
0000
0000
0000
0000
0000
0000
0000
0000
0000
0000
0000
0000
0000
0000
0000
0000
0000
0000
0000
0000
0000
0000
0000
0000
0000
0000
0000
0000
0000
0000
0000
0000
0000
0000
0000
0000
0000
0000
0000
0000
0000
0110
0000
0000
0000
0000
0000
0000
0000
0000
0000
0000
0000
0000
0000
0000
0000
0000
0000
0000
0000
0000
0000
0000
0000
0000
0000
0000
0000
0000
0000
0000
0000
0000
0000
0000
0000
0000
0000
0000
0000
0000
0000
0000
0000
0000
0000
0000
0000
,
0001
0000
0001
0100
0000
0100
0010
0000
0000
0011
0000
0000
,
0110
0000
0000
1100
0000
2002
0000
3003
0000
0110
0000
0000
,
0001
0000
0100
0001
0000
1000
0010
0000
0000
1010
0000
0000
,
0110
0000
0000
0101
0000
2002
0000
3003
0000
0110
0000
0000
,
1000
0000
0100
1000
0000
0001
0010
0000
0000
1001
0000
0000
,
0110
0000
0000
0110
0000
2002
0000
3003
0000
0110
0000
0000
,
0001
0000
0100
0010
0000
1000
0001
0000
1000
0100
0000
0020
,
0000
0000
0000
0030
0000
0001
0100
0000
0000
0101
0000
1000
,
0100
0000
0000
1100
0000
0001
0010
0000
0100
1000
0000
0001
,
0100
0000
0010
1000
0000
0000
1001
0000
1000
0100
0000
0100
,
0010
0000
0010
0001
0000
0001
2000
0000
0000
0010
0000
0002
,
0000
0000
3003
0000
0000
0220
0000
0000
0000
0000
0000
0000
0000
0000
0000
0000
0000
0000
0000
0000
0000
0000
0000
0000
,
0330
0000
0000
0000
;

//--------------- dance-single - forcednature ----------------
#NOTES:
     dance-single:
     forcednature:
     Hard:
     15:
     0,0,0,0,0:
0000
0000
0000
0000
,
0000
0000
0000
0000
,
0000
0000
0000
0000
,
0000
0000
0000
0000
,
0000
0000
0000
0000
0000
0000
0000
0000
0000
0000
0000
1000
,
0001
0000
0100
0001
0000
0100
0010
0000
1000
0000
0000
1001
,
0000
0000
1000
0100
0000
1000
0100
0000
0010
0000
0000
0000
,
0001
0000
0001
0100
0000
0100
0010
0000
0010
1000
0000
0100
,
0000
0000
0010
0001
0000
0100
0001
0000
0010
0000
0000
0000
,
0100
0000
1000
0100
0000
1000
0100
0000
0010
0001
0000
1000
,
0001
0000
0100
0001
0000
0100
0001
0000
0100
0010
0000
1000
,
0100
0000
0100
0010
0000
0010
0001
0000
1000
0010
0000
0100
,
0000
0000
0001
1000
0000
0000
1100
0000
0011
0000
0000
0100
,
0001
0000
0100
0001
0000
1000
0010
0000
0000
0100
0000
0101
,
0000
0000
0001
0010
0000
0000
0110
0000
0000
1000
0000
1000
,
0001
0000
0100
0001
0000
0100
0010
0000
0010
1000
0000
1000
,
0100
0010
0001
1000
0001
0100
0010
0000
0010
2010
0000
0200
,
0000
3300
0000
0011
0000
0001
0010
0000
0100
1000
0000
0001
,
0010
0000
0010
0100
0000
1000
0001
0000
0010
0012
0000
0200
,
0000
0303
0000
1010
0000
1000
0010
0000
0100
0001
0000
1000
,
0010
0000
0010
0100
0000
0001
1000
0000
0100
1200
0000
0002
,
0000
0303
0000
0110
0000
0010
0001
0000
0001
0100
0000
0010
,
1000
0100
1000
0010
0100
0001
0010
0000
0001
0021
0000
2000
,
0000
3030
0000
0110
0000
1000
0100
0000
0001
0100
0000
0010
,
0001
1000
0001
0100
0000
0010
1000
0000
1000
0100
0000
0100
,
0100
0000
0000
0011
0000
0100
0100
0000
0000
1010
0000
0001
,
0100
0000
1000
0100
0000
0001
0100
0010
1000
0001
0000
0000
,
0011
0000
0010
0010
0000
0100
0100
0000
1000
1000
0000
0001
,
0100
0000
0010
0010
0000
1020
0000
0000
0000
0031
0000
0010
,
1000
0000
0000
0100
0000
0010
0001
0000
0010
0001
0000
0001
,
0100
0000
0100
0010
0000
0010
1000
0000
1000
0100
0000
0010
,
0001
0000
0010
0100
0000
0010
1000
0000
0020
0000
0000
0031
,
0000
0000
1100
1000
0000
0000
0101
0000
0000
1000
0000
0010
,
0100
0000
0010
0001
0000
0010
0100
0000
0010
1000
0000
1002
,
0000
0000
0013
0001
0000
0001
0200
0000
0000
1300
0000
1000
,
0100
0000
0100
0010
0000
0010
1000
0000
0001
0010
0000
0100
,
0000
0000
1010
0010
0000
0000
0011
0000
0100
0110
0000
0000
,
1000
0000
1000
0001
0000
0001
0100
0000
0100
0010
0000
0020
,
0000
0000
0031
0010
0000
1000
0002
0000
0010
0013
0000
0000
,
0001
0000
0001
0100
0000
0010
1000
0000
0001
0010
0000
0100
,
1000
0000
0000
0000
0010
0000
0010
0000
0000
0000
0100
0000
0001
0000
1000
0000
0001
0100
0001
0000
1000
0000
0200
0000
,
0000
0300
0000
1001
0000
0001
0100
0010
1000
0010
0000
0100
,
0001
0000
0000
0000
0001
0000
0010
0000
0000
0000
0100
1000
0100
0000
0000
0000
0010
0000
0012
0000
0000
0000
2000
0000
,
0000
3003
0000
0110
0000
0001
0100
0000
1000
0100
0000
0010
,
1000
0000
0100
0000
0010
0000
0001
0000
0000
0000
1000
0010
1000
0000
0000
0000
0100
0000
0120
0000
0000
0000
0002
0000
,
0000
0033
0000
1100
0000
1000
0010
0000
0001
0010
0000
0100
,
0001
0000
1000
0000
0100
0000
1000
0000
0001
0000
0010
0100
0010
0000
0000
0000
0001
0000
0021
0000
0000
0000
2000
0000
,
0000
3030
0000
0110
0000
1000
0100
0000
0001
0100
0000
0010
,
0001
0000
0100
0000
0010
0000
1000
0000
0100
0000
1000
0001
1000
0000
0000
0000
0010
0000
0010
0000
0000
0000
0100
0000
,
0100
0001
0000
0011
0000
0100
0100
1000
0000
1010
0000
0001
,
0100
1000
0100
0001
1000
0000
0110
0000
1000
0001
0000
0000
,
1001
0000
1000
0100
0000
0001
0100
0000
1000
0010
0000
0001
,
0010
0000
0010
0000
0000
1000
0010
0100
1000
0100
0001
0010
,
0200
1000
0010
0001
,
0310
0000
0100
1000
0000
1010
0000
0000
0001
0001
0000
0000
,
0200
0000
0000
1000
0000
0010
0010
0000
0000
0001
0000
0000
,
0310
0000
0100
0001
0000
1000
0100
0000
0010
0001
0000
0000
,
2000
0000
0000
0100
0000
0001
0001
0000
0000
3010
0000
1000
,
0002
0000
0010
0000
0000
1000
1003
0000
0001
0200
0000
0000
,
1000
0000
0000
0001
0000
1000
1000
0000
0000
0001
0000
0000
,
0310
0000
0100
0001
0000
1000
0000
0000
0100
0010
0000
0000
,
0002
0000
0000
0000
0100
0000
0000
0000
0000
0000
2000
0000
0000
0003
0000
0000
0010
0000
0020
0000
0000
3030
0000
0000
,
2000
0000
0000
0000
0000
0000
0100
0000
0000
0000
0002
0000
0000
3000
0000
0000
0010
0000
0020
0000
0000
0033
0000
0000
,
0001
0000
0100
1000
0000
0001
0010
0000
1000
0100
0000
0001
,
1000
0000
0000
0000
0000
0000
0000
0000
0000
0000
0000
0000
0000
0000
0000
0000
0000
0000
0000
0000
0000
0000
0000
0000
0000
0000
0000
0000
0000
0000
0000
0000
1000
0000
0000
0000
0000
0000
0000
0000
0000
0000
0000
0000
0000
0000
0000
0000
0000
0000
0000
0000
0000
0000
0000
0000
0000
0000
0000
0000
0000
0000
0000
0000
0000
0000
0000
0000
0000
0000
0000
0000
0000
0000
0000
0000
0000
0000
0000
0000
0220
0000
0000
0000
0000
0000
0000
0000
0000
0000
0000
0000
0000
0000
0000
0000
0000
0000
0000
0330
0000
0000
0000
0000
0000
0000
0000
0000
0000
0000
0000
0000
0000
0000
0000
0000
0000
0000
0000
0000
0000
0000
0000
0000
0000
0000
0000
0000
0000
0000
0000
0000
0000
0000
0000
0000
0000
0000
0000
0000
0000
0000
0000
0000
1001
0000
0000
0000
0000
0000
0000
0000
0000
0000
0000
0000
0000
0000
0000
0000
0000
0000
0000
0000
0000
0000
0000
0000
0000
0000
0000
0000
0000
0000
0000
0000
1000
0000
0000
0000
0000
0000
0000
0000
0000
0000
0000
0000
0000
0000
0000
0000
,
0100
0000
1000
0000
0010
0000
0100
0000
0001
0000
0010
0000
0100
0000
0000
0000
0100
0000
1000
0000
0000
0000
0001
0100
,
0010
0000
1000
1200
0000
0020
0000
0330
0000
0011
0000
0001
,
0100
0000
0010
0000
1000
0000
0010
0000
0100
0000
0001
0000
1000
0000
0000
0000
1000
0000
0100
0000
0000
0000
0010
0001
,
1000
0000
0001
0201
0000
2000
0000
3300
0000
0110
0000
0100
,
0001
0000
1000
0000
0001
0000
0010
0000
0100
0000
1000
0000
0010
0000
0000
0000
0100
0000
0001
0000
0010
0000
0001
1000
,
0010
0000
0100
0102
0000
0020
0000
0033
0000
0110
0000
0100
,
1000
0000
0001
0000
1000
0000
0010
0000
0100
0000
0001
0000
0010
0000
0100
0000
0001
0000
0100
0000
1000
0000
0001
0010
,
0100
0000
1000
1000
0000
0001
0100
1000
0000
0110
0000
1000
,
0100
0001
0000
0110
0000
0001
0010
1000
0001
0100
1000
0010
,
0100
0000
0100
0001
0000
0000
1001
0000
1000
0100
0000
0001
,
0100
0000
1000
0010
0000
0001
0020
0000
0130
0010
0000
0110
,
0000
0000
0000
0000
0000
2002
0000
0000
0000
0000
0000
0000
0000
0000
0000
0000
0000
0000
0000
0000
0000
0000
0000
0000
,
0000
3003
0000
0000
;
