#TITLE:Ain't it Good;
#SUBTITLE:;
#ARTIST:Tomoki Hirata;
#TITLETRANSLIT:;
#SUBTITLETRANSLIT:;
#ARTISTTRANSLIT:;
#GENRE:;
#CREDIT:;
#MUSIC:Ain't it Good.mp3;
#BANNER:;
#BACKGROUND:;
#CDTITLE:;
#SAMPLESTART:43.624;
#SAMPLELENGTH:14.340;
#SELECTABLE:YES;
#OFFSET:-0.622;
#BPMS:0.000=133.887;
#STOPS:;
#BGCHANGES:;
#FGCHANGES:;

//--------------- dance-single - about-blank ----------------
#NOTES:
     dance-single:
     about-blank:
     Beginner:
     2:
     0,0,0,0,0:
0000
0000
0000
0000
,
0000
0000
0000
0000
,
0000
0000
0000
0000
,
0000
0000
0000
0000
,
1000
0000
1000
0000
,
0001
0000
0000
0000
,
0020
0000
0000
0030
,
0010
0000
0000
0000
,
0001
0000
0001
0000
,
1000
0000
0000
0000
,
0020
0000
0000
0030
,
0010
0000
0000
0000
,
1001
0000
0000
0000
,
0010
0000
0000
0000
,
0110
0000
0000
0000
,
1000
0000
0000
0000
,
0001
0000
1000
0000
,
0001
0000
0000
0000
,
1000
0000
0001
0000
,
1000
0000
0000
0000
,
1001
0000
0000
0000
,
0010
0000
0000
0000
,
0110
0000
0000
0000
,
0001
0000
1000
0000
,
0001
0001
0000
0000
,
0100
0000
0100
0000
,
1000
1000
0000
0000
,
0100
0000
0100
0000
,
0001
0001
0000
0000
,
0010
0000
0010
0000
,
1000
1000
0000
0000
,
0010
0000
0010
0000
,
0001
0001
0000
0000
,
1000
0000
0010
0000
,
1000
1000
0000
0000
,
0001
0000
0100
0000
,
0010
0010
0000
0000
,
1000
0000
0100
0000
,
1001
0000
0110
0000
,
1001
0000
0110
0000
,
1001
0000
0000
0000
;

//--------------- dance-single - about-blank ----------------
#NOTES:
     dance-single:
     about-blank:
     Easy:
     6:
     0,0,0,0,0:
0000
0000
0000
0000
,
0000
0000
0000
0000
,
0000
0000
0000
0000
,
0000
0000
0000
0000
,
1000
0100
1000
1000
,
0010
0100
0000
1000
,
0200
0001
0001
0301
,
0001
1001
0000
0001
,
0100
0001
0100
0100
,
1000
0100
0000
0010
,
2000
0001
0001
3001
,
1000
0100
0000
0010
,
0001
0100
1000
0100
,
0001
1000
1000
0000
,
1000
0100
0001
0100
,
1000
0001
0001
0000
,
0100
0010
1010
0000
,
0001
0010
0100
0000
,
0010
0001
0101
0000
,
0001
1000
0010
0000
,
0100
0100
0010
0010
,
1000
0001
1000
0000
,
0010
0010
0100
0100
,
1001
0000
0001
1000
,
1010
0011
1010
0000
,
1000
0010
1000
1000
,
0101
1100
0101
0000
,
0001
1000
0001
0001
,
0011
0110
0011
0000
,
0100
1000
0100
0100
,
0110
1100
0110
0000
,
0001
1000
0001
0000
,
0101
1010
0101
0000
,
0001
0010
1000
0010
,
0011
1100
0011
0000
,
1000
0100
0010
0010
,
1001
0110
1001
0000
,
1000
0001
0100
0010
,
1010
0101
1100
1100
,
0011
1010
0101
0101
,
1001
0000
0000
0000
;

//--------------- dance-single - about-blank ----------------
#NOTES:
     dance-single:
     about-blank:
     Medium:
     9:
     0,0,0,0,0:
0000
0000
0000
0000
,
0000
0000
0000
0000
,
0000
0000
0000
0000
,
0000
0000
0000
0000
,
1000
0100
0010
0001
1000
0100
0010
0001
,
1000
0001
0000
0100
,
0020
1000
1000
1030
,
0001
1000
0001
0000
0100
0000
0100
0000
,
0001
0010
0100
1000
0001
0010
0100
1000
,
0001
0100
0000
0001
,
2000
0010
0010
3010
,
1000
0000
0010
0100
0010
0000
0000
0000
,
1000
0200
0001
1300
,
0001
0020
1000
0031
,
1000
0020
0001
1030
,
0001
0000
0200
0000
1000
0001
0301
0000
,
1000
0100
0010
0000
1100
0000
0000
0000
,
1000
0100
2000
0000
0001
0000
3001
0000
,
0001
0100
0010
0000
0101
0000
0000
0000
,
0001
0010
0002
0000
1000
0000
1003
0000
,
0001
0010
0100
1000
0020
0000
0130
0000
,
0001
1000
0001
0000
0101
0000
1100
0000
,
1000
0100
0010
0001
0200
0000
0310
0000
,
1000
0100
0001
0000
1000
0010
0001
0000
,
1100
0000
0110
0000
1000
0010
1000
0000
,
0001
1000
0001
0000
0100
0000
0100
0000
,
0011
0000
0110
0000
0001
0100
0001
0000
,
0010
0100
0010
0000
1000
0000
0010
0000
,
0101
0000
0110
0000
1000
0010
1000
0000
,
0001
0010
1000
0000
0010
0000
0100
0000
,
1010
0000
0110
0000
0001
0100
0001
0000
,
1000
0001
0100
0000
0010
0000
0010
0000
,
1100
0000
0011
0000
1000
0100
0010
0000
,
0001
0100
1000
0010
,
0101
0000
1010
0000
0001
0010
0100
0000
,
1000
0010
0001
0100
,
1100
0000
0101
0000
1000
0100
0001
0000
,
0010
1000
0100
0001
,
0101
0000
1100
0000
0001
1000
0100
0000
,
0011
0000
1010
0000
0001
1000
0010
0000
,
0110
0000
0000
0000
;

//--------------- dance-single - about-blank ----------------
#NOTES:
     dance-single:
     about-blank:
     Hard:
     11:
     0,0,0,0,0:
0000
0000
0000
0000
,
0000
0000
0000
0000
,
0000
0000
0000
0000
,
0000
0000
0000
0000
,
1000
0100
0010
0001
1000
0100
0010
0001
,
0100
0001
1000
0010
0000
0000
0010
0100
,
0001
0002
0010
0000
1000
0000
0103
0000
,
1000
0001
0010
0100
1000
0000
1001
0000
,
0001
0100
0010
1000
0001
0100
0010
1000
,
0100
1000
0001
0010
0000
0000
0010
0100
,
1000
2000
0100
0000
0001
0000
3010
0000
,
0001
1000
0010
0100
0001
0000
0110
0000
,
1000
0001
0010
0001
0100
0000
0100
0000
,
0010
1000
0100
0000
0010
0001
0100
0000
,
0001
1000
0010
1000
0100
0000
0100
0000
,
0010
0001
1000
0000
0010
0100
0110
0000
,
1000
0100
0010
0100
2000
0000
3010
0000
,
0100
0010
1000
0100
2000
0000
3001
0000
,
0001
0010
0100
0010
0002
0000
0103
0000
,
0010
1000
0010
0100
0001
1000
1000
0001
,
0010
0100
1000
0002
0010
0000
1003
0000
,
0001
1000
0001
0000
0110
0000
1001
0000
,
1000
0010
0100
0002
1000
0000
0103
0000
,
1010
0001
0100
0000
1000
0100
0100
0001
,
0010
0100
0000
0000
0010
0100
0000
0000
0110
0000
0000
0000
1001
0000
0000
0000
,
1000
0001
0100
0000
0001
1000
0100
0000
,
0010
0001
0000
0000
0010
0001
0000
0000
0011
0000
0000
0000
1100
0000
0000
0000
,
1000
0010
0001
1000
0100
0001
0100
0000
,
0001
1000
0000
0000
0001
1000
0000
0000
0101
0000
0000
0000
1100
0000
0000
0000
,
1000
0010
0100
0000
1000
0100
0001
0000
,
0010
0100
0000
0000
0010
0100
0000
0000
1100
0000
0000
0000
0101
0000
0000
0000
,
1000
0010
0100
0001
1000
0001
0001
0000
,
0010
0001
0000
0000
0100
0001
0000
0000
0011
0000
0000
0000
1100
0000
0000
0000
,
0001
1000
0100
0001
0100
0010
0010
0000
,
0001
1000
0000
0000
0001
0100
0000
0000
1010
0000
0000
0000
1100
0000
0000
0000
,
1000
0010
0100
0001
1000
0010
0010
0010
,
1000
0100
0000
0000
1000
0001
0000
0000
1010
0000
0000
0000
0011
0000
0000
0000
,
1000
0001
0100
0010
0100
0001
0001
0000
,
1000
0010
0000
0000
1000
0001
0000
0000
0100
0000
0100
0000
0010
0000
1000
0000
,
0001
0000
0010
0000
0100
0000
1000
0000
0001
0000
1000
0000
0010
0100
0010
0000
,
1001
0000
0000
0000
;

//--------------- dance-double - forcednature ----------------
#NOTES:
     dance-double:
     forcednature:
     Easy:
     6:
     0,0,0,0,0:
00000000
00000000
00000000
00000000
,
00000000
00000000
00000000
00000000
,
00000000
00000000
00000000
00000000
,
00000000
00000000
00000000
00000000
,
00001000
00010000
01000000
00010000
,
00001000
00010000
00000000
01000000
,
00100000
00010000
00000000
10000000
,
00010000
01000000
00001000
00000000
,
00010000
00001000
00000100
00001000
,
00010000
00001000
00000000
00000100
,
00000001
00000010
00000100
00000000
,
00001000
00001000
00000010
00010000
,
00011000
00001000
00100000
00010000
,
01000000
01000000
01000000
00000000
,
00100000
10000000
01000000
00010000
,
00001000
00001000
00001000
00000000
,
00000010
00000100
00001000
00000000
,
00000010
00000100
00001000
00010000
,
00100000
01000000
00010000
00000000
,
01000000
01000000
00100000
10000000
,
10010000
00010000
00100000
00000000
,
00001000
00010000
00000010
00000000
,
00001001
00001000
00000010
00000000
,
00011000
00010000
00000100
00000000
,
00001100
00001100
00001100
00000000
,
00000010
00010000
00001000
00000000
,
01010000
01010000
01010000
00000000
,
10000000
01000000
00100000
00000000
,
00011000
00011000
00011000
00000000
,
00000010
00001000
00000100
00000000
,
00000011
00000011
00000011
00000000
,
00000100
00000001
00001000
00000010
,
00010010
00010010
00010010
00000000
,
00010000
00001000
00100000
00010000
,
00110000
00110000
00110000
00000000
,
10000000
01000000
10000000
00100000
,
01100000
01100000
01100000
00000000
,
01000000
00001000
00010000
00000100
,
00001100
00001100
00001100
00000001
,
00000100
00001000
00010000
01000000
,
10010000
00000000
00000000
00000000
;

//--------------- dance-double - forcednature ----------------
#NOTES:
     dance-double:
     forcednature:
     Medium:
     9:
     0,0,0,0,0:
00000000
00000000
00000000
00000000
,
00000000
00000000
00000000
00000000
,
00000000
00000000
00000000
00000000
,
00000000
00000000
00000000
00000000
,
00001000
00010000
00001000
01000000
00001000
00010000
00001000
01000000
,
00010000
10000000
00010000
10000000
00000000
00000000
01000000
00000000
,
00100000
00001000
00010000
00000010
,
00000100
00000001
00001000
00000010
,
00010000
00001000
00010000
00000100
00010000
00001000
00010000
00000100
,
00001000
00000001
00001000
00000001
00000000
00000000
00000100
00000000
,
00001000
00010000
01000000
00100000
,
00010000
00000000
00001000
00000000
00000010
00000000
00000100
00000010
,
00000110
00000000
00000001
00000000
00000100
00001000
00010000
00000000
,
00100000
00000000
00010000
00000000
00001000
00010000
01000000
00000000
,
00100000
00000000
00010000
00000000
10000000
00100000
00010000
00000000
,
00100000
01000000
00010000
00000000
00100000
01000000
00010000
00000000
,
00011000
00000000
00000100
00001000
00000010
00001000
00000100
00000000
,
00000010
00000000
00000001
00000100
00000001
00001000
00000010
00000000
,
00010000
00000000
00001000
00100000
00001000
00010000
00100000
00000000
,
01000000
00010000
10000000
00000000
01000000
10000000
00010000
00010000
,
00100000
00001000
00010000
00000100
00000000
00000000
00011000
00000000
,
00000100
00000100
00010000
00010000
,
00000010
00010000
00001000
01000000
00000000
00000000
00011000
00000000
,
01100000
00000000
10000000
00000000
01000000
00010000
00001000
00000000
,
00000010
00000100
00001000
00000001
00000100
00000000
00000100
00000000
,
00000010
00000000
00010000
00000000
00001000
00100000
00010000
00000000
,
01000000
00100000
10000000
01000000
00100000
00000000
00100000
00000000
,
00001000
00000000
00010000
00000000
00000010
00001000
00000001
00000000
,
00000010
00000100
00001000
00000001
00000100
00000000
00000100
00000000
,
00001000
00000000
00010000
00000000
00100000
10000000
00010000
00000000
,
00100000
01000000
00010000
00001000
00000010
00000000
00000010
00000000
,
00000100
00000000
00000100
00000000
00001000
00000001
00000100
00000000
,
00000010
00010000
00001000
01000000
00001000
00000000
00010000
00000000
,
00100000
10000000
00010000
00000000
10000000
01000000
00100000
00000000
,
01000000
10000000
00010000
01000000
00001000
00000000
00010000
00000000
,
00000100
00001000
00000010
00000000
00000100
00000001
00000010
00000000
,
00000100
00001000
00000001
00000100
00000001
00000000
00001000
00000000
,
00000010
00010000
00001000
00000000
00100000
00010000
10000000
00000000
,
01000000
00000000
00000000
01000000
00000000
00000000
01000000
00000000
00000000
00000000
00100000
00000000
00001000
00000000
00000000
00000000
,
00011000
00000000
00010000
00000010
00000100
00000100
00000001
00000000
,
00001001
00000000
00000000
00000000
;

//--------------- dance-double - forcednature ----------------
#NOTES:
     dance-double:
     forcednature:
     Hard:
     12:
     0,0,0,0,0:
00000000
00000000
00000000
00000000
,
00000000
00000000
00000000
00000000
,
00000000
00000000
00000000
00000000
,
00001000
00010000
00000000
00000000
00001000
00010000
00000000
00000000
00100000
00000000
00000000
00100000
00000000
00000000
00000000
00000000
,
10000000
01000000
00100000
00010000
00001000
00000100
00000010
00000001
,
00000100
00000001
00001000
00000020
00000000
00000000
00000130
00001000
,
00010000
01000000
00100000
00001000
00010000
00100000
01000000
00000000
,
00001000
00010000
00000100
00001000
00000010
00001000
00000001
00000000
,
00000001
00000100
00000010
00001000
00010000
01000000
00100000
10000000
,
01000000
00100000
00010000
20000000
00000000
00000000
30010000
00010000
,
00100000
01000000
00010000
00001000
00000010
00000100
00001000
00000000
,
00000010
00000100
00001000
00010000
00100000
01000000
00010000
00000000
,
10000000
01000000
00010000
00001000
01000000
00010000
00100000
00000000
,
00001000
00010000
00000010
00000000
00001000
00000100
00000010
00000000
,
00000100
00001000
00000001
00000100
00001000
00010000
00100000
00000000
,
01000000
00000000
00010000
00000000
00100000
00000000
00000000
00000000
01000000
00000000
00000000
00010000
00001000
00000000
00000010
00000000
,
00000100
00001000
00000001
00000100
00001000
00010000
00100000
00000000
,
01000000
00010000
00100000
02000000
00000000
13000000
10000000
00000000
,
10000000
01000000
00010000
00001000
00000010
00000100
00001000
00000000
,
00000001
00000000
00000100
00000000
00000010
00000000
00010000
00000000
00001000
00000000
00000000
00000010
00000100
00000000
00000100
00000000
,
00001000
00000001
00000100
00001000
00000000
00010000
00100000
00000000
,
10000000
00000000
00010000
00000000
10000000
00000000
01000000
00000000
00100000
00000000
00000000
01100000
00000000
00000000
00000000
00000000
,
00010000
10000000
01000000
00010000
00000000
00001000
00000010
00000000
,
00000110
00000000
00000000
00000000
00000000
00000000
00001000
00000000
00000000
00000001
00000000
00000000
00000100
00000000
00000000
00001000
00000000
00010000
00001000
00000000
00000000
00000000
00000000
00000000
,
00010000
00100000
10000000
01000000
00010000
00000000
00011000
00000000
,
00010000
00000100
00001000
00000010
00000100
00001000
00010000
00000000
,
00001000
00000010
00000001
00000100
00001000
00000000
00011000
00000000
,
00000100
00001000
00000010
00000100
00001000
00010000
00000100
00000000
,
00010000
01000000
10000000
00100000
00010000
00000000
00011000
00000000
,
01000000
00010000
00100000
01000000
00010000
00001000
01000000
00000000
,
00001000
00000100
00000001
00000010
00001000
00000000
00011000
00000000
,
00010000
00100000
00010000
00001000
00000010
00001000
00010000
00000000
,
01000000
00100000
00000000
00000000
01000000
00100000
00000000
10010000
00000000
00000000
01100000
00000000
00000000
00000000
00000000
00000000
,
10000000
01000000
00010000
00001000
00000100
00000001
00000010
00000000
,
00000100
00000010
00000000
00000000
00000100
00000010
00000000
00001001
00000000
00000000
00000110
00000000
00000000
00000000
00000000
00000000
,
00000001
00000100
00001000
00010000
01000000
10000000
00100000
00000000
,
01000000
00100000
00000000
00000000
01000000
00100000
00000000
10010000
00000000
00000000
01100000
00000000
00000000
00000000
00000000
00000000
,
10000000
01000000
00010000
00001000
00000010
00000001
00001000
00000000
,
00001010
00000000
00000000
00010010
00000000
00000000
00011000
00000000
00000000
00000000
00001000
00000000
00100000
00000000
00010000
00000000
,
10000000
00000000
00000000
00100000
00000000
00000000
00010000
00000000
00000000
00001000
00000000
00000000
00000010
00000000
00000000
00000001
00000000
00001000
00000001
00000000
00000000
00000100
00000000
00000000
,
00000110
00000000
00000000
00000000
;
