#TITLE:AVE DE RAPINA;
#SUBTITLE:;
#ARTIST:Shawn the Horny Master;
#TITLETRANSLIT:;
#SUBTITLETRANSLIT:;
#ARTISTTRANSLIT:;
#GENRE:;
#CREDIT:;
#MUSIC:AVE DE RAPINA.ogg;
#BANNER:;
#BACKGROUND:;
#CDTITLE:;
#SAMPLESTART:15.698;
#SAMPLELENGTH:12.000;
#SELECTABLE:YES;
#OFFSET:1.568;
#BPMS:0.000=125.000;
#STOPS:;
#BGCHANGES:;
#FGCHANGES:;

//--------------- dance-single - OrangeRight ----------------
#NOTES:
     dance-single:
     OrangeRight:
     Beginner:
     2:
     0,0,0,0,0:
0000
0000
0000
0000
,
0000
0000
0000
0000
,
0000
0000
0000
0000
,
0000
0000
0000
0000
,
0000
0000
0000
0000
,
1000
0000
0000
0000
,
1000
0000
0000
0000
,
0001
0000
0000
0000
,
0001
0000
0000
0000
,
1000
0000
0000
0000
,
0100
0000
0000
0000
,
0010
0000
0000
0000
,
0001
0000
0000
0000
,
0001
0000
0000
0000
,
0100
0000
0000
0000
,
0010
0000
0000
0000
,
1000
0000
0001
0000
,
1000
0000
1000
0000
,
0100
0000
1000
0000
,
0001
0000
0001
0000
,
0100
0000
0010
0000
,
1000
0000
0001
0000
,
1000
0000
1000
0000
,
0001
0000
1000
0000
,
0001
0000
0001
0001
,
1000
0000
0100
0000
,
0010
0000
0001
0000
,
1000
0000
0100
0000
,
0010
0000
0001
0001
,
0100
0000
0010
0000
,
1000
0000
0001
0000
,
0100
0000
0010
0000
,
1000
0000
0001
0000
,
1000
0000
0010
0000
,
0100
0000
0001
0000
,
0010
0000
0100
0000
,
1000
0000
0001
1000
,
0001
0000
0100
0000
,
0010
0000
1000
0000
,
0100
0000
0010
0000
,
0001
0000
1000
0000
,
0001
0000
0000
0000
,
0000
0000
0000
0000
,
1000
0000
0000
0000
,
0000
0000
0000
0000
,
0100
0000
0000
0000
,
0010
0000
0000
0000
,
0100
0000
0000
0000
,
0010
0000
0001
0000
,
1000
0000
0100
0000
,
0010
0000
0001
0000
,
0100
0000
0010
0000
,
1000
0000
0001
0000
,
1000
0000
0010
0000
,
0100
0000
0001
0000
,
0010
0000
0100
0000
,
1000
0000
0001
0000
,
1000
0000
1000
0000
,
0100
0000
0100
0000
,
0010
0000
0010
0000
,
1001
0000
0000
1001
;

//--------------- dance-single - OrangeRight ----------------
#NOTES:
     dance-single:
     OrangeRight:
     Easy:
     6:
     0,0,0,0,0:
0000
0000
0000
0000
,
0000
0000
0000
0000
,
0000
0000
0000
0000
,
0000
0000
0000
0000
,
0000
0000
0000
0000
,
2000
0000
3000
0000
,
0002
0000
0003
0000
,
2000
0000
3000
0000
,
0002
0000
0003
0000
,
1000
0000
0100
0000
0010
0000
0001
1000
,
0001
0000
0010
0000
,
0001
0010
0100
1000
,
0001
0000
1000
0001
,
1000
0000
0100
0000
0010
0000
0100
0100
,
1000
0000
1000
0000
,
0001
0100
0010
0100
,
0001
0000
1000
0001
,
1000
0100
1000
0100
,
0010
0000
0001
0000
,
1000
0010
1000
0010
,
0100
0000
0100
0000
,
0001
0100
0001
0100
,
0010
0000
1000
0000
,
0001
0010
0001
0010
,
0100
0000
1000
0001
,
1000
0000
1000
0100
,
0010
0000
0010
0001
,
0100
0000
0100
0010
,
1000
0000
0002
2003
,
3001
0000
0001
0100
,
0010
0000
0010
1000
,
0100
0000
0100
0010
,
0001
0000
0001
0100
,
0010
0100
0010
0100
,
0001
1000
0001
1000
,
0100
0010
0100
0010
,
0001
1000
0001
0100
,
0010
1000
0001
1000
,
0100
0010
0001
0100
,
0001
0010
0001
1000
,
1001
0000
0110
0000
,
2000
0000
3000
0000
,
0002
0000
0003
0000
,
0200
0000
0300
0000
,
0020
0000
0030
1000
,
0001
0010
0001
0100
,
0001
0010
0001
0100
,
0010
1000
0010
0100
,
0010
1000
0001
1000
,
0100
1000
0001
0100
,
0010
0000
0010
0000
,
0010
1000
0001
0010
,
0100
0000
0100
0000
,
1000
0100
0010
0010
,
0001
0100
0010
0010
,
1000
0001
0100
0100
,
0001
0000
1000
0000
0001
1000
0001
0000
,
1000
0001
0001
1000
,
0100
0010
0010
0100
,
1000
0001
1000
0001
,
1000
0000
0000
0001
0000
1000
0000
0001
0000
1000
0000
0000
0001
0000
0000
0000
;

//--------------- dance-single - OrangeRight ----------------
#NOTES:
     dance-single:
     OrangeRight:
     Medium:
     10:
     0,0,0,0,0:
0000
0000
0000
0000
,
0000
0000
0000
0000
,
0000
0000
0000
0000
,
0000
0000
0000
0000
,
0000
0000
0000
0000
,
1000
0000
0000
1000
0000
0000
2000
0000
0000
0000
0000
0000
3000
0000
0000
0000
,
0001
0000
0000
0001
0000
0000
0002
0000
0000
0000
0000
0000
0003
0000
0000
0000
,
0100
0000
0000
0100
0000
0000
0200
0000
0000
0000
0000
0000
0300
0000
0000
0000
,
0010
0000
0000
0010
0000
0000
0010
0000
2000
0000
0000
0000
3002
0000
0000
0000
,
1003
0100
1000
0000
0010
0000
0100
0001
,
0010
0000
0100
0000
1000
0001
1000
0000
,
0001
0100
0001
0000
0100
0000
0010
1000
,
0001
0000
1000
0000
0001
0100
0001
0000
,
1000
0010
0100
0000
0001
0000
0010
0100
,
1000
0000
0001
0000
0100
0001
0100
0000
,
0001
0010
0100
0000
1000
0000
0010
0100
,
0002
0000
0000
0003
0000
0000
1000
0001
1000
0001
0000
0000
,
1000
0000
0000
0100
0000
0000
0010
0000
0000
0001
0000
0000
1000
0000
0000
0000
,
0001
0000
0100
0000
0010
1000
0010
0000
,
1000
0000
0000
0010
0000
0000
0100
0000
0000
0001
0000
0000
0010
0000
0000
0000
,
0001
0010
0100
0000
1000
0010
0100
0000
,
0001
0000
0000
0100
0000
0000
0010
0000
0000
1000
0000
0000
0001
0000
0000
0000
,
1000
0000
0010
0000
0100
0001
0100
0000
,
0001
0000
0000
0010
0000
0000
0100
0000
0000
1000
0000
0000
0010
0000
0000
0000
,
0100
0000
0000
0000
0100
0000
0000
0000
0001
0000
0000
1000
0000
0000
0001
0000
,
1000
0000
0000
0000
0100
0000
0000
0000
0010
0000
0000
0001
0000
0000
0100
0000
,
0001
0100
0010
1010
,
1000
0000
0000
0000
0001
0000
0000
0000
0010
0000
0000
0100
0000
0000
1000
0000
,
0001
0000
0000
0100
0000
0000
0010
0000
0010
1000
0000
1000
,
0100
0000
0000
0000
0010
0000
0000
0000
0001
0000
0000
1000
0000
0000
0001
0000
,
0100
0010
1000
1001
,
0001
0000
0000
0000
0100
0000
0000
0000
0010
0000
0000
1000
0000
0000
0100
0000
,
1000
0001
0100
0110
,
1000
0000
0010
0000
0100
0000
0001
0000
1000
0000
0000
0010
0000
0000
0100
0000
,
0001
0010
0100
1000
0001
0000
1001
0000
,
0100
0000
0010
0000
1000
0000
0001
0000
0100
0000
0000
0010
0000
0000
1000
0000
,
0100
0010
0001
1000
0010
0000
0110
0000
,
0100
0010
1000
0001
0100
0010
1000
0001
,
0010
0100
1000
0001
1000
0000
1001
0000
,
1000
0100
0010
0001
1000
0100
0010
0001
,
1000
0000
0100
0000
0010
0000
0001
0000
0100
0000
0010
0000
,
0200
0010
0000
0310
,
0002
0100
0000
0103
,
2000
0001
0000
3001
,
0200
0000
0000
0000
0010
0000
0000
0000
0300
0000
0000
1000
0000
0000
0001
0000
,
1000
0100
1000
0000
0010
0000
0100
0000
,
0001
0100
0001
0000
0100
0000
0010
0000
,
1000
0001
1000
0000
0001
1000
0001
0000
,
1000
0000
0100
0000
1000
0000
0000
0001
0000
0010
0000
0001
0000
0000
0000
0000
,
1000
0100
1000
0010
1000
0000
0010
0000
,
0100
0010
0100
0001
0010
0000
0100
0000
,
1000
0001
0100
0010
1000
0000
0100
0000
,
1000
0000
0010
0000
0100
0000
0001
0000
1000
0000
0000
0001
0000
0000
1000
0000
,
0001
0010
0001
0100
0001
0000
0100
0000
,
0010
0100
0010
1000
0100
0000
0010
0000
,
0001
1000
0010
0100
0001
1000
0010
0100
,
0001
0000
0010
0000
0100
0000
1000
0000
0001
0000
0000
0100
0000
0000
0010
0000
,
1000
0000
0000
0100
0000
1000
0000
0100
0000
1000
0000
1000
0001
0000
0000
0000
,
0001
0000
0000
0100
0000
0001
0000
0100
0000
0001
0000
0001
1000
0000
0000
0000
,
1000
0000
0000
1000
0000
0100
0000
0010
0000
0001
0000
0001
1000
0000
0000
0000
,
0001
1000
0000
0100
0000
0010
0000
0001
0000
0100
0000
0001
1000
0000
0000
0000
;

//--------------- dance-single - OrangeRight ----------------
#NOTES:
     dance-single:
     OrangeRight:
     Hard:
     14:
     0,0,0,0,0:
0000
0000
0000
0000
,
0000
0000
0000
0000
,
0000
0000
0000
0000
,
0000
0000
0000
0000
,
0000
0000
0000
0000
,
1000
0000
0000
0001
0000
0000
0200
0000
0000
0000
0000
0000
0300
0000
0000
0000
,
0001
0000
0000
1000
0000
0000
0010
0000
0000
0000
0000
1000
0000
0000
0001
0000
,
1000
0000
0000
0001
0000
0000
0020
0000
0000
0000
0000
0000
0030
0000
0000
0000
,
0001
0000
0000
1000
0000
0000
0100
0000
2000
0000
0000
0000
3002
0000
0000
0000
,
1003
0100
1000
0010
1000
0001
1000
1001
,
0110
0000
1000
0010
0100
0001
1000
0000
,
0011
0000
0010
0000
0100
0000
0010
0000
0001
0000
0100
0000
0010
1000
0000
0000
,
1100
0000
1000
0100
0010
0001
1001
0000
,
0011
0010
0001
0100
0001
1000
0001
1001
,
0110
0000
1000
0001
0100
0010
1000
0000
,
1100
0000
0100
0000
0010
0000
0100
0000
1000
0000
0010
0000
0100
0001
0000
0000
,
2002
0000
0000
3003
0000
0000
0001
0100
0010
1000
0000
0000
,
1000
0000
1000
0100
0000
0100
0010
0000
0010
0001
0000
0001
1000
0000
1000
0000
,
0001
0000
0100
0010
0000
1000
0000
0001
1000
0000
0100
0000
0010
0001
0000
0000
,
0001
0000
0001
0100
0000
0100
0010
0000
0010
1000
0000
1000
0100
0000
0100
0000
,
1000
0000
0100
0010
0000
0000
0001
0000
0100
0010
0000
0000
1000
0000
0001
0000
,
1000
0000
1000
0001
0000
0001
0100
0000
0100
0010
0000
0010
1000
0000
1000
0000
,
0001
0000
0100
0010
0000
1000
0000
0100
0010
0000
0001
0000
1000
0001
0000
0000
,
1000
0000
1000
0001
0000
0001
0010
0000
0010
0100
0000
0100
1000
0000
0001
0000
,
2002
0000
0000
0000
3003
0000
0000
0000
1001
0000
0000
0110
0000
0000
1001
0000
,
1000
0000
0100
0000
0010
0000
0001
0000
1000
0000
0100
0010
0000
0010
0001
0000
,
1000
0010
0100
0001
1000
0010
0210
0000
,
0301
0000
0100
0000
0010
0000
1000
0000
0001
0000
0100
0010
0000
0010
1000
0000
,
0001
0000
0000
0010
0000
0000
0100
0000
0000
1000
0000
0000
0001
0000
0010
0000
0001
0000
1000
0000
0100
0000
1000
0000
,
0001
0000
1000
0000
0010
0000
0100
0000
0001
0000
1000
0010
0000
0010
0100
0000
,
0001
1000
0100
0010
0001
0100
0101
0000
,
0001
0000
1000
0000
0100
0000
0010
0000
0001
0000
1000
0100
0000
0100
0010
0000
,
0001
0100
0010
1000
0001
1000
1002
0000
,
1003
0000
0100
0010
0000
0001
0000
1000
0000
0100
0000
0010
0000
0001
0000
1000
,
0001
0000
0100
0010
0000
1000
0000
0001
0000
0100
0000
0010
0000
1000
0000
0001
,
1000
0000
0100
0010
0000
0001
0000
1000
0000
0010
0000
0100
0000
0001
0000
1000
,
0001
0000
0010
0100
0000
1000
0000
0001
0000
0100
0000
0010
0000
1000
0000
0001
,
1000
0000
0100
0010
0000
0001
0000
0100
0000
1000
0000
0100
0000
0001
0000
1000
,
0001
0000
0010
0100
0000
1000
0000
0010
0000
0001
0000
0010
0000
1000
0000
0001
,
1000
0000
0100
0001
0000
0100
0000
1000
0000
0010
0000
0001
0000
0010
0000
1000
,
0001
0100
0001
0000
1000
0010
1000
0100
1000
0000
0001
1000
,
0002
0203
0320
2030
,
3200
0001
0000
1300
,
2000
3020
0230
0302
,
0023
0000
0000
0000
1000
0000
0000
0000
0031
0000
0000
0101
0000
0000
0110
0000
,
0010
0000
0000
1000
0100
0000
0010
0000
0100
1000
0000
0001
0100
0000
0010
0000
,
0100
0000
0000
0001
0010
0000
0100
0000
1000
0001
0000
0001
1000
0000
0001
0000
,
1000
0000
0000
0010
0100
0000
0001
0000
0010
0100
0000
0100
1000
0000
0001
0000
,
1000
0000
0001
1000
0000
0001
0000
0100
0000
0010
0000
0100
0010
1000
0001
0000
,
1000
0000
0100
0010
0000
0001
0000
1000
0000
0001
0000
0100
0001
0000
0100
0010
,
1000
0000
0010
0100
0000
0001
0000
1000
0000
0001
0000
0010
0001
0000
0011
0000
,
1100
0000
0010
0100
0000
0001
0000
0010
0000
0100
0000
1000
0001
0000
0100
0010
,
0100
0000
0001
1000
0000
0010
0000
0100
0000
0001
0000
0101
0000
0000
1010
0000
,
0001
0000
0100
0010
0000
1000
0000
0001
0000
1000
0000
0100
1000
0000
0100
0010
,
0001
0000
0010
0100
0000
1000
0000
0001
0000
1000
0000
0010
1000
0000
1010
0000
,
0101
0000
0001
0010
0000
0100
0000
0010
0000
0001
0000
0100
0010
0000
1000
0001
,
1000
0000
0100
0010
0000
0100
0000
1000
0000
0010
0000
1010
0000
0000
0101
0000
,
0001
0100
0000
0010
0000
0100
0000
0001
0000
0010
0000
0100
1000
0001
1000
0001
,
1000
0010
0000
0100
0000
0010
0000
1000
0000
0001
0000
0010
0100
1000
0010
0100
,
0001
0100
0000
0010
0000
1000
0000
0100
0000
0010
0000
0001
1000
0100
0010
0001
,
1000
0001
0000
0011
0000
0110
0000
1100
0000
1001
0000
1000
0001
0000
0000
0000
;

//--------------- dance-double - OrangeRight ----------------
#NOTES:
     dance-double:
     OrangeRight:
     Easy:
     7:
     0,0,0,0,0:
00000000
00000000
00000000
00000000
,
00000000
00000000
00000000
00000000
,
00000000
00000000
00000000
00000000
,
00000000
00000000
00000000
00000000
,
00000000
00000000
00000000
00000000
,
20000000
00000000
30000000
00000000
,
00020000
00000000
00030000
00000000
,
02000000
00000000
03000000
00000000
,
00200000
00000000
00300000
00000000
,
10000000
00000000
00010000
00000000
01000000
00000000
00001000
00010000
,
00001000
00000000
00010000
00001000
,
00010000
00000100
00001000
00000010
,
00000100
00000000
00000001
00001000
,
00000001
00000000
00001000
00000000
00000010
00000000
00010000
00001000
,
00010000
00000000
00001000
00010000
,
00001000
00100000
00010000
01000000
,
00100000
00000000
10000000
00010000
,
10000000
01000000
00100000
00010000
,
01000000
00000000
01000000
00000000
,
00010000
01000000
00001000
00010000
,
00000100
00000000
00000100
00000000
,
00001000
00000100
00000010
00000001
,
00000100
00000000
00000100
00000000
,
00000001
00000100
00000010
00001000
,
00000100
00000000
00010000
00001000
,
00010000
00000000
00010000
00001000
,
01000000
00000000
00010000
01000000
,
00001000
00000000
00010000
00000100
,
00001000
00000000
00001000
00001000
,
00000001
00001000
00001000
00000001
,
00000100
00000010
00000010
00001000
,
00000100
00010000
00010000
00000100
,
00010000
00001000
00100000
00010000
,
10000000
00100000
01000000
00010000
,
10000000
01000000
00100000
00010000
,
00100000
00001000
00010000
00000100
,
00010000
00001000
01000000
00001000
,
00010000
00000100
00001000
00000010
,
00000100
00000001
00000010
00000100
,
00001000
00000001
00001000
00000001
,
00001001
00000000
00000110
00000000
,
00000002
00000000
00000103
00000000
,
00000200
00000000
00000310
00000000
,
00000020
00000000
00001030
00000000
,
00002000
00000000
00003100
00000000
,
00000100
00010000
00001000
01000000
,
00010000
01000000
00010000
00010000
,
00100000
00001000
00010000
00000010
,
00001000
00000010
00001000
00000001
,
00001000
00000000
00000100
00000000
00001000
00001000
00001000
00000000
,
00000001
00000000
00000100
00000000
00000001
00000001
00000001
00000000
,
00001000
00000100
00010000
00001000
,
00100000
00010000
01000000
00100000
,
10000000
00000000
00010000
00000000
01000000
01000000
01000000
00000000
,
00010000
00000000
10000000
00000000
01000000
01000000
01000000
00000000
,
10000000
00000000
00010000
00000000
10000000
00010000
10000000
00000000
,
00100000
00000000
01000000
00000000
00100000
01000000
00100000
00000000
,
10000000
01000000
01000000
10000000
,
00010000
01000000
01000000
00010000
,
00100000
00001000
00001000
00010000
,
00000100
00000000
00000000
00010000
00000000
00001000
00000000
00010000
00000000
00001000
00000000
00000000
01000000
00000000
00000000
00000000
;

//--------------- dance-double - OrangeRight ----------------
#NOTES:
     dance-double:
     OrangeRight:
     Medium:
     10:
     0,0,0,0,0:
00000000
00000000
00000000
00000000
,
00000000
00000000
00000000
00000000
,
00000000
00000000
00000000
00000000
,
00000000
00000000
00000000
00000000
,
00000000
00000000
00000000
00000000
,
10000000
00000000
00000000
10000000
00000000
00000000
20000000
00000000
00000000
00000000
00000000
00000000
30000000
00000000
00000000
00000000
,
00010000
00000000
00000000
00010000
00000000
00000000
00020000
00000000
00000000
00000000
00000000
00000000
00030000
00000000
00000000
00000000
,
01000000
00000000
00000000
01000000
00000000
00000000
02000000
00000000
00000000
00000000
00000000
00000000
03000000
00000000
00000000
00000000
,
00001000
00000000
00000000
00010000
00000000
00000000
00001000
00000000
00020000
00000000
00000000
00000000
00032000
00000000
00000000
00000000
,
00103000
00010000
00100000
00000000
00001000
00000000
00010000
00000100
,
00001000
00000100
00010000
00001000
,
01000000
00010000
01000000
00000000
00001000
00000000
00010000
00001000
,
00010000
00000100
00001000
00001010
,
00000010
00001000
00000010
00000000
00010000
00000000
00001000
01000000
,
00010000
01000000
00001000
00010000
,
00000100
00001000
00000100
00000000
00010000
00000000
00001000
00010000
,
00001000
00000000
00000000
00000000
00000000
00000000
00010000
00001000
00010000
00001000
00000000
00000000
,
00100000
00000000
00000000
00010000
00000000
00000000
01000000
00000000
00000000
00010000
00000000
00000000
00100000
00000000
00000000
00000000
,
00010000
00000000
01000000
00001000
00010000
00000100
00010000
00000000
,
00000100
00000000
00000000
00001000
00000000
00000000
00000010
00000000
00000000
00001000
00000000
00000000
00000100
00000000
00000000
00000000
,
00010000
00001000
00010000
00000000
00001000
01000000
00010000
00000000
,
10000000
00000000
00000000
00100000
00000000
00000000
01000000
00000000
00000000
00010000
00000000
00000000
00100000
00000000
00000000
00000000
,
00001000
00000000
00010000
00000100
00001000
00000010
00000100
00000000
,
00000001
00000000
00000000
00000100
00000000
00000000
00000010
00000000
00000000
00001000
00000000
00000000
00000100
00000000
00000000
00000000
,
00000010
00000000
00000000
00000000
00000000
00000000
00000000
00000000
00000001
00000000
00000000
00001000
00000000
00000000
00000001
00000000
,
00001000
00000000
00000000
00000000
00000100
00000000
00000000
00000000
00000010
00000000
00000000
00000001
00000000
00000000
00001000
00000000
,
00000001
00000100
00000010
00001001
,
00000001
00000000
00000000
00000000
00000100
00000000
00000000
00000000
00000010
00000000
00000000
00001000
00000000
00000000
00000100
00000000
,
00010000
00000000
00000000
00001000
00000000
00000000
00100000
00000000
00100000
00010000
00000000
00010000
,
10000000
00000000
00000000
00000000
01000000
00000000
00000000
00000000
00100000
00000000
00000000
00010000
00000000
00000000
10000000
00000000
,
00010000
01000000
00100000
10010000
,
00010000
00000000
00000000
00000000
01000000
00000000
00000000
00000000
00100000
00000000
00000000
10000000
00000000
00000000
01000000
00000000
,
00100000
00001000
00010000
00010100
,
00001000
00000000
00000100
00000000
00000010
00000000
00000100
00000000
00001000
00000000
00000000
00000010
00000000
00000000
00000100
00000000
,
00000010
00001000
00000100
00010000
00001000
00000000
00011000
00000000
,
00001000
00000000
00100000
00000000
00010000
00000000
00100000
00000000
00001000
00000000
00000000
01000000
00000000
00000000
00010000
00000000
,
10000000
00100000
01000000
00010000
10000000
00000000
10010000
00000000
,
10000000
00000000
01000000
00000000
00100000
00000000
00010000
00000000
10000000
00000000
00000000
01000000
00000000
00000000
00100000
00000000
,
00010000
01000000
00100000
10000000
00010000
00000000
01100000
00000000
,
00100000
01000000
00010000
10000000
01000000
00100000
00010000
10000000
,
00010000
00000000
01000000
00000000
00100000
00000000
10000000
00000000
01000000
00000000
00100000
00000000
,
00020000
01000000
00000000
01000000
,
00230000
00001000
00000000
00001000
,
00302000
00010000
00000000
00010000
,
00023000
00000100
00000000
00030100
,
00010000
00000000
00000100
00000000
00001000
00000010
00001000
00000000
,
00000100
00000000
00010000
00000000
00001000
01000000
00001000
00000000
,
00010000
00000000
00001000
00000000
00100000
00010000
01000000
00000000
,
00010000
00000000
10000000
00000000
00010000
00000000
00000000
10000000
00000000
00010000
00000000
10000000
00000000
00000000
00000000
00000000
,
00010000
01000000
00010000
00000000
00100000
00010000
00100000
00000000
,
00001000
00100000
00001000
00000000
00010000
00000100
00001000
00000010
,
00000100
00000000
00000001
00001000
00000001
00000010
00000100
00000000
,
00001000
00000000
00000100
00000000
00000010
00000000
00000001
00000000
00000100
00000000
00000000
00000010
00000000
00000000
00000010
00000000
,
00001000
00000100
00001000
00000000
00000010
00001000
00000010
00000000
,
00010000
00000010
00010000
00000000
00001000
01000000
00010000
00100000
,
01000000
10000000
00010000
00100000
01000000
10000000
00010000
00100000
,
01000000
00000000
10000000
00000000
00100000
00000000
01000000
00000000
00010000
00000000
00000000
10000000
00000000
00000000
00010000
00000000
,
10000000
00000000
00000000
01000000
00000000
00100000
00000000
00010000
00000000
01000000
00000000
00000000
00010000
00000000
00000000
00000000
,
00100000
00000000
00000000
00001000
00000000
00010000
00000000
00000100
00000000
00001000
00000000
00000000
00000010
00000000
00000000
00000000
,
00001000
00000000
00000000
00000001
00000000
00001000
00000000
00000001
00000000
00001000
00000000
00000000
00000001
00000000
00000000
00000000
,
00000100
00000010
00000000
00000001
00000000
00000100
00000000
00000010
00000000
00001000
00000000
00000100
00000010
00000000
00000000
00000000
;

//--------------- dance-double - OrangeRight ----------------
#NOTES:
     dance-double:
     OrangeRight:
     Hard:
     13:
     0,0,0,0,0:
00000000
00000000
00000000
00000000
,
00000000
00000000
00000000
00000000
,
00000000
00000000
00000000
00000000
,
00000000
00000000
00000000
00000000
,
00000000
00000000
00000000
00000000
,
10000000
00000000
00000000
01000000
00000000
00000000
20000000
00000000
00000000
00000000
00000000
00000000
30010000
00000000
00000000
00000000
,
00010000
00000000
00000000
01000000
00000000
00000000
00010000
00000000
00000000
00000000
00000000
01000000
00000000
00000000
00001000
00000000
,
00010000
00000000
00000000
00000100
00000000
00000000
00020000
00000000
00000000
00000000
00000000
00000000
00030000
00000000
00000000
00000000
,
00001000
00000000
00000000
01000000
00000000
00000000
00001000
00000000
00020000
00000000
00000000
00000000
00032000
00000000
00000000
00000000
,
01003000
00010000
01000000
00001000
00010000
00000100
00001000
00001100
,
00010100
00000000
00010000
00001000
00010000
00000010
00001000
00000000
,
00001010
00000000
00001000
00000000
00000010
00000000
00010000
00000000
00001000
00000000
01000000
00000000
00010000
00100000
00000000
00000000
,
00110000
00000000
00010000
01000000
00100000
10000000
10010000
00000000
,
00110000
00010000
00100000
00001000
00010000
00000010
00001000
00001010
,
00010010
00000000
00010000
00001000
00010000
00000100
00001000
00000000
,
00001100
00000000
00000100
00000000
00010000
00000000
00001000
00000000
00100000
00000000
00010000
00000000
01000000
00010000
00000000
00000000
,
20020000
00000000
00000000
30030000
00000000
00000000
10000000
01000000
00100000
00010000
00000000
00000000
,
10000000
00000000
10000000
00010000
00000000
00010000
01000000
00000000
01000000
00001000
00000000
00001000
00010000
00000000
00000100
00000000
,
00001000
00000010
00000100
00000001
00001000
00000001
00000010
00000000
,
00000001
00000000
00000001
00001000
00000000
00001000
00000100
00000000
00000100
00010000
00000000
00010000
00001000
00000000
01000000
00000000
,
00010000
00100000
01000000
10000000
00100000
01000000
00010000
10000000
,
00010000
00000000
00010000
00100000
00000000
00100000
00001000
00000000
00001000
00010000
00000000
00010000
00000100
00000000
00001000
00000000
,
00000010
00000100
00000001
00000010
00000100
00001000
00000100
00010000
,
00001000
00000000
00001000
00100000
00000000
00100000
00010000
00000000
00010000
01000000
00000000
01000000
00100000
00000000
10000000
00000000
,
20020000
00000000
00000000
00000000
30030000
00000000
00000000
00000000
10010000
00000000
00000000
01100000
00000000
00000000
10010000
00000000
,
10000000
00000000
01000000
00000000
00100000
00000000
00010000
00000000
10000000
00000000
01000000
00100000
00000000
00010000
01000000
00000000
,
00001000
00100000
00001000
00010000
00000100
00001000
00001010
00000000
,
00001000
00000000
00000100
00000000
00000010
00000000
00000001
00000000
00001000
00000000
00000100
00000010
00000000
00000001
00000100
00000000
,
00000010
00000000
00000000
00000100
00000000
00000000
00000001
00000000
00000000
00001000
00000000
00000000
00000001
00000000
00000100
00000000
00000001
00000000
00001000
00000000
00000010
00000000
00001000
00000000
,
00000001
00000000
00000100
00000000
00000010
00000000
00001000
00000000
00000001
00000000
00000010
00000100
00000000
00001000
00000010
00000000
,
00000100
00000010
00001000
00000100
00010000
00001000
00101000
00000000
,
00010000
00000000
00100000
00000000
01000000
00000000
10000000
00000000
00010000
00000000
01000000
00100000
00000000
10000000
00010000
00000000
,
10000000
01000000
00100000
00010000
10000000
00010000
10010000
00000000
,
10000000
00000000
00100000
01000000
00000000
00010000
00000000
00100000
00000000
01000000
00000000
10000000
00000000
00100000
00000000
01000000
,
00010000
00000000
00100000
00001000
00000000
00010000
00000000
00000100
00000000
00001000
00000000
00000010
00000000
00000100
00000000
00000001
,
00001000
00000000
00000010
00000100
00000000
00000001
00000000
00000010
00000000
00000100
00000000
00001000
00000000
00000010
00000000
00001000
,
00000100
00000000
00010000
00001000
00000000
00100000
00000000
00010000
00000000
01000000
00000000
00100000
00000000
10000000
00000000
00010000
,
10000000
00000000
01000000
00100000
00000000
00010000
00000000
01000000
00000000
10000000
00000000
01000000
00000000
00010000
00000000
00100000
,
00001000
00000000
00010000
00000100
00000000
00001000
00000000
00000010
00000000
00000001
00000000
00000010
00000000
00001000
00000000
00000001
,
00001000
00000000
00000001
00000100
00000000
00000010
00000000
00001000
00000000
00000100
00000000
00000001
00000000
00000100
00000000
00010000
,
00001000
00010000
00001000
00000000
00100000
00010000
01000000
00100000
10000000
00000000
00010000
10000000
,
10020000
01000000
00100000
10000000
,
02030000
10000000
00010000
00100000
,
03020000
00100000
10000000
01000000
,
00230000
00000000
00000000
00000000
10000000
00000000
00000000
00000000
00310000
00000000
00000000
01010000
00000000
00000000
10100000
00000000
,
10000000
00000000
00000000
01000000
00100000
00000000
00010000
00000000
01000000
00010000
00000000
01000000
00010000
00000000
00000000
00000000
,
00100000
00000000
00000000
00001000
00010000
00000000
00000100
00000000
00001000
00000100
00000000
00001000
00000100
00000000
00000000
00000000
,
00000010
00000000
00000000
00000010
00000001
00000000
00000100
00000000
00000010
00001000
00000000
00000001
00000100
00000000
00000000
00000000
,
00000010
00000000
00000100
00000010
00000000
00000100
00000000
00000001
00000000
00001000
00000000
00000001
00001000
00000001
00001000
00000000
,
00001001
00000000
00000100
00000000
00000010
00000000
00001000
00000000
00000100
00001000
00000000
00000010
00001000
00000000
00000100
00000000
,
00010000
00000000
00001000
00000000
00100000
00000000
00010000
00000000
01000000
00100000
00000000
10000000
00010000
00000000
01100000
00000000
,
10010000
00000000
01000000
00000000
00100000
00000000
00010000
00000000
01000000
00010000
00000000
00100000
00010000
00000000
01000000
00000000
,
00001000
00000000
00010000
00000000
00000010
00000000
00001000
00000000
00000100
00000010
00000000
00000110
00000000
00000000
00001001
00000000
,
00000101
00000000
00000001
00000000
00000010
00000000
00001000
00000000
00010000
00100000
00000000
00100000
10000000
00000000
00010000
00000000
,
10000000
00000000
01000000
00000000
00010000
00000000
00001000
00000000
00000100
00000001
00000000
00000001
00000010
00000000
00000110
00000000
,
00000011
00000000
00000001
00000000
00000100
00000000
00001000
00000000
00010000
01000000
00000000
01000000
10000000
00000000
00100000
00000000
,
01000000
00000000
00010000
00000000
00100000
00000000
01000000
00000000
10000000
00010000
00000000
10010000
00000000
00000000
01100000
00000000
,
10000000
00010000
00000000
01000000
00000000
00001000
00000000
00010000
00000000
00000100
00000000
00001000
00000010
00000100
00000010
00000100
,
00000010
00001000
00000000
00000100
00000000
00010000
00000000
00001000
00000000
00100000
00000000
00010000
01000000
00010000
00100000
00001000
,
00010000
00000100
00000000
00001000
00000000
00000100
00000000
00010000
00000000
00001000
00000000
00100000
00010000
01000000
00001000
00010000
,
00000100
00001000
00000000
00001100
00000000
00010100
00000000
00011000
00000000
01001000
00000000
01000000
00010000
00000000
00000000
00000000
;
