#TITLE:ANDROMEDA;
#SUBTITLE:;
#ARTIST:Sota Fujimori;
#TITLETRANSLIT:;
#SUBTITLETRANSLIT:;
#ARTISTTRANSLIT:;
#GENRE:;
#CREDIT:;
#MUSIC:ANDROMEDA.ogg;
#BANNER:;
#BACKGROUND:;
#CDTITLE:;
#SAMPLESTART:64.363;
#SAMPLELENGTH:12.000;
#SELECTABLE:YES;
#OFFSET:1.237;
#BPMS:0.000=150.000;
#STOPS:;
#BGCHANGES:;
#FGCHANGES:;

//--------------- dance-single - OrangeRight ----------------
#NOTES:
     dance-single:
     OrangeRight:
     Beginner:
     4:
     0,0,0,0,0:
0000
0000
0000
0000
,
0000
0000
0000
0000
,
0000
0000
0000
0000
,
0000
0000
0000
0000
,
0000
0000
0000
0000
,
1000
0000
1000
0000
,
0001
0000
0001
0000
,
1000
0000
0001
0000
,
1001
0000
1000
0001
,
1000
0000
0100
0000
,
0010
0000
0100
0100
,
1000
0000
0010
0000
,
0100
0000
0001
1000
,
0001
0000
0100
0000
,
0010
0000
0100
0100
,
0001
0000
1000
0000
,
1001
0000
1000
1000
,
1000
0000
0100
0000
,
1000
0000
0001
1000
,
0001
0000
0010
0000
,
0001
0000
1000
0001
,
1000
0000
0001
0000
,
0010
0000
0100
1000
,
0001
0000
0100
0000
,
0010
0000
1000
0100
,
0010
0000
0010
0000
,
0100
0000
1000
0001
,
0100
0000
0100
0000
,
0010
0000
1000
0001
,
1000
0000
0100
0000
,
1000
0000
0010
0100
,
0001
0000
1000
0000
,
1001
0000
0001
0001
,
0002
0000
0003
0000
,
2000
0000
3000
0000
,
0001
0000
0001
0000
,
1000
0000
1000
0000
,
2000
0000
3000
0000
,
0002
0000
0003
0000
,
1000
0000
0001
0000
,
1001
0000
1000
0001
,
1000
0000
0100
0000
,
0010
0000
0001
0100
,
0001
0000
0100
0000
,
0010
0000
1000
0100
,
1000
0000
0010
0000
,
0100
0000
0001
1000
,
0001
0000
0100
0000
,
0010
0000
1000
0001
,
1000
0000
0010
0000
,
0100
0000
0010
1000
,
0100
0000
0010
0000
,
0001
0000
1000
1000
,
0001
0000
0010
0000
,
0100
0000
0010
0001
,
0100
0000
0010
0000
,
0110
0000
0000
0000
,
1000
0000
1000
0000
,
0001
0000
0001
0000
,
0100
0000
0010
0000
,
1000
0000
0001
0000
,
1000
0000
1000
0000
,
0100
0000
0100
0000
,
0010
0000
0001
0000
,
1001
0000
0000
0000
,
1000
0000
1000
1000
,
0001
0000
0001
0001
,
0100
0000
0100
0100
,
0010
0000
0010
0010
,
1000
0000
1000
1000
,
0100
0000
0100
0100
,
0010
0000
0010
0010
,
0001
1000
0001
1000
,
0001
0000
0001
0001
,
0100
0000
0100
0010
,
0100
0000
0100
0100
,
0001
0000
1000
0001
,
1000
0000
1000
1000
,
0100
0000
0010
0100
,
0010
0000
0010
0010
,
0002
0003
2000
3000
,
1001
0000
0000
0000
;

//--------------- dance-single - OrangeRight ----------------
#NOTES:
     dance-single:
     OrangeRight:
     Easy:
     6:
     0,0,0,0,0:
0000
0000
0000
0000
,
0000
0000
0000
0000
,
0000
0000
0000
0000
,
0000
0000
0000
0000
,
0000
0000
0000
0000
,
1000
0100
1000
0000
,
0001
0100
0001
0000
,
1000
0001
1000
0000
,
0002
0000
2000
3003
,
1000
0000
0001
0100
,
0001
0000
1000
0010
,
1000
0000
0001
0010
,
0001
0000
1000
0001
,
1000
0000
0010
0100
,
0010
0000
1000
0001
,
1000
0000
0100
0010
,
0200
0000
0020
0330
,
1000
0010
1000
0100
,
1000
0010
0100
0001
,
0010
0100
0010
0001
,
0100
0010
1000
0001
,
1000
0100
1000
0010
,
1000
0100
0010
0001
,
0100
0010
0100
0001
,
0010
0000
0100
0000
1000
0001
1000
0000
,
0001
0100
0010
1000
,
0010
0100
0001
0001
,
1000
0100
0010
0001
,
0010
0100
1000
1000
,
0010
0100
0010
1000
,
0001
1000
0100
0100
,
1000
0001
0100
0010
,
0200
0000
0020
0330
,
2000
0001
0000
3001
,
0002
1000
0000
1003
,
1000
0001
0100
0010
,
1000
0100
1000
1000
,
0002
0100
0000
0103
,
2000
0100
0000
3100
,
1000
0001
1000
0001
,
2000
0000
0002
3003
,
1000
0100
1000
0010
,
0100
0001
0020
0230
,
2300
0100
0000
3100
,
0100
0010
0001
0100
,
0001
1000
0001
0010
,
0100
1000
0002
2003
,
3002
0010
0000
0103
,
0001
0100
0010
1000
,
0001
0010
0001
0100
,
0010
1000
0200
0320
,
0032
0010
0000
0013
,
0010
0100
1000
0010
,
1000
0001
1000
0100
,
0010
0001
2000
3002
,
2003
0100
0000
3010
,
2000
0000
0200
3300
,
0020
0100
0000
0130
,
0002
1000
0203
0320
,
1030
0100
0001
0100
,
1000
0010
0100
0001
,
0200
0010
0000
0310
,
0002
1000
2003
3002
,
1003
0010
0001
0010
,
2002
0000
3003
1001
,
1000
0100
0001
0100
,
1000
0010
0200
0320
,
1030
0100
0010
0001
,
0100
0000
0010
0000
1000
1000
1000
0000
,
0001
0010
1000
0010
,
0001
0100
0002
2003
,
3001
0100
0010
1000
,
0100
0000
0010
0000
0001
0001
0001
0000
,
1000
1000
0001
0100
,
0001
0001
0200
0320
,
1030
1000
0001
1000
,
0001
0100
0001
0000
1000
0100
1000
0000
,
0001
0001
1000
0010
,
1000
1000
0002
2003
,
3001
0010
0001
0000
1000
0010
1000
0000
,
0001
1000
0001
1000
0001
1000
0001
0000
,
2002
0000
0000
0000
,
3003
0000
0000
0000
;

//--------------- dance-single - OrangeRight ----------------
#NOTES:
     dance-single:
     OrangeRight:
     Medium:
     11:
     0,0,0,0,0:
0000
0000
0000
0000
,
0000
0000
0000
0000
,
0000
0000
0000
0000
,
0000
0000
0000
0000
,
0000
0000
0000
0000
,
1000
0100
1000
0000
0010
0100
0001
0000
,
0010
0001
0010
0000
0100
1000
0001
0000
,
1000
0010
0100
0000
0001
0010
0100
0000
,
2002
0000
3003
0000
1000
0001
1000
0000
,
0001
0000
0000
1000
0000
0000
0001
0000
1000
0000
0000
0000
1000
0000
0100
0000
,
1000
0000
0000
0001
0000
0000
1000
0000
0001
0000
0000
0000
0001
0000
0010
0000
,
0001
0000
0000
0100
0000
0000
0001
0000
0010
0000
0000
0000
0010
0000
0100
0000
,
1000
0000
0000
0010
0000
0000
1000
0000
0100
0000
0000
0000
0100
0000
0010
0000
,
0001
0000
0000
0100
0000
0000
0001
0000
1000
0000
0000
0000
1000
0000
0010
0000
,
1000
0000
0000
0100
0000
0000
1000
0000
0001
0000
0000
0000
0001
0000
0010
0000
,
0001
0000
0000
1000
0000
0000
0001
0000
0100
0000
0000
0000
0100
0000
0010
0000
,
0220
0000
0330
0000
0010
0100
0010
0000
,
1000
0100
1000
0000
0010
0100
0001
1000
,
0001
0010
0001
0000
0001
1000
0001
0000
,
1000
0010
1000
0000
0100
0010
0001
1000
,
0001
0100
0001
0000
1000
0001
1000
0000
,
0001
0010
0001
0000
0100
0010
1000
0001
,
1000
0100
1000
0000
1000
0001
1000
0000
,
0001
0100
0001
0000
0010
0100
1000
0001
,
1000
0100
1000
0010
0100
0001
0010
0001
,
0100
0010
0100
0000
0001
1000
0001
0010
,
0100
0010
0100
0000
1000
0001
1000
0010
,
0100
0001
0100
0000
0010
1000
0001
0010
,
0100
1000
0100
0000
0100
0010
0100
0000
,
0010
0100
0010
0000
0001
1000
0001
0100
,
0010
0100
0010
0000
1000
0001
1000
0100
,
0010
0001
0010
0000
0001
1000
0001
1000
,
2002
0000
0000
0000
3003
0000
0000
0000
1001
0000
0000
1001
0000
0000
1001
0000
,
2000
3100
0200
0310
,
0020
0031
0002
1003
,
1000
0000
0000
0100
0000
0000
1000
0000
0100
0000
0000
0010
0000
0000
0100
0000
,
0010
0000
0000
0001
0000
0000
0010
0000
0001
0000
1000
0000
0001
0000
0000
0000
,
0002
0103
0200
0310
,
0020
1030
2000
3001
,
0001
0100
0010
1000
0100
0010
0001
0000
,
2002
0000
3003
0000
0001
1000
0001
0000
,
1000
0100
1000
0000
0010
0100
0010
0000
,
1000
0001
1000
0000
0020
0000
0230
0000
,
0301
0000
0000
0100
0000
0000
0001
0000
1000
0000
0000
0100
0000
0000
1000
0000
,
0001
0000
0000
0010
0000
0000
0001
0000
1000
0000
0010
0000
1000
0000
0000
0000
,
0001
0010
0001
0000
0100
0010
0100
0000
,
0001
1000
0001
0000
2000
0000
3002
0000
,
1003
0100
0010
0000
0001
0100
0010
0000
,
1000
0001
0100
0010
1000
0100
1000
0000
,
0001
0010
0001
0000
0100
0010
0100
0000
,
0001
1000
0001
0000
0020
0000
0230
0000
,
1300
0000
0000
0100
0000
0000
0010
0000
0001
0000
0000
0100
0000
0000
0001
0000
,
0010
0000
0000
0100
0000
0000
1000
0000
0001
0000
1000
0000
0010
0000
0000
0000
,
1000
0010
1000
0000
0100
0010
0100
0000
,
1000
0001
1000
0000
0002
0000
2003
0000
,
3001
0010
0100
0000
1000
0010
0100
0000
,
2002
0000
3003
0000
0001
1000
0001
0000
,
1000
1100
0100
0110
,
0010
0011
0020
0230
,
1300
0000
0000
0100
0000
0000
1000
0000
0010
0000
0000
0010
0000
0000
0100
0000
,
0001
0000
0000
0100
0000
0000
0001
0000
0010
0000
0100
0000
0010
0000
0000
0000
,
0001
0011
1000
1100
,
0001
0101
2000
3002
,
1003
0100
0010
0001
1000
0001
0100
0000
,
2002
0000
0000
0000
0000
0000
0000
0000
3003
0000
0000
0000
0001
1000
0000
0000
,
0001
0100
1000
0000
1000
0100
0001
0000
,
0001
0100
0010
1000
0200
0000
0320
0000
,
0031
0100
0010
0000
0010
1000
0100
0000
,
0010
0001
0100
0010
1000
0001
1000
0000
,
1000
0100
0001
0000
0001
0100
1000
0000
,
1000
0100
0010
0001
2000
0000
3002
0000
,
1003
0100
0010
0000
0010
0001
0100
0000
,
0001
1000
0100
0010
0001
1000
0010
0100
,
0001
0100
1000
0100
0001
0000
0001
0000
,
1000
0100
0001
0100
2000
0000
3002
0000
,
1003
0010
0001
0010
1000
0000
1000
0000
,
0001
0010
1000
0010
0001
1000
0001
0000
,
1000
0100
0001
0100
1000
0000
1000
0000
,
0001
0100
1000
0100
0002
0000
2003
0000
,
3001
0100
0010
1000
0100
0010
0001
0100
,
1000
0100
0010
0100
0001
0010
0100
0000
,
0220
0000
0000
0000
,
0330
0000
0000
0000
;

//--------------- dance-single - OrangeRight ----------------
#NOTES:
     dance-single:
     OrangeRight:
     Hard:
     15:
     0,0,0,0,0:
0000
0000
0000
0000
,
0000
0000
0000
0000
,
0000
0000
0000
0000
,
0000
0000
0000
0000
,
0000
0000
0000
0000
,
1000
0000
0100
0000
0010
0000
0100
0000
1000
0000
0010
0100
0000
0000
0001
0000
,
0010
0000
0100
0000
0010
0000
0001
0000
0100
0000
0001
1000
0000
0000
0100
0000
,
1000
0000
0010
0000
0100
0000
0001
0000
1000
0000
0001
0010
0000
0000
0001
0000
,
2002
0000
0000
0000
3003
0000
0000
0000
1000
0001
1000
0001
1000
0000
0000
0000
,
1000
0000
0000
1000
0100
0000
0010
0000
0001
0000
0100
0000
0010
0100
0000
0000
,
0001
0000
0000
0001
0100
0000
0010
0000
1000
0000
0100
0000
1000
0001
0000
0000
,
1000
0000
0000
1000
0010
0000
0100
0000
0001
0000
0010
0000
0100
0010
0000
0000
,
0001
0000
0000
0001
0010
0000
0100
0000
1000
0000
0010
0000
1000
0001
0000
0000
,
0100
0000
0000
0010
0100
0000
0001
0000
1000
0000
0100
0000
0010
0100
0000
0000
,
0010
0000
0000
0100
0010
0000
0001
0000
1000
0000
0100
0000
1000
0001
0000
0000
,
0010
0000
0000
0100
0010
0000
0001
0000
0100
0000
1000
0000
0100
0001
0000
0000
,
2002
0000
0000
0000
3003
0000
0000
0000
0100
0010
0100
0010
0100
0000
0000
0000
,
1000
0100
0000
1000
0100
0000
0010
0000
0001
0000
0100
0000
0010
0000
1000
0000
,
0001
0010
0000
0001
0010
0000
0100
0000
1000
0000
0001
0000
1000
0000
0010
0000
,
1000
0001
0000
1000
0001
0000
0010
0000
0100
0000
0010
0000
0001
0000
1000
0000
,
0001
0100
0000
0010
1000
0000
0100
0000
0001
0000
0100
0000
1000
0010
1000
0000
,
0001
1000
0000
1000
0100
0000
0010
0000
0001
0000
0100
0000
0010
0000
1000
0000
,
0001
0010
0000
0010
0100
0000
1000
0000
0010
0000
0100
0000
0001
0000
0010
0000
,
0001
1000
0000
1000
0001
0000
0010
0000
1000
0000
0010
0000
0001
0000
1000
0000
,
0001
0100
0001
0000
0010
0000
0100
0000
1000
0001
1000
0000
0100
0010
0100
0000
,
1000
0010
0000
1000
0100
0000
0010
0000
0001
0000
0100
0000
0010
0000
1000
0000
,
0001
0100
0000
0001
0010
0000
0100
0000
1000
0000
0001
0000
1000
0000
0010
0000
,
1000
0001
0000
0010
0001
0000
0100
0000
0010
0000
0100
0000
0001
0000
1000
0000
,
0001
0010
0000
0100
1000
0000
0010
0000
0001
0000
0010
0000
1000
0100
1000
0000
,
0001
1000
0000
1000
0010
0000
0100
0000
0001
0000
0010
0000
0100
0000
0010
0000
,
0001
0100
0000
0100
0010
0000
1000
0000
0100
0000
0010
0000
0100
0000
1000
0000
,
0001
1000
0000
1000
0001
0000
0100
0000
1000
0000
0100
0000
0001
0000
1000
0000
,
2002
0000
0000
0000
3003
0000
0000
0000
1001
0000
0000
0110
0000
0000
1001
0000
,
2000
0100
3020
0100
,
2030
0001
3200
0001
,
1300
0000
0000
1000
0010
0000
0100
0000
0001
0000
0000
0001
0010
0000
0100
0000
,
1000
0000
0000
0001
1000
0000
0010
0000
0100
0010
0000
0100
0010
0000
1000
0000
,
0002
0010
0203
0010
,
0302
1000
0023
1000
,
0031
0100
1000
0100
0001
0010
0100
1000
,
2002
0000
0000
0000
3003
0000
0000
0000
0001
0010
0100
1000
0001
0000
0000
0000
,
1000
0100
1000
0000
0010
0000
0100
0000
0001
0000
0010
0000
1000
0000
0010
0000
,
0001
0100
0001
0000
0010
0000
0100
0000
2000
0000
0100
0000
3002
0000
0100
0000
,
1003
0000
0010
1000
0000
0000
0100
0000
0010
0000
0001
1000
0000
0000
0100
0000
,
0010
0000
0001
0100
0000
0000
0010
0000
1000
0001
0000
1000
0001
0000
1000
0000
,
0001
0010
0001
0000
0100
0000
0010
0000
1000
0000
0100
0000
0001
0000
0100
0000
,
1000
0010
1000
0000
0001
0000
1000
0000
0020
0000
1000
0000
0230
0000
0001
0000
,
0301
0010
0001
0000
0100
0000
0010
0000
1000
0000
0100
0000
0001
0000
0100
0000
,
1000
0010
1000
0000
0100
0000
0010
0000
0001
0000
0100
0000
0101
0000
0000
0000
,
0001
0010
0001
0000
0100
0000
0010
0000
1000
0000
0100
0000
0001
0000
0100
0000
,
1000
0010
1000
0000
0100
0000
0010
0000
0002
0000
0010
0000
2003
0000
0010
0000
,
3001
0000
0100
0001
0000
0000
0010
0000
0100
0000
1000
0001
0000
0000
0010
0000
,
0100
0000
1000
0010
0000
0000
0100
0000
0001
1000
0000
0010
0100
0000
0001
0000
,
1000
0100
1000
0000
0010
0000
0100
0000
0001
0000
0010
0000
1000
0000
0010
0000
,
0001
0100
0001
0000
1000
0000
0001
0000
0200
0000
0001
0000
0320
0000
1000
0000
,
1030
0001
1000
0000
0001
0000
0010
0000
0100
0010
0100
0000
1000
0000
0001
0000
,
2002
0000
0000
0000
3003
0000
0000
0000
1000
0001
0100
0010
1000
0000
0000
0000
,
1000
0100
1100
0000
0001
0100
0101
0000
,
1000
0010
1010
0000
1020
0000
0230
0000
,
0301
0000
0100
0001
0000
0000
1000
0000
0100
0000
0010
0100
0000
0000
1000
0000
,
0001
0000
0100
0010
0000
1000
0001
0000
1000
0100
0000
0010
0001
1000
0001
0000
,
0010
0001
0011
0000
1000
0010
1010
0000
,
0100
0001
0101
0000
2000
0100
3002
0010
,
1003
0010
1000
0000
0001
0000
0010
0000
0001
0100
0001
0000
1000
0000
0100
0000
,
2002
0000
0000
0000
0000
0000
0000
0000
3003
0000
0000
0000
0001
0001
0000
0000
,
1000
0100
1000
0000
0001
0000
0100
0000
1000
0000
0100
0000
0010
0000
1000
0000
,
0100
0010
0100
0000
1000
0000
0010
0000
0200
0000
0001
0000
0320
0000
1000
0000
,
0130
0000
0001
0100
0000
0010
1000
0000
0100
0000
0010
0001
0000
1000
0100
0000
,
0010
0000
0100
1000
0000
0001
0100
0000
0001
1000
0000
0001
1000
0000
0001
0000
,
1000
0010
1000
0000
0001
0000
0010
0000
1000
0000
0010
0000
0100
0000
1000
0000
,
0010
0100
0010
0000
1000
0000
0001
0000
2000
0000
0100
0000
3002
0000
0010
0000
,
1003
0010
0100
0000
0001
0000
0010
0000
0001
0100
0010
0000
1000
0000
0100
0000
,
1000
0001
0100
0000
0001
1000
0100
0000
1000
0100
0010
0001
1000
0010
1000
0000
,
0001
0010
0001
0000
1000
0000
0010
0000
0001
0000
0010
0000
0100
0000
0001
0000
,
0010
0100
0010
0000
0001
0000
0100
0000
0020
0000
1000
0000
0230
0000
0001
0000
,
0310
0000
1000
0010
0000
0100
0001
0000
0010
0000
0100
1000
0000
0001
0010
0000
,
0100
0000
0010
0001
0000
1000
0010
0000
1000
0001
0000
0100
0010
0000
1000
0000
,
0001
0100
0001
0000
1000
0000
0100
0000
0001
0000
0100
0000
0010
0000
0001
0000
,
0100
0010
0100
0000
0001
0000
1000
0000
0002
0000
0010
0000
2003
0000
0100
0000
,
3001
0010
0100
0000
1000
0000
0010
0000
1000
0100
0010
0000
0001
0000
0100
0000
,
0001
0010
0001
0010
0100
1000
0100
1000
0010
0100
0001
1000
0100
0010
0001
0000
,
2002
0000
0000
0000
,
3003
0000
0000
0000
;

//--------------- dance-double - OrangeRight ----------------
#NOTES:
     dance-double:
     OrangeRight:
     Easy:
     7:
     0,0,0,0,0:
00000000
00000000
00000000
00000000
,
00000000
00000000
00000000
00000000
,
00000000
00000000
00000000
00000000
,
00000000
00000000
00000000
00000000
,
00000000
00000000
00000000
00000000
,
10000000
00100000
10000000
00000000
,
00010000
01000000
00010000
00000000
,
00100000
00010000
00100000
00000000
,
00002000
00000000
00020000
00033000
,
00010000
00000000
00000100
00010000
,
00001000
00000000
01000000
00001000
,
00010000
00000000
00000010
00010000
,
00001000
00000000
00010000
00001000
,
00100000
00000000
00010000
01000000
,
00100000
00000000
00100000
10000000
,
01000000
00000000
10000000
00010000
,
20000000
00000000
00020000
30030000
,
10000000
01000000
10000000
00100000
,
01000000
00010000
00100000
00010000
,
01000000
00001000
00010000
00001000
,
00100000
00000000
00001000
00000000
00010000
00001000
00010000
00000000
,
00001000
00010000
00000100
00001000
,
00000010
00001000
00000100
00001000
,
00000010
00000100
00000001
00000100
,
00000010
00001000
00000001
00001000
,
00000001
00000010
00000001
00000100
,
00000010
00001000
00000001
00001000
,
00000100
00010000
00001000
00010000
,
00000100
00000000
00010000
00000000
00001000
00010000
00001000
00000000
,
00010000
00001000
00100000
00010000
,
01000000
00001000
00010000
00000100
,
00001000
00000010
00000100
00000001
,
00002000
00000000
00000002
00003003
,
00000002
00000100
00000000
00000010
,
00000000
00001000
00000000
00000103
,
00000001
00000100
00000010
00001000
,
00000100
00010000
00001000
01000000
,
00020000
00100000
00000000
01000000
,
00000000
10000000
00000000
00130000
,
01000000
10000000
00100000
01000000
,
00020000
00000000
20000000
30030000
,
10000000
00100000
01000000
00010000
,
00100000
00010000
02000000
03002000
,
00023000
00000100
00000000
00000100
,
00031000
00010000
00000100
00001000
,
00000001
00000010
00000100
00001000
,
00000100
00010000
00002000
00203000
,
00320000
01000000
00000000
01000000
,
10030000
00010000
01000000
00100000
,
10000000
01000000
00100000
00010000
,
01000000
00001000
00020000
00030200
,
00002300
00000010
00000000
00000010
,
00003100
00000010
00000001
00001000
,
00000001
00000100
00000010
00001000
,
00000100
00010000
00002000
00023000
,
00032000
00100000
00000000
00100000
,
00023000
00000000
00002000
00033000
,
00002000
00100000
00000000
00100000
,
00023000
00000100
00030200
00002300
,
00003001
00000100
00001000
00000100
,
00000010
00000000
00001000
00000000
00000100
00010000
00000100
00000000
,
00020000
00000010
00000000
00000010
,
00032000
00100000
00203000
00320000
,
10030000
00100000
00010000
00100000
,
20020000
00000000
30030000
10010000
,
10000000
01000000
00010000
01000000
,
10000000
00100000
02000000
03002000
,
00013000
00000100
00001000
00000010
,
00000100
00000000
00000001
00000000
00001000
00001000
00001000
00000000
,
00000001
00000010
00001000
00000010
,
00000001
00000100
00000020
00020030
,
00031000
00100000
00010000
01000000
,
00100000
00000000
10000000
00000000
00010000
00010000
00010000
00000000
,
10000000
00010000
10000000
00000000
00010000
00000000
01000000
00000000
,
00010000
00100000
00010000
00000000
00200000
00000000
00302000
00000000
,
00013000
00001000
00010000
00000000
00000100
00000000
00001000
00000000
,
00000010
00000000
00000100
00000000
00000001
00001000
00000001
00000000
,
00001000
00000001
00001000
00000000
00000010
00000000
00001000
00000000
,
00000100
00001000
00000100
00000000
00020000
00000000
00032000
00000000
,
01003000
00010000
01000000
00000000
00100000
10000000
00100000
00000000
,
10000000
00010000
10000000
00010000
10000000
00010000
10000000
00000000
,
20020000
00000000
00000000
00000000
,
30030000
00000000
00000000
00000000
;

//--------------- dance-double - OrangeRight ----------------
#NOTES:
     dance-double:
     OrangeRight:
     Medium:
     11:
     0,0,0,0,0:
00000000
00000000
00000000
00000000
,
00000000
00000000
00000000
00000000
,
00000000
00000000
00000000
00000000
,
00000000
00000000
00000000
00000000
,
00000000
00000000
00000000
00000000
,
10000000
00100000
10000000
00000000
00010000
00000000
00010000
00000000
,
01000000
00010000
01000000
00000000
00001000
00000000
00001000
00000000
,
00100000
00001000
00100000
00000000
00010000
00000000
00010000
00000000
,
02020000
00000000
03030000
00000000
01000000
00010000
01000000
00000000
,
00010000
00000000
00000000
00100000
00000000
00000000
00010000
00000000
01000000
00000000
00000000
00000000
00001000
00000000
00000000
00000000
,
00010000
00000000
00000000
00001000
00000000
00000000
00010000
00000000
00000100
00000000
00000000
00000000
00001000
00000000
00000000
00000000
,
00000010
00000000
00000000
00001000
00000000
00000000
00000010
00000000
00010000
00000000
00000000
00000000
00001000
00000000
00000000
00000000
,
00100000
00000000
00000000
00010000
00000000
00000000
01000000
00000000
00001000
00000000
00010000
00000000
00000100
00000000
00000000
00000000
,
00001000
00000000
00000000
00000010
00000000
00000000
00001000
00000000
00000100
00000000
00000000
00000000
00010000
00000000
00000000
00000000
,
00001000
00000000
00000000
00010000
00000000
00000000
00001000
00000000
01000000
00000000
00000000
00000000
00010000
00000000
00000000
00000000
,
00100000
00000000
00000000
00010000
00000000
00000000
00100000
00000000
00001000
00000000
00000000
00000000
00010000
00000000
00000000
00000000
,
00022000
00000000
00033000
00000000
00010000
00001000
00010000
00000000
,
00001000
00100000
00001000
00000000
00100000
00010000
00100000
00010000
,
01000000
00100000
01000000
00000000
00100000
10000000
00100000
00000000
,
10000000
00100000
10000000
00000000
00100000
01000000
00100000
01000000
,
00010000
00100000
00010000
00000000
00100000
00001000
00010000
00000100
,
00010000
00001000
00010000
00000000
00000100
00001000
00000100
00001000
,
00000010
00000100
00000010
00000000
00000100
00000001
00000100
00000000
,
00000001
00000010
00000001
00000000
00000100
00000010
00000100
00000010
,
00001000
00000100
00010000
00001000
00010000
00000100
00001000
00000000
,
00000010
00001000
00000100
00000000
00001000
00000100
00010000
00000100
,
00001000
00000010
00010000
00000000
00001000
00010000
00001000
00000000
,
00100000
00010000
01000000
00000000
00010000
01000000
00001000
01000000
,
00010000
00100000
00001000
00000000
00010000
00001000
00010000
00001000
,
01000000
00010000
00100000
00000000
00010000
00100000
00001000
00010000
,
00000100
00001000
00000010
00000000
00001000
00000100
00010000
00001000
,
00100000
00010000
01000000
00000000
00100000
10000000
01000000
00000000
,
20020000
00000000
00000000
00000000
30030000
00000000
00000000
00000000
10010000
00000000
00000000
10010000
00000000
00000000
10010000
00000000
,
20000000
31000000
02000000
03100000
,
00200000
00310000
00020000
00130000
,
00100000
00000000
00000000
00010000
00000000
00000000
00100000
00000000
00001000
00000000
00000000
00010000
00000000
00000000
00001000
00000000
,
00010000
00000000
00000000
00000100
00000000
00000000
00010000
00000000
00000100
00000000
00001000
00000000
00000100
00000000
00000000
00000000
,
00002000
00003001
00000002
00000103
,
00000200
00000310
00000020
00001030
,
00001000
00000100
00000010
00000001
00000100
00000010
00001000
00000000
,
00002002
00000000
00003003
00000000
00001000
00000001
00001000
00000000
,
00000001
00000100
00000001
00000000
00001000
00000100
00001000
00000000
,
00000100
00010000
00000100
00000000
00020000
00000000
00032000
00000000
,
01003000
00000000
00000000
00010000
00000000
00000000
01000000
00000000
00100000
00000000
00000000
10000000
00000000
00000000
00100000
00000000
,
10000000
00000000
00000000
01000000
00000000
00000000
10000000
00000000
00010000
00000000
10000000
00000000
00010000
00000000
00000000
00000000
,
10000000
01000000
10000000
00000000
00010000
01000000
00010000
00000000
,
01000000
00001000
01000000
00000000
00002000
00000000
00023000
00000000
,
00030100
00001000
00000010
00000000
00000100
00000010
00001000
00000000
,
00000100
00010000
00001000
00100000
00001000
00010000
00001000
00000000
,
00100000
00010000
00100000
00000000
00010000
01000000
00010000
00000000
,
01000000
00100000
01000000
00000000
00200000
00000000
20300000
00000000
,
30010000
00000000
00000000
00100000
00000000
00000000
01000000
00000000
10000000
00000000
00000000
00100000
00000000
00000000
01000000
00000000
,
00010000
00000000
00000000
00100000
00000000
00000000
00001000
00000000
00010000
00000000
00001000
00000000
00010000
00000000
00000000
00000000
,
00000100
00001000
00000100
00000000
00001000
00000001
00001000
00000000
,
00000010
00000100
00000010
00000000
00000200
00000000
00000302
00000000
,
00001003
00000100
00000010
00000000
00000001
00000100
00000010
00000000
,
00002002
00000000
00003003
00000000
00000100
00000010
00000100
00000000
,
00000001
00000101
00000100
00000110
,
00000010
00001010
00002000
00003200
,
00010300
00000000
00000000
00001000
00000000
00000000
00010000
00000000
00001000
00000000
00000000
01000000
00000000
00000000
01000000
00000000
,
00010000
00000000
00000000
00100000
00000000
00000000
00010000
00000000
10000000
00000000
00010000
00000000
10000000
00000000
00000000
00000000
,
00010000
00110000
00100000
01100000
,
01000000
11000000
20000000
30020000
,
01030000
00010000
00100000
01000000
10000000
00100000
01000000
00000000
,
02200000
00000000
03300000
10010000
,
10000000
01000000
00010000
00000000
00010000
01000000
10000000
00000000
,
10000000
00100000
01000000
00010000
00200000
00000000
00302000
00000000
,
00013000
00000100
00001000
00000000
00000100
00001000
00000010
00000000
,
00000100
00000010
00001000
00000100
00000010
00000001
00001000
00000000
,
00000001
00000100
00001000
00000000
00001000
00000100
00000001
00000000
,
00000001
00000010
00000100
00001000
00000020
00000000
00020030
00000000
,
00031000
00100000
00001000
00000000
00010000
00000100
00010000
00000000
,
00001000
00100000
00010000
01000000
00100000
10000000
00010000
00000000
,
10000000
00100000
00010000
00100000
10000000
00000000
00010000
00000000
,
00100000
00001000
00010000
00000100
00002000
00000000
00003020
00000000
,
00000130
00000001
00001000
00000000
00000100
00001000
00000001
00000000
,
00000010
00000001
00000100
00000010
00001000
00000001
00001000
00000000
,
00000001
00000100
00001000
00000100
00000001
00000000
00001000
00000000
,
00000100
00010000
00001000
00100000
00020000
00000000
02030000
00000000
,
03100000
01000000
00010000
00100000
10000000
00100000
00010000
01000000
,
00100000
10000000
01000000
00010000
01000000
10000000
00100000
00000000
,
02200000
00000000
00000000
00000000
,
03300000
00000000
00000000
00000000
;

//--------------- dance-double - OrangeRight ----------------
#NOTES:
     dance-double:
     OrangeRight:
     Hard:
     15:
     0,0,0,0,0:
00000000
00000000
00000000
00000000
,
00000000
00000000
00000000
00000000
,
00000000
00000000
00000000
00000000
,
00000000
00000000
00000000
00000000
,
00000000
00000000
00000000
00000000
,
10000000
00000000
00100000
00000000
10000000
00000000
00010000
00000000
01000000
00000000
00010000
00100000
00000000
00000000
00001000
00000000
,
00010000
00000000
00000100
00000000
00001000
00000000
00000010
00000000
00000100
00000000
00000001
00001000
00000000
00000000
00001000
00000000
,
00000001
00000000
00000100
00000000
00000001
00000000
00000010
00000000
00000100
00000000
00001000
00000100
00000000
00000000
00010000
00000000
,
00022000
00000000
00000000
00000000
00033000
00000000
00000000
00000000
00010000
00001000
00010000
00001000
00010000
00000000
00000000
00000000
,
00001000
00000000
00000000
00001000
00100000
00000000
00010000
00000000
01000000
00000000
00100000
00000000
10000000
00010000
00000000
00000000
,
10000000
00000000
00000000
10000000
01000000
00000000
00100000
00000000
00010000
00000000
01000000
00000000
00001000
00010000
00000000
00000000
,
00010000
00000000
00000000
00010000
00000010
00000000
00001000
00000000
00000100
00000000
00000010
00000000
00000001
00001000
00000000
00000000
,
00000001
00000000
00000000
00000001
00000100
00000000
00000010
00000000
00001000
00000000
00000100
00000000
00010000
00001000
00000000
00000000
,
00100000
00000000
00000000
00100000
00010000
00000000
01000000
00000000
00010000
00000000
00100000
00000000
00001000
00010000
00000000
00000000
,
00000010
00000000
00000000
00000010
00001000
00000000
00000100
00000000
00001000
00000000
00000010
00000000
00010000
00001000
00000000
00000000
,
01000000
00000000
00000000
00010000
00100000
00000000
10000000
00000000
00100000
00000000
00010000
00000000
10000000
00000000
00010000
00000000
,
20020000
00000000
00000000
00000000
30030000
00000000
00000000
00000000
01000000
00100000
01000000
00100000
01000000
00000000
00000000
00000000
,
10000000
01000000
00010000
01000000
10000000
00100000
01000000
00010000
,
00100000
00001000
00010000
00001000
00000100
00000010
00001000
00000100
,
00000010
00000001
00000100
00001000
00000100
00000001
00000010
00000100
,
00001000
00000100
00010000
00001000
00000100
00001000
00010000
01000000
,
10000000
00100000
00010000
00100000
10000000
01000000
00100000
00010000
,
01000000
00001000
00010000
00001000
00000010
00000100
00001000
00000010
,
00000100
00000001
00000010
00001000
00000010
00000001
00000100
00000010
,
00001000
00000001
00001000
00000000
00000010
00000000
00000100
00000000
00000001
00001000
00000001
00000000
00000100
00000010
00000100
00000000
,
00000001
00000100
00000000
00000001
00000100
00000000
00000010
00000000
00001000
00000000
00000100
00000000
00010000
00000000
00001000
00000000
,
00100000
00010000
00000000
00100000
00010000
00000000
01000000
00000000
00100000
00000000
10000000
00000000
00100000
00000000
00010000
00000000
,
00100000
10000000
00000000
00100000
10000000
00000000
01000000
00000000
00100000
00000000
00010000
00000000
01000000
00000000
00001000
00000000
,
00010000
00001000
00000000
00010000
00001000
00000000
00010000
00000000
00000100
00000000
00001000
00000000
00000100
00000000
00000001
00000000
,
00000100
00001000
00000000
00001000
00000100
00000000
00000010
00000000
00000001
00000000
00000100
00000000
00000001
00000000
00000010
00000000
,
00000001
00000100
00000000
00000100
00000010
00000000
00001000
00000000
00000100
00000000
00010000
00000000
00001000
00000000
00100000
00000000
,
00010000
01000000
00000000
01000000
00010000
00000000
10000000
00000000
00100000
00000000
01000000
00000000
00010000
00000000
10000000
00000000
,
20020000
00000000
00000000
00000000
30030000
00000000
00000000
00000000
10010000
00000000
00000000
01100000
00000000
00000000
10010000
00000000
,
20000000
01000000
30200000
00010000
,
02300000
10000000
03020000
00230000
,
00301000
00000000
00000000
00001000
00010000
00000000
00000100
00000000
00001000
00000000
00000000
00001000
00000010
00000000
00000100
00000000
,
00000001
00000000
00000000
00001000
00000001
00000000
00000010
00000000
00000100
00000010
00000000
00000010
00000100
00000000
00001000
00000000
,
00000002
00000010
00000203
00001000
,
00000320
00000001
00002030
00003200
,
00010300
00001000
00010000
00000000
00001000
00000000
00100000
00000000
00010000
01000000
00010000
00000000
10000000
00000000
00010000
00000000
,
20020000
00000000
00000000
00000000
30030000
00000000
00000000
00000000
10000000
01000000
00100000
00010000
10000000
00000000
00000000
00000000
,
00010000
01000000
00010000
00000000
00100000
00000000
00001000
00000000
00010000
00000000
00001000
00000000
01000000
00000000
00001000
00000000
,
00010000
00000100
00001000
00000010
00000200
00000010
00000320
00001000
,
00001030
00000000
00000100
00001000
00000000
00000000
00000100
00000000
00010000
00000000
00001000
00010000
00000000
00000000
00001000
00000000
,
00100000
00000000
00010000
01000000
00000000
00000000
00100000
00000000
10000000
00010000
00000000
10000000
00010000
00000000
10000000
00000000
,
00010000
00100000
00010000
00000000
01000000
00000000
00001000
00000000
00010000
00000000
00001000
00000000
00100000
00000000
00001000
00000000
,
00010000
00000010
00001000
00000100
00000020
00000100
00000230
00001000
,
00001300
00000010
00001000
00000000
00000100
00000000
00010000
00000000
00001000
00010000
00001000
00000000
00010000
00000000
00000100
00000000
,
00001000
00000010
00000001
00000010
00001000
00000001
00001001
00000000
,
00001000
00000010
00001000
00000000
00000100
00000000
00010000
00000000
00001000
00000000
00010000
00000000
00000010
00000000
00010000
00000000
,
00001000
00100000
00010000
01000000
00200000
01000000
02300000
00010000
,
03010000
00000000
00100000
00010000
00000000
00000000
00100000
00000000
00001000
00000000
00010000
00001000
00000000
00000000
00010000
00000000
,
00000100
00000000
00001000
00000010
00000000
00000000
00000100
00000000
00000001
00001000
00000000
00000001
00001000
00000000
00000001
00000000
,
00001000
00000100
00001000
00000000
00000010
00000000
00010000
00000000
00001000
00000000
00010000
00000000
00000100
00000000
00010000
00000000
,
00001000
01000000
00010000
00100000
02000000
00100000
03200000
00010000
,
00310000
01000000
00010000
00000000
00100000
00000000
00001000
00000000
00010000
00001000
00010000
00000000
00001000
00000000
00100000
00000000
,
00202000
00000000
00000000
00000000
00303000
00000000
00000000
00000000
00001000
00100000
00010000
01000000
00100000
00000000
00000000
00000000
,
00100000
01000000
01010000
00000000
00010000
00100000
00101000
00000000
,
00100000
00001000
00011000
00000000
00010200
00000000
00002300
00000000
,
00003010
00000000
00000100
00000001
00000000
00000000
00001000
00000000
00000001
00000000
00000010
00000100
00000000
00000000
00001000
00000000
,
00000010
00000000
00000100
00000010
00000000
00001000
00000001
00000000
00001000
00000100
00000000
00001000
00000001
00000100
00000001
00000000
,
00000010
00000100
00001100
00000000
00000100
00010000
00011000
00000000
,
00001000
00100000
00110000
00000000
02010000
00000000
03200000
00000000
,
10300000
00100000
10000000
00000000
01000000
00000000
00100000
00000000
00010000
01000000
00010000
00000000
01000000
00000000
00100000
00000000
,
20020000
00000000
00000000
00000000
00000000
00000000
00000000
00000000
30030000
00000000
00000000
00000000
10000000
00010000
00000000
00000000
,
10000000
01000000
00100000
00000000
00010000
00000000
01000000
00000000
10000000
00000000
01000000
00000000
00010000
00000000
00100000
00000000
,
00001000
00010000
00000100
00001000
00001020
00000000
00000230
00000000
,
00000301
00000000
00001000
00000100
00000000
00001000
00000010
00000000
00001000
00000000
00000100
00010000
00000000
00001000
00010000
00000000
,
00001000
00000000
00100000
00010000
00000000
01000000
00100000
00000000
10000000
00010000
00000000
00010000
10000000
00000000
00000000
00000000
,
00010000
01000000
00100000
00000000
10000000
00000000
01000000
00000000
00010000
00000000
01000000
00000000
10000000
00000000
00100000
00000000
,
01000000
00010000
00100000
00001000
00021000
00000000
00030200
00000000
,
00001300
00000010
00000100
00000000
00000001
00000000
00000010
00000000
00000001
00000100
00000010
00000000
00001000
00000000
00000100
00000000
,
00001000
00000001
00001000
00000000
00000001
00001000
00000001
00000000
00001000
00000001
00000100
00000010
00001000
00000001
00001000
00000000
,
00000001
00000100
00000010
00000000
00001000
00000000
00000100
00000000
00010000
00000000
00001000
00000000
00100000
00000000
00010000
00000000
,
01000000
10000000
01000000
00010000
00210000
00000000
02300000
00000000
,
13000000
00000000
00010000
00100000
00000000
00010000
01000000
00000000
00010000
00000000
00100000
00001000
00000000
00010000
00001000
00000000
,
00010000
00000000
00000100
00001000
00000000
00000010
00000100
00000000
00000001
00001000
00000000
00001000
00000001
00000000
00000000
00000000
,
00001000
00000010
00000100
00000000
00000001
00000000
00000100
00000000
00001000
00000000
00000100
00000000
00000001
00000000
00001000
00000000
,
00000100
00010000
00001000
00100000
00201000
00000000
00320000
00000000
,
01030000
00100000
10000000
00000000
01000000
00000000
00100000
00000000
01000000
00100000
00010000
00000000
01000000
00000000
00001000
00000000
,
00010000
00001000
00010000
00001000
00100000
00010000
01000000
00001000
00010000
00000100
00001000
00000010
00010000
00001000
00010000
00000000
,
00022000
00000000
00000000
00000000
,
00033000
00000000
00000000
00000000
;
