#TITLE:A Little Somethin';
#SUBTITLE:;
#ARTIST:Smashtrax;
#TITLETRANSLIT:;
#SUBTITLETRANSLIT:;
#ARTISTTRANSLIT:;
#GENRE:;
#CREDIT:;
#MUSIC:32. A Little Somethin'.mp3;
#BANNER:;
#BACKGROUND:;
#CDTITLE:;
#SAMPLESTART:40.879;
#SAMPLELENGTH:14.400;
#SELECTABLE:YES;
#OFFSET:-0.079;
#BPMS:0.000=100.000;
#STOPS:;
#BGCHANGES:;
#FGCHANGES:;

//--------------- dance-single - aboutblank ----------------
#NOTES:
     dance-single:
     aboutblank:
     Beginner:
     4:
     0,0,0,0,0:
0000
0000
0000
0000
,
0000
0000
0000
0000
,
0000
0000
0000
0000
,
0000
0000
0000
0000
,
0000
0000
0000
0000
,
1000
0000
1000
0000
,
1000
0000
0100
0100
,
0001
0000
0001
0000
,
0001
0000
0010
0010
,
1000
0000
0001
0000
,
1000
0000
0010
0010
,
1000
0000
0001
0000
,
1000
0000
0100
0100
,
1000
0000
0010
0000
,
1000
0000
0001
0001
,
1000
0000
0010
0000
,
0001
0000
0100
0100
,
1000
0000
0001
0000
,
1000
0000
0010
0010
,
0001
0000
1000
0000
,
0001
0000
0100
0100
,
1000
0000
0001
0000
,
1000
0000
0100
0100
,
0001
0000
1000
0000
,
0001
0000
0010
0010
,
1000
0010
1000
0000
,
0001
0100
0001
0000
,
1000
0100
1000
0000
,
0001
0010
0001
0000
,
1000
1000
1000
0000
,
0001
0001
0001
0000
,
0100
0010
0100
0000
,
0010
0100
0010
0000
,
1000
0000
0100
0000
,
0001
0000
0010
0010
,
0001
0000
0100
0000
,
1000
0000
0010
0010
,
1000
0000
0010
0000
,
0001
0000
0100
0100
,
0001
0000
0010
0000
,
1000
0000
0100
0100
,
1000
0000
0000
0000
;

//--------------- dance-single - aboutblank ----------------
#NOTES:
     dance-single:
     aboutblank:
     Easy:
     8:
     0,0,0,0,0:
0000
0000
0000
0000
,
0000
0000
0000
0000
,
0000
0000
0000
0000
,
0000
0000
0000
0000
,
0000
0000
0000
0000
,
0000
0000
1000
0010
1000
0000
0001
0010
,
0001
0000
1000
0100
0010
0000
0110
0000
,
1001
0000
0001
0100
0010
0000
1000
0100
,
0010
0001
0100
1000
,
0010
0010
1000
1000
,
0001
0000
0001
0000
0100
0010
0100
0010
,
1000
1000
0100
0100
,
0010
0000
0010
0000
0001
0100
0001
0100
,
1000
1000
0100
0100
,
0001
0000
0001
0000
0010
0001
0010
0001
,
1000
1000
0001
0001
,
0100
0000
0100
0000
0010
1000
0010
1000
,
0001
0000
0100
0010
0100
0000
0001
1000
,
0001
0000
0010
0100
0010
0000
0011
0000
,
1100
0000
1000
0100
1000
0000
0001
0010
,
0001
0000
1000
0001
1000
0000
1001
0000
,
0110
0000
1000
0010
1000
0000
0001
0100
,
0001
0000
1000
0010
1000
0000
0101
0000
,
1010
0000
0001
0010
0001
0000
1000
0100
,
0010
0011
1100
0101
,
1000
0001
1000
0000
0010
0100
0010
0000
,
1000
0010
1000
0000
0002
0000
0003
0000
,
0001
0100
0001
0000
0010
0100
0010
0000
,
0001
0010
0001
0000
1000
0000
0001
0000
,
0100
0010
0100
0000
0010
1000
0010
0000
,
1000
0100
1000
0000
0101
0000
0011
0000
,
0100
0010
0100
0000
0001
1000
0001
0000
,
0100
0010
0100
0000
0011
0000
1100
0000
,
0011
0000
0100
1000
0100
0000
0010
0001
,
0010
0000
0100
1000
0001
0000
1001
0000
,
0110
0000
1000
0010
1000
0000
0001
0100
,
0001
0000
1000
0001
0100
0000
0110
0000
,
1001
0000
0001
1000
0010
0000
0100
0001
,
1000
0000
1000
0100
0010
0000
1100
0000
,
0011
0000
0001
0100
1000
0000
1000
0100
,
0001
0011
1010
0101
,
1100
0000
0000
0000
;

//--------------- dance-single - aboutblank ----------------
#NOTES:
     dance-single:
     aboutblank:
     Medium:
     10:
     0,0,0,0,0:
0000
0000
0000
0000
,
0000
0000
0000
0000
,
0000
0000
0000
0000
,
0000
0000
0000
0000
,
0000
0000
0000
0000
,
1000
0100
0010
0001
0010
0000
0001
0100
,
1000
0000
1000
0100
0010
1000
0010
0100
,
0001
0000
1000
0100
0001
0000
0001
0010
,
1000
0100
0010
0001
1010
0000
0101
0000
,
0001
1000
0001
0100
1000
0000
1000
0100
,
0010
0000
0010
1000
0001
0000
0001
0010
,
0100
0010
0001
1000
0010
0000
0010
0100
,
0001
0000
0001
1000
0001
0100
0010
0100
,
1000
0000
0100
0010
1000
0000
1000
0100
,
0010
0000
0010
0001
1000
0100
0010
0001
,
1000
0010
0100
0001
0010
0000
0010
0100
,
1000
0000
1000
0010
0100
0001
0010
0100
,
1000
0001
0100
0010
0100
0000
0001
0010
,
0100
0000
0010
0001
0100
0010
1000
0100
,
1000
0000
0001
1000
0100
0000
0010
0100
,
1000
0000
0010
0100
0001
0010
0001
1000
,
0010
0000
0100
0001
0010
0000
0100
1000
,
0010
0000
1000
0010
0100
0001
0010
0001
,
1000
0001
0010
0100
1000
0000
0010
0100
,
1000
0100
0001
0100
1000
0100
0001
0100
,
0010
0000
0010
1000
0001
0000
0001
1000
,
0010
0000
0010
0100
0000
0000
0000
0000
,
0001
0000
0001
0010
0100
0000
0100
0010
,
0001
0000
0001
1000
0010
0100
0001
0010
,
0001
0000
1000
0100
0010
0000
0010
0100
,
1000
0000
1000
0010
0100
1000
0100
0001
,
0010
0000
0001
1000
0100
0000
1000
0001
,
0100
0000
0010
1000
0001
0010
0100
0010
,
0001
1000
0010
0100
0001
0000
1000
0100
,
0001
0000
0001
0100
0010
0001
0100
0010
,
1000
0000
0001
0100
1000
0000
0100
0010
,
1000
0000
1000
0010
0100
0001
0010
0001
,
1000
0001
1000
0100
0001
0000
0001
0100
,
1000
0000
1000
0010
0001
1000
0100
0010
,
0100
0001
0010
0001
1000
0000
1000
0010
,
1000
0001
0100
1000
0100
0001
0010
1000
,
0010
0000
0000
0000
;

//--------------- dance-single - aboutblank ----------------
#NOTES:
     dance-single:
     aboutblank:
     Hard:
     13:
     0,0,0,0,0:
0000
0000
0000
0000
,
0000
0000
0000
0000
,
0000
0000
0000
0000
,
0000
0000
0000
0000
,
0000
0000
0000
0000
,
1001
0000
1000
0000
0010
0000
0110
0000
0101
0000
0000
0001
0010
0000
0110
0000
,
1100
0000
0000
0001
1000
0000
1100
0000
0201
0000
0310
0000
2010
0000
3100
0000
,
1001
0000
0000
1000
0100
0000
0101
0000
0011
0000
0000
0001
0100
0000
1100
0000
,
1010
0000
0002
0003
0110
0000
2000
3000
0110
0000
0002
0003
0110
0000
2000
3000
,
0101
0000
0001
1000
0100
0000
0110
0000
0011
0000
0000
0010
1000
0000
0010
0000
,
0101
0000
0000
0100
1000
0000
0100
0000
0011
0000
0010
0000
0110
0000
0100
0000
,
1100
0000
1000
0001
0100
0000
0110
0000
1010
0000
0000
0010
0001
0000
0010
0000
,
1100
0000
0000
0100
0001
0000
0100
0000
1100
0000
0100
0000
0110
0000
0010
0000
,
0011
0000
1000
0010
0100
0000
0101
0000
1010
0000
0000
0001
0100
0000
0001
0000
,
1100
0000
0000
0001
0010
0000
0001
0000
1100
0000
0010
0000
0011
0000
0100
0000
,
1100
0000
0001
0100
0010
0000
1100
0000
0011
0000
0000
1000
0100
0000
0001
0000
,
1100
0000
0000
0001
0100
0000
1000
0000
0101
0000
0010
0000
1100
0000
0010
0000
,
0101
0000
1000
0001
0100
0001
0100
0000
1010
0000
0000
1000
0100
1000
0100
0000
,
0011
0000
0000
1000
0010
1000
0010
0000
0101
0000
1000
0000
0011
0000
0100
0000
,
1001
0000
0000
1000
0001
0100
0001
0000
1100
0000
0000
0001
1000
0010
1000
0000
,
0011
0000
0000
1000
0001
0100
0010
0000
1001
0000
0010
0000
0110
0000
0100
0000
,
1001
0000
0000
1000
0100
0010
0001
0000
1100
0000
0000
0001
0100
0010
1000
0000
,
0101
0000
0000
1000
0001
0010
0100
0000
1010
0000
0100
0000
0011
0000
0100
0000
,
1001
0000
0001
1000
0001
0100
1000
0000
0110
0000
0000
0001
1000
0100
0001
0000
,
0110
0000
2000
3000
0110
0000
0002
0003
0110
0000
2000
3000
0110
0000
0002
0003
,
1100
0000
0000
0001
1000
0000
0100
0000
0101
0000
0000
1000
0001
0000
0100
0000
,
1100
0000
0000
0001
1000
0000
0100
0000
0000
0000
0000
0000
0000
0000
0000
0000
,
0011
0000
0000
1000
0001
0000
0010
0000
1010
0000
0000
0001
1000
0000
0010
0000
,
0011
0000
0000
1000
0001
0000
0010
0000
1010
0000
0001
0000
0110
0000
0001
0000
,
1100
0000
0000
0001
0100
0000
1000
0000
0101
0000
0000
1000
0010
0000
0001
0000
,
1010
0000
0000
0001
0010
0000
1000
0000
0110
0000
0001
0000
1100
0000
0010
0000
,
0101
0000
0000
1000
0010
0000
0100
0000
1100
0000
0000
0100
0001
0000
0010
0000
,
0011
0000
0000
0001
0010
0000
0100
0000
0101
0000
0010
0000
1001
0000
0010
0000
,
1001
0000
0000
1000
0100
0010
0100
0000
0011
0000
0000
0001
0100
0010
0100
0000
,
1010
0000
0000
1000
0001
1000
0100
0000
0110
0000
0010
0000
1001
0000
0100
0000
,
0110
0000
0000
0001
1000
0100
0010
0000
1100
0000
0000
1000
0001
0100
0010
0000
,
0101
0000
0000
1000
0010
0100
0010
0000
1010
0000
0100
0000
0101
0000
0010
0000
,
1010
0000
0001
1000
0100
0001
0100
0000
0110
0000
0000
0001
0100
1000
0100
0000
,
0110
0000
0000
1000
0010
0001
0010
0000
1100
0000
0001
0000
0110
0000
1000
0000
,
0011
0000
1000
0001
0100
1000
0100
0000
0011
0000
0000
1000
0100
0001
0100
0000
,
1100
0000
0020
0030
1001
0000
0200
0300
0011
0000
2000
3000
0110
0000
0002
0003
,
1001
0000
0000
0000
;
