#TITLE:A Little Dangerous;
#SUBTITLE:;
#ARTIST:Smashtrax;
#TITLETRANSLIT:;
#SUBTITLETRANSLIT:;
#ARTISTTRANSLIT:;
#GENRE:;
#CREDIT:;
#MUSIC:37. A Little Dangerous.mp3;
#BANNER:;
#BACKGROUND:;
#CDTITLE:;
#SAMPLESTART:56.975;
#SAMPLELENGTH:13.370;
#SELECTABLE:YES;
#OFFSET:-0.073;
#BPMS:0.000=184.000;
#STOPS:;
#BGCHANGES:;
#FGCHANGES:;

//--------------- dance-single - about-blank ----------------
#NOTES:
     dance-single:
     about-blank:
     Beginner:
     1:
     0,0,0,0,0:
0000
0000
0000
0000
,
0000
0000
0000
0000
,
0000
0000
0000
0000
,
0000
0000
0000
0000
,
1000
0000
0000
0000
,
0000
0000
0000
0000
,
0001
0000
0000
0000
,
0000
0000
0000
0000
,
0010
0000
0000
0000
,
0000
0000
0000
0000
,
0100
0000
0000
0000
,
0100
0000
0100
0000
,
1000
0000
0000
0000
,
0000
0000
0000
0000
,
0001
0000
0000
0000
,
0000
0000
0000
0000
,
0100
0000
0000
0000
,
0000
0000
0000
0000
,
0010
0000
0000
0000
,
0000
0000
0000
0000
,
1000
0000
0000
0000
,
1000
0000
0000
0000
,
0001
0000
0000
0000
,
0001
0000
0000
0000
,
0010
0000
0000
0000
,
0010
0000
0000
0000
,
0100
0000
0000
0000
,
0000
0000
0000
0000
,
1000
0000
0000
0000
,
1000
0000
0000
0000
,
0001
0000
0000
0000
,
0001
0000
0000
0000
,
0100
0000
0100
0000
,
0010
0000
0000
0000
,
0010
0000
0010
0000
,
0100
0000
0000
0000
,
0001
0000
0000
0000
,
0000
0000
0000
0000
,
1000
0000
0000
0000
,
0000
0000
0000
0000
,
1001
0000
0000
0000
,
0000
0000
0000
0000
,
0110
0000
0000
0000
,
0000
0000
0000
0000
,
1000
0000
1000
0000
,
1000
0000
0000
0000
,
0001
0000
0001
0000
,
0001
0000
0000
0000
,
1000
0000
1000
0000
,
1000
0000
0000
0000
,
0001
0000
0001
0000
,
0001
0000
0000
0000
,
0100
0000
0100
0000
,
0100
0000
0000
0000
,
0010
0000
0010
0000
,
0010
0000
0000
0000
,
0100
0000
0100
0000
,
0100
0000
0000
0000
,
0010
0000
0010
0000
,
0010
0000
0000
0000
;

//--------------- dance-single - about-blank ----------------
#NOTES:
     dance-single:
     about-blank:
     Easy:
     3:
     0,0,0,0,0:
0000
0000
0000
0000
,
0000
0000
0000
0000
,
0000
0000
0000
0000
,
0000
0000
0000
0000
,
1000
0000
0001
0000
,
0000
0000
0001
0000
,
0100
0000
0010
0000
,
0000
0000
0010
0000
,
1000
0000
1000
0000
,
0001
0000
0001
0000
,
0010
0000
0100
0000
,
0010
0100
0010
0000
,
1001
0000
0000
0000
,
1000
0100
0000
0000
,
1001
0000
0000
0000
,
0001
0100
0000
0000
,
1001
0000
0000
0000
,
1000
0010
0000
0000
,
1001
0000
0000
0000
,
0001
0010
0000
0000
,
0100
0000
0100
0000
,
1000
0001
1000
0000
,
0010
0000
0100
0000
,
0001
1000
0001
0000
,
0010
0000
0001
0000
,
0100
0000
1000
0000
,
0000
1001
0000
0000
,
1001
0000
0000
0000
,
1000
0001
0100
0000
,
0010
0000
0010
0000
,
1000
0001
0010
0000
,
0100
0000
0100
0000
,
1000
0000
0001
0000
,
0011
0000
1100
0000
,
0100
0010
0001
0000
,
1000
0010
0100
0000
,
0001
0000
0001
0000
,
1000
0000
1000
0000
,
0100
0000
0100
0000
,
0010
0000
0010
0000
,
0001
0000
0100
0000
,
1000
0000
0100
0000
,
0001
0000
0010
0000
,
1000
0000
0010
0000
,
0001
1000
0000
0000
,
0100
0100
0000
0000
,
1000
0001
0000
0000
,
0010
0010
0000
0000
,
0001
1000
0000
0000
,
0100
0100
0000
0000
,
1000
0001
0000
0000
,
0010
0010
0000
0000
,
0001
0100
0000
0000
,
0010
1000
0000
0000
,
1000
0100
0000
0000
,
0010
0001
0000
0000
,
0001
0100
0000
0000
,
0010
1000
0000
0000
,
1000
0100
0000
0000
,
0010
0001
0000
0000
,
1001
0000
0000
0000
,
0000
0000
0000
0000
,
1000
0000
0100
0000
,
0001
0000
0100
0000
,
1001
0000
0000
0000
,
0000
0000
0000
0000
,
0001
0000
0100
0000
,
1000
0000
0100
0000
,
0001
0000
0000
0000
;

//--------------- dance-single - about-blank ----------------
#NOTES:
     dance-single:
     about-blank:
     Medium:
     8:
     0,0,0,0,0:
0000
0000
0000
0000
,
0000
0000
0000
0000
,
0000
0000
0000
0000
,
0000
0000
0000
0000
,
1000
0000
0000
0000
0001
0000
0000
0100
,
0000
0100
0010
0000
,
1000
0000
0000
0000
0001
0000
0000
0010
,
0000
0010
0100
0000
,
1000
0010
1000
0000
,
0001
0100
0001
0000
,
0110
0000
1001
0000
,
1000
0001
1000
0000
,
0010
0000
0000
0000
0100
0000
0000
1000
,
0000
0100
0001
0000
,
0010
0000
0000
0000
0100
0000
0000
0001
,
0000
0100
1000
0000
,
1000
0000
0000
0000
0010
0000
0000
0100
,
0000
0001
0010
0000
,
0001
0000
0000
0000
0010
0000
0000
0100
,
0000
1000
0010
0000
,
0100
0010
0000
0000
,
1010
0000
0101
0000
,
1000
0001
0100
0000
,
0001
1000
0100
0000
,
0011
0000
1100
0000
,
0001
0010
0100
0000
,
0000
2002
3003
0000
2002
3003
0000
0000
,
1000
0100
0010
0000
,
0001
0010
0100
0000
,
0001
0100
1000
0000
,
1000
0010
0100
0000
,
1000
0100
0001
0000
,
0001
1000
0100
0000
,
0110
0000
1001
0000
,
1000
0010
0100
0001
,
0010
0001
0100
0000
,
0010
1000
0100
0000
,
1100
0000
0101
0000
,
0010
0001
0100
0000
,
0101
0000
1100
0000
,
0001
1000
0100
0000
,
0010
0100
1000
0000
,
0010
0100
0001
0001
,
1000
0010
0100
0000
,
0001
1000
0100
0000
,
0101
0000
1100
0000
,
1000
0001
0100
0000
,
1100
0000
0101
0000
,
0001
1000
0010
0000
,
0011
0000
1010
0000
,
1000
0001
0010
0000
,
1010
0000
0011
0000
,
1000
0010
0100
0000
,
0001
0100
0010
0000
,
1000
0100
0010
0000
,
0001
0010
0100
0000
,
1000
0001
0100
0000
,
0010
1000
0100
0000
,
0001
0100
0010
0001
,
1000
0010
0100
0000
,
0000
0101
0000
1100
,
0000
0101
0000
1100
,
0000
0011
0000
1010
,
0000
0011
0000
1010
,
0000
1100
0000
0011
,
0000
1010
0000
0101
,
0000
1100
0000
0011
,
0000
1010
0000
0101
,
0000
0110
0000
1001
,
0000
0110
0000
1001
;

//--------------- dance-single - about-blank ----------------
#NOTES:
     dance-single:
     about-blank:
     Hard:
     11:
     0,0,0,0,0:
0000
0000
0000
0000
,
0000
0000
0000
0000
,
0000
0000
0000
0000
,
0000
0000
0000
0000
0000
0000
0000
0001
,
2000
0000
3000
0100
0000
0100
0000
0100
,
0000
0001
0100
0000
0010
0010
0000
0010
,
0002
0000
0003
0100
0000
0100
0000
0100
,
0000
1000
0100
0000
0010
0010
0000
0010
,
2000
0000
3000
0001
0000
0001
0000
0001
,
0000
0010
0100
0000
1000
1000
0000
1000
,
0002
0000
0003
1000
0020
0000
0030
1000
,
0100
0001
0100
1000
0100
0010
0100
1000
,
0002
0000
0203
0000
1300
0000
0001
0010
,
0001
0010
1000
0000
0001
0000
0000
0000
,
2000
0000
3200
0000
0301
0000
1000
0010
,
1000
0010
0001
0000
1000
0000
0010
0000
,
0200
0000
2300
0000
3001
0000
0010
0100
,
0010
0100
0001
0000
1000
0000
0000
0000
,
0200
0000
0302
0000
1003
0000
0010
0100
,
0010
0100
1000
0000
0001
0000
0000
0000
,
0000
0220
0330
0000
,
1000
0100
1000
0000
0001
0000
0000
0000
,
0010
0000
1000
0100
0001
0000
0001
0100
,
0010
0001
1000
0000
,
0022
0000
0033
0000
2200
0000
3300
0001
,
0000
0010
0100
1000
0100
0100
0010
0000
,
0000
0000
2002
0000
3003
0220
0000
0330
,
2002
3003
0000
0000
,
1000
0000
0100
1000
0010
0000
0000
0001
,
0000
0010
1000
0100
0010
0000
0000
0000
,
0001
0000
0100
0001
0010
0000
0000
1000
,
0000
0010
0001
0100
0010
0000
0000
0000
,
0000
0000
1000
0010
0001
0000
0000
1000
,
0100
0000
0000
0100
0001
0000
0000
0000
,
1000
0100
1000
0100
0010
0000
0000
0010
,
0001
1000
0001
0100
0010
0000
0000
0000
,
0000
0000
1000
0001
1000
0000
0000
1010
,
0000
0001
0010
0000
0100
0000
0010
0000
,
0000
0000
0001
1000
0001
0000
0000
0011
,
0000
1000
0010
0000
0100
0000
0010
0000
,
0000
0000
0100
0001
1000
0000
0000
1100
,
0000
0100
0001
0000
0100
0000
1000
0000
,
0000
0010
1000
0001
0100
0020
2000
0000
,
3030
0000
1001
0000
,
1100
0000
1100
0000
0101
0000
0001
0100
,
0001
0100
1000
0000
0001
0000
0000
0000
,
0101
0000
0101
0000
1100
0000
1000
0100
,
1000
0100
0001
0000
1000
0000
0000
0000
,
0110
0000
0110
0000
1001
0000
1000
0001
,
1000
0001
0100
0000
0010
0000
0000
0000
,
1001
0000
1001
0000
0110
0000
0001
1000
,
0001
1000
0010
0000
0100
0000
0000
0000
,
0101
0000
0110
0000
1010
0000
1000
0100
,
0010
0001
0100
0000
0010
0000
0000
0000
,
1010
0000
0110
0000
0011
0000
1000
0010
,
0100
0001
0010
0000
0100
0000
0000
0000
,
0101
0000
1100
0000
0101
0000
0001
0100
,
1000
0100
0010
0000
0001
0000
0000
0000
,
1010
0000
0110
0000
0011
0000
0001
0010
,
1000
0100
0010
0000
0001
0000
1000
0000
,
0001
0000
0000
0000
0101
0000
0000
0100
,
0000
0001
0100
0000
0010
0000
0000
0000
,
1000
0000
0000
0000
1100
0000
0000
0100
,
0000
1000
0100
0000
0010
0000
0000
0000
,
0001
0000
0000
0000
1001
0000
0000
0001
,
0000
0100
0010
0000
1000
0000
0000
0000
,
0010
0000
0100
0000
1001
0000
0001
1000
,
0000
0100
0010
0000
0001
0010
0100
1000
,
0001
0000
0000
0000
;
