#TITLE:A Geisha's Dream;
#SUBTITLE:-DAM LA MIX ver1.0-;
#ARTIST:NAOKI feat. SMiLE.dk;
#TITLETRANSLIT:;
#SUBTITLETRANSLIT:;
#ARTISTTRANSLIT:;
#GENRE:;
#CREDIT:;
#MUSIC:A Geisha's Dream -DAM LA MIX ver1.0-.ogg;
#BANNER:;
#BACKGROUND:;
#CDTITLE:;
#SAMPLESTART:0.000;
#SAMPLELENGTH:0.000;
#SELECTABLE:YES;
#OFFSET:1.169;
#BPMS:0.000=139.990;
#STOPS:;
#BGCHANGES:;
#FGCHANGES:;

//--------------- dance-single - eataninja ----------------
#NOTES:
     dance-single:
     eataninja:
     Beginner:
     3:
     0,0,0,0,0:
0000
0000
0000
0000
,
0000
0000
0000
0000
,
0000
0000
0000
0000
,
0000
0000
0000
0000
,
0000
0000
0000
0000
,
1001
0000
0000
0000
,
0000
0000
0000
0000
,
1001
0000
0110
0000
,
0100
0100
0100
0000
,
1000
0000
0001
0000
,
1000
0000
0010
0000
,
0100
0000
0100
0000
,
0001
0000
1000
0000
,
0100
0000
0010
0000
,
0100
0000
1000
0000
,
1001
0000
0001
0000
,
0100
0100
0100
0000
,
0010
0000
0100
0000
,
0001
0001
0001
0000
,
0010
0000
0100
0000
,
1000
1000
0001
0000
,
0010
0000
0100
0000
,
1000
1000
1000
0000
,
0010
0000
0100
0000
,
0002
0000
0003
0000
,
1001
0000
1000
0000
,
0100
0010
0100
0000
,
1000
0000
0001
0000
,
0100
0000
0010
0000
,
1000
0000
1000
0000
,
0010
0100
0010
0000
,
1000
0000
0001
0000
,
0020
0000
0030
0000
,
0100
0000
0100
0000
,
1000
0000
1000
0000
,
0001
0000
0001
0000
,
0100
0000
0200
0300
,
0110
0000
0010
0000
,
1000
0000
1000
0000
,
1001
0000
0110
0000
,
0100
0100
0100
0000
,
1000
0001
1000
0001
,
1000
0000
0010
0000
,
0110
0000
1001
0000
,
0001
0001
0100
0000
,
0001
1000
0001
1000
,
0001
0000
0010
0000
,
0110
0000
1001
0000
,
1000
1000
0010
0000
,
0100
0010
0100
0010
,
0100
0000
0001
0000
,
1001
0000
0110
0000
,
0100
0100
1000
0000
,
0100
0010
0100
0010
,
0100
0000
1000
0000
,
1001
0000
0110
0000
,
0200
0000
0300
0000
,
0110
0000
1001
0000
,
0001
0001
1000
0000
;

//--------------- dance-single - OrangeRight ----------------
#NOTES:
     dance-single:
     OrangeRight:
     Easy:
     6:
     0,0,0,0,0:
0000
0000
0000
0000
,
0000
0000
0000
0000
,
0000
0000
0000
0000
,
0000
0000
0000
0000
,
0000
0000
0000
0000
,
1001
0000
1000
0000
,
0001
0000
1000
0000
,
0110
0000
1001
0000
,
0100
0100
2002
3003
,
1000
0010
0100
0100
,
0001
0010
0100
0100
,
1000
0001
0100
0100
,
0001
1000
0100
0010
,
0001
0100
0010
0010
,
1000
0100
0010
0010
,
0001
1000
0001
1000
,
1001
0110
2002
3003
,
1000
0100
1000
0000
,
0001
0100
0001
0000
,
1000
0100
0001
0100
,
1000
0010
0100
0000
,
0001
0010
0001
0000
,
1000
0010
1000
0000
,
0001
0010
1000
0010
,
0002
1000
1003
0000
,
1000
1100
0001
0101
,
0010
1000
0100
0010
,
0001
1000
0002
0003
,
0010
0100
0020
0030
,
0001
0011
1000
1010
,
0100
0001
0010
0100
,
1000
0001
2000
3000
,
0010
0100
0220
0330
,
1000
0100
1000
0000
,
0010
0100
0010
0000
,
0100
0001
0100
0000
,
0001
0100
1000
0100
,
0001
0010
0001
0000
,
0100
0010
0100
0000
,
0010
1000
0100
0001
,
0100
1000
2002
3003
,
1000
0100
0001
0100
,
1000
0000
0001
0001
0002
0000
0003
0000
,
0110
0000
1001
0000
,
1000
0001
1000
0000
2002
0000
3003
0000
,
0001
0100
1000
0100
,
0001
0000
1000
1000
2000
0000
3000
0000
,
0110
0000
1001
0000
,
0100
0010
2002
3003
,
1000
0100
0001
0010
,
1000
0000
0001
1000
0002
0000
0003
0000
,
1001
0000
0110
0000
,
0010
0100
2002
3003
,
0001
0010
1000
0100
,
0001
0000
1000
0001
2000
0000
3000
0000
,
1001
0000
0110
0000
,
2000
0001
0002
3003
,
1100
0000
0101
0000
,
1000
0001
0110
0000
;

//--------------- dance-single - OrangeRight ----------------
#NOTES:
     dance-single:
     OrangeRight:
     Medium:
     9:
     0,0,0,0,0:
0000
0000
0000
0000
,
0000
0000
0000
0000
,
0000
0000
0000
0000
,
0000
0000
0000
0000
,
0000
0000
0000
0000
,
1001
0000
1000
0000
,
0001
0000
1000
0000
,
0220
0330
2002
3003
,
1001
0110
1001
0000
,
1000
0000
0100
0000
1000
0000
0000
0000
0010
0000
0000
0100
0000
0000
0010
0000
,
0100
0000
0001
0000
0100
0000
0000
0000
0010
0000
0000
0100
0000
0000
0010
0000
,
1000
0000
0001
0000
1000
0000
0000
0000
0010
0000
0000
0100
0000
0000
0010
0000
,
0100
0001
1000
0100
,
0010
0000
0001
0000
0010
0000
0000
0000
0100
0000
0000
0010
0000
0000
0100
0000
,
1000
0000
0010
0000
1000
0000
0000
0000
0100
0000
0000
0010
0000
0000
0100
0000
,
1000
0000
0001
0000
1000
0000
0000
0000
0100
0000
0000
0010
0000
0000
0100
0000
,
1000
0001
0220
0330
,
0001
0000
0100
0000
1000
0000
0100
0002
,
0010
0100
1003
0001
,
1000
0000
0100
0000
0010
0001
1000
0000
,
0001
0000
1000
0100
0001
0000
0100
0000
,
1000
0000
0010
0000
0001
0000
0010
2000
,
0100
0010
3001
1000
,
0001
0000
0100
0000
0010
1000
0001
0000
,
1000
0100
0010
0100
2000
0000
3000
0000
,
1002
0023
0230
2300
,
3001
0100
0010
0000
0100
0010
1000
0000
,
0100
0001
0100
1000
,
0010
0000
0100
0001
1000
0000
0001
0000
,
2001
3200
0320
0032
,
1003
0010
0100
0000
0010
0100
0001
0000
,
0010
1000
0010
0001
,
1000
0001
2002
3003
,
2000
3100
0002
0103
,
2000
3010
0002
0013
,
1000
0000
0001
0000
1000
0000
0000
0100
0000
0000
0010
0000
0001
0000
0000
0100
,
0000
0000
0010
0000
1000
0000
0000
0001
0000
0000
1000
0000
0010
0000
0100
0000
,
0002
0103
2000
3010
,
0002
0013
2000
3100
,
1000
0000
0010
0000
0100
0000
0000
0001
0000
0000
1000
0000
0001
0000
1000
0000
,
1001
0110
2002
3003
,
1010
0011
0101
1100
,
1001
0000
1000
0001
1000
0000
0001
0000
,
1002
0000
0103
0001
2000
0000
3100
1000
,
0010
0100
0001
0000
0202
0000
0303
0000
,
0011
1010
1100
0101
,
1001
0000
0001
1000
0001
0000
1000
0000
,
2001
0000
3010
1000
0002
0000
0013
0001
,
0100
0010
0220
0330
,
2000
3020
0032
0203
,
2300
0000
3010
0100
0001
0000
1000
0000
,
0210
0000
1300
0001
0200
0000
0301
1000
,
0100
0010
0100
0000
0220
0000
0330
0000
,
0002
0023
2030
3200
,
0302
0000
0013
0100
1000
0000
0001
0000
,
1000
0001
1000
0001
0100
0010
0100
0010
,
2000
3200
0302
0203
,
1300
0010
1000
0010
0100
0001
0100
0001
,
1001
0110
1001
0000
;

//--------------- dance-single - eataninja x OrangeRight ----------------
#NOTES:
     dance-single:
     eataninja x OrangeRight:
     Hard:
     12:
     0,0,0,0,0:
0000
0000
0000
0000
,
0000
0000
0000
0000
,
0000
0000
0000
0000
,
0000
0000
0000
0000
,
0000
0000
0000
0000
,
1000
0100
0000
0100
0000
0010
0001
1000
,
0001
0100
0000
0100
0000
0010
1000
0001
,
1001
1000
0100
0000
0110
0100
1000
0000
,
1010
0000
0011
0000
1100
0001
0001
0000
,
0010
0000
0100
0000
1000
0000
0001
0000
0100
0000
0010
1000
0000
0010
0100
0000
,
0001
0000
1000
0000
0100
0000
0010
0000
0001
0000
1000
0010
0000
1000
0001
0000
,
0100
0000
0010
0000
0100
0000
0001
0000
0010
0000
0100
1000
0000
0100
0010
0000
,
0001
1000
0010
0001
0010
0100
1001
0000
,
1000
0000
0001
0000
1000
0000
0010
0000
0100
0000
0001
0010
0000
0001
0100
0000
,
0001
0000
1000
0000
0001
0000
0010
0000
0100
0000
1000
0010
0000
1000
0100
0000
,
1000
0000
0001
0000
0010
0000
0100
0000
1000
0000
0010
0100
0000
0001
1000
0000
,
1001
0001
0101
0100
0110
0000
1000
0001
,
1000
0000
0010
0100
0001
0010
1000
0010
,
0001
0100
0010
0100
1000
0000
0100
0001
,
0010
0000
0100
1000
0010
0000
1000
0010
,
0001
0010
0100
0010
1000
0000
0001
1000
,
0100
0000
1000
0001
0100
1000
0100
0001
,
0010
0100
1000
0001
1000
0000
0010
0100
,
1000
0000
0001
0010
2000
0000
3002
0000
,
0013
0000
0100
0000
1000
0000
0001
0000
0100
0000
0010
0100
0010
0000
0000
0000
,
1000
0000
0000
1000
0001
0000
0000
0001
0010
0000
1000
0000
0010
0000
0001
0000
,
1000
0010
0001
0010
0200
0000
0301
1000
,
0100
0000
0000
0100
0010
0000
0001
0000
1000
0000
0000
0010
0100
0000
1000
0000
,
0100
0001
1000
0100
1200
0000
0301
0100
,
1000
0000
0000
1000
0010
0000
0000
0010
0100
0000
0001
0000
1000
0000
0001
0000
,
0010
0100
1000
0100
0001
0000
0100
1000
,
0002
0000
0103
1000
0200
0000
0301
0010
,
0100
1000
0010
0001
0020
0000
2030
0000
,
3001
0000
0100
0000
0010
0000
1000
0010
0000
0000
1000
0000
0100
0000
0010
0001
,
0000
0000
0001
0000
0010
0000
0100
1000
0000
0000
1000
0000
0010
0000
0100
0001
,
0000
0000
1000
0000
0001
0000
0100
0010
0000
0000
0100
0000
0010
0000
1000
0001
,
0000
0000
1000
0000
0001
0000
0100
0010
1000
0000
0001
0000
0010
0000
0100
0000
,
1000
0000
0001
0000
0100
0000
0010
0100
0000
0010
1000
0000
0010
0000
0100
0001
,
0000
0000
1000
0000
0100
0000
0010
0001
0000
0010
0100
0000
1000
0000
0001
0100
,
0000
0000
0010
0000
0001
0000
0010
0100
0000
0010
1000
0000
0001
0000
0010
0000
,
0110
0000
1001
0000
0101
1000
1000
0000
,
0010
0000
0000
0010
0001
0000
0000
0001
0010
0000
0000
0010
1000
0000
0000
1000
,
0100
0000
0000
0100
0010
0000
0100
0000
1000
0000
0001
0000
1000
0000
0010
0000
,
0100
0000
0110
0010
1000
0000
1001
0001
,
0010
0100
1000
0001
0100
0010
0100
0001
,
1000
0000
0000
1000
0100
0000
0000
0100
0001
0000
0000
0001
0100
0000
0000
0100
,
1000
0000
0000
0001
1000
0000
0001
0000
1001
0000
0000
0000
1000
0000
0100
0000
,
1100
1000
0010
0100
0101
0001
0010
0100
,
1000
0001
1000
0000
0010
0100
0010
0000
1001
0000
0000
0001
1000
0000
0001
0000
,
1000
0000
0000
1000
0100
0000
0000
0100
0001
0000
0000
0001
0010
0000
0000
0010
,
1000
0000
0000
1000
0100
0000
0010
0000
0011
0000
0000
0000
1001
0000
0000
0000
,
0001
0100
0001
0000
1000
0000
0010
0000
1000
0100
1000
0000
0001
0000
0010
0000
,
0100
1000
0010
0001
0010
1000
0001
0000
,
1000
0000
0000
1000
0010
0000
0000
0010
0001
0000
0000
0001
0100
0000
0000
0100
,
1000
0000
0000
1000
0001
0000
0100
0000
1000
0000
0100
0000
0001
0000
0010
0000
,
0210
0000
0301
0100
2100
0000
3001
0100
,
1000
0010
0001
0100
0010
1000
1000
0000
,
0001
0000
0100
0010
0100
0000
0001
0000
1000
0000
0001
0010
0001
0000
1000
0000
,
1100
0100
0110
0010
1001
0000
0000
0000
;
