#TITLE:777;
#SUBTITLE:;
#ARTIST:EeL;
#TITLETRANSLIT:;
#SUBTITLETRANSLIT:;
#ARTISTTRANSLIT:;
#GENRE:;
#CREDIT:;
#MUSIC:777.mp3;
#BANNER:777.png;
#BACKGROUND:777-bg.png;
#CDTITLE:./CDTITLES/pop'n music.PNG;
#SAMPLESTART:30.050;
#SAMPLELENGTH:16.280;
#SELECTABLE:YES;
#OFFSET:1.118;
#BPMS:0.000=200.000;
#STOPS:;
#DISPLAYBPM:200.000;
#BGCHANGES:;
#FGCHANGES:;

//--------------- dance-single - about-blank ----------------
#NOTES:
     dance-single:
     about-blank:
     Beginner:
     3:
     0,0,0,0,0:
0000
0000
0000
0000
,
0000
0000
0000
0000
,
0000
0000
0000
0000
,
0000
0000
0000
0000
,
0000
0000
0000
0000
,
0000
0000
0000
0000
,
0010
0000
0000
0000
,
0010
0000
0000
0000
,
0100
0000
0000
0000
,
0100
0000
0000
0000
,
0001
0000
0000
0000
,
0000
0000
0000
0000
,
1000
0000
0000
0000
,
0000
0000
0000
0000
,
0100
0000
0000
0000
,
0000
0000
0000
0000
,
0010
0000
0001
0000
,
1000
0000
0000
0000
,
0010
0000
0000
0000
,
0000
0000
0000
0000
,
0100
0000
0000
0000
,
0000
0000
0000
0000
,
0001
0000
0000
0000
,
0000
0000
0000
0000
,
1000
0000
0100
0000
,
0010
0000
0000
0000
,
0001
0000
0000
0000
,
0000
0000
0000
0000
,
1001
0000
0000
0000
,
0000
0000
0000
0000
,
1000
0000
0000
0000
,
0000
0000
0000
0000
,
1001
0000
0000
0000
,
0000
0000
0000
0000
,
0100
0000
0000
0000
,
0000
0000
0000
0000
,
0110
0000
0000
0000
,
0010
0000
0010
0000
,
0001
0000
0000
0000
,
1001
0000
0000
0000
,
0001
0000
0000
0000
,
0001
0000
0000
0000
,
0001
0000
0001
0000
,
0001
0000
0000
0000
,
1000
0000
0000
0000
,
1000
0000
0000
0000
,
1000
0000
1000
0000
,
1000
0000
0000
0000
,
0100
0000
0001
0000
,
0100
0000
1000
0000
,
0100
0000
0001
0000
,
0100
0000
1000
0000
,
0010
0000
0001
0000
,
0010
0000
1000
0000
,
0010
0000
0001
0000
,
1001
0000
0000
0000
,
1000
0000
0000
0000
,
1000
0000
1000
0000
,
0001
0000
0000
0000
,
0001
0000
0001
0000
,
0010
0000
0000
0000
,
0010
0000
0010
0000
,
0100
0000
0000
0000
,
0100
0000
0100
0000
,
1000
0000
0001
0000
,
1000
0000
0000
0000
,
0001
0000
1000
0000
,
0001
0000
0000
0000
,
0010
0000
0100
0000
,
0010
0000
0000
0000
,
0100
0000
0010
0000
,
0100
0000
0000
0000
,
1000
0000
1000
0000
,
1000
0000
0000
0000
,
0001
0000
0001
0000
,
0001
0000
0000
0000
,
1000
0000
1000
0000
,
1000
0000
0000
0000
,
0001
0000
0001
0000
,
0001
0000
0000
0000
,
1001
0000
0000
0000
,
1001
0000
0000
0000
,
1001
0000
0000
0000
,
0010
0000
0010
0000
,
0110
0000
0000
0000
,
0110
0000
0000
0000
,
0110
0000
0000
0000
,
0100
0000
0100
0000
;

//--------------- dance-single - about-blank ----------------
#NOTES:
     dance-single:
     about-blank:
     Easy:
     7:
     0,0,0,0,0:
0000
0000
0000
0000
,
0000
0000
0000
0000
,
0000
0000
0000
0000
,
0000
0000
0000
0000
,
0000
0000
0000
0000
,
0000
0000
0000
0000
,
1000
0001
0100
0000
,
0000
0100
0010
1000
,
0001
0010
0100
0000
,
0100
0010
1001
0000
,
1000
1000
0010
0000
,
0000
0100
0000
0001
,
0010
0010
0100
0000
,
0000
0010
0000
0001
,
0100
0100
0010
0000
,
0000
1000
0000
0001
,
0100
0000
0010
0000
,
1000
0100
0010
0000
,
0001
0000
0010
0000
,
0000
0100
0100
1000
,
0010
0000
0100
0000
,
0000
0001
1000
0001
,
0100
0000
0010
0000
,
0000
1000
0100
0010
,
0001
0000
0110
0000
,
1000
0001
1000
0000
,
0010
0000
0000
0100
,
0110
0000
0000
0001
,
1001
0000
0000
1000
,
0100
0010
0001
0000
,
0001
0000
0000
0100
,
0101
0000
0000
1000
,
1010
0000
0000
0001
,
0010
0100
1000
0000
,
1001
0000
0000
0001
,
0011
0000
0000
1000
,
1100
0000
0000
0001
,
1000
0010
0100
0000
,
0011
0000
1000
0100
,
0110
1001
0000
0001
,
1000
1000
0010
0010
,
0100
0000
0001
0000
,
0010
0010
0100
0100
,
1000
0000
0001
0000
,
0100
0010
1000
0000
,
0001
0010
0100
0000
,
1000
0000
1001
0000
,
0100
0000
0110
0000
,
0001
0000
0001
0000
,
1000
0000
1000
0000
,
0010
0000
0010
0000
,
0100
0000
0100
0000
,
0001
0000
1000
0000
,
0001
0100
0001
0000
,
1000
0000
0001
0000
,
1000
0010
1000
0000
,
0010
0000
1000
0000
,
0100
0000
0001
0000
,
0010
0000
1000
0000
,
0100
0000
0001
0000
,
0010
0000
1000
0000
,
0100
0000
0001
0000
,
0010
0000
1000
0000
,
0100
0000
0001
0000
,
1000
0000
0101
0000
,
0000
0000
0001
0000
,
1000
0000
1100
0000
,
0000
0000
1000
0000
,
0001
0000
0011
0000
,
0000
0000
0001
0000
,
1000
0000
1010
0000
,
0000
0000
1000
0000
,
0010
0000
0010
0000
,
0010
0000
0000
0000
,
0100
0000
0100
0000
,
0100
0000
0000
0000
,
0001
0000
0001
0000
,
0001
0000
0000
0000
,
1000
0000
1000
0000
,
1000
0000
0000
0000
,
0110
0000
0100
0000
,
0110
0000
0010
0000
,
0110
0000
0100
0000
,
0110
0000
0110
0000
,
1001
0000
0001
0000
,
1001
0000
1000
0000
,
1001
0000
0001
0000
,
1001
0000
1001
0000
;

//--------------- dance-single - about-blank ----------------
#NOTES:
     dance-single:
     about-blank:
     Medium:
     11:
     0,0,0,0,0:
0000
0000
0000
0000
,
0000
0000
0000
0000
,
0000
0000
0000
0000
,
0000
0000
0000
0000
,
0000
0000
0000
0000
,
0000
0000
0000
0000
,
1000
0010
0200
0300
,
0000
1000
0100
0000
0001
0000
0010
0000
,
0100
0010
0002
0003
,
1000
0001
1000
0000
0010
0000
0110
0000
,
0001
0001
1000
1000
,
0000
0010
0000
0010
0100
0000
0001
0000
,
1000
0100
0010
0001
,
0000
0100
0000
0010
1000
0000
0001
0000
,
0010
0010
0100
0100
,
0000
1000
0000
0100
0010
0000
0001
0000
,
1000
1010
0001
0101
,
1000
0001
1000
0001
1000
0000
0000
0000
,
0001
0001
0010
0010
,
0000
0100
0000
0010
0001
0000
1000
0000
,
1000
1000
0010
0010
,
0000
0100
0000
1000
0100
0000
0010
0000
,
1000
0100
0010
0001
,
0000
1000
0000
0001
0100
0000
0010
0000
,
1010
0000
0101
0000
1000
0100
0010
0000
,
0010
0001
1000
0001
1000
0000
0000
0000
,
0002
0000
0000
1000
0000
0000
1003
0000
,
0200
0000
0000
0010
0000
0000
0310
0000
,
0002
0000
0000
1000
0000
0000
1003
0000
,
0001
0010
0100
0010
0100
0000
1001
0000
,
2000
0000
0000
0100
0000
0000
3100
0000
,
2000
0000
0000
0010
0000
0000
3010
0000
,
2000
0000
0000
0001
0000
0000
3001
0000
,
1000
0100
0000
0001
0000
0100
1000
0000
,
0020
0000
0100
0130
0000
0000
0001
0000
,
2000
0000
0100
3100
0000
0000
0001
0000
,
0020
0000
0100
0130
0000
0000
1000
0000
,
0001
0100
0000
0010
0000
0010
1000
0000
,
0002
0000
0100
0103
0000
0001
1000
0001
,
1000
0000
0110
0000
1000
0000
0001
0010
,
0100
1000
0100
0000
0010
0001
0010
0000
,
0001
1000
0001
0000
0100
0010
0100
0000
,
0011
1010
0022
0033
,
1000
0010
1000
0010
1000
0000
1001
0000
,
1000
0001
1000
0000
0010
0100
0010
0000
,
0100
0001
0100
0000
0001
0010
0001
0000
,
0022
0033
0220
0330
,
1000
0010
0100
0010
1000
0000
1001
0000
,
0001
0000
0010
0100
0000
0100
1000
0010
,
0000
0010
0100
0001
0000
0001
0010
0001
,
0000
1000
0010
1000
0000
1000
0100
0010
,
0000
0010
0001
0100
0000
0100
0001
0010
,
0100
0010
0100
0010
,
0001
1000
0001
1000
,
0010
0100
0001
0000
1000
0100
0010
0000
,
1001
1001
1001
1001
,
0000
0001
0000
0001
0000
0100
0000
0100
,
0000
1000
0000
1000
0000
0010
0000
0010
,
0000
0001
0000
0001
0000
0100
0000
0100
,
0000
1000
0000
1000
0000
0010
0000
0011
,
0000
0001
0000
0101
0000
0100
0000
1100
,
0000
1000
0000
1010
0000
0010
0000
0001
,
1000
0001
0000
0001
0100
0001
0000
0001
,
0010
0001
0000
0001
0010
0100
1000
0001
,
0010
0000
0100
0000
1010
0000
0000
0010
,
0000
0010
0100
0000
0001
0000
1000
0000
,
0001
0000
0010
0000
0110
0000
0000
0010
,
0000
0010
0001
0000
1000
0000
0010
0100
,
0010
0000
1000
0000
0101
0000
0000
0001
,
0000
0001
1000
0000
0010
0000
1000
0000
,
0100
0000
0010
0000
0110
0000
0000
0001
,
0000
0001
1000
0000
0010
0000
0100
0010
,
0100
0001
0100
0001
,
1000
0100
0010
0001
,
1000
0010
1000
0010
,
0100
0001
0010
0100
,
1000
0001
1000
0001
,
0010
0001
1000
0010
,
0100
0001
0100
0001
,
0010
0000
0001
1000
0001
0000
0110
0000
,
0101
0000
0000
0001
0001
0000
0000
0000
,
1010
0000
0000
1000
1000
0000
0000
0000
,
0110
0000
0000
0100
0100
0000
0010
0000
,
0001
0000
1000
0001
1000
0000
0000
0000
,
1100
0000
0000
0010
0010
0000
0000
0000
,
0101
0000
0000
0010
0010
0000
0000
0000
,
1001
0000
0000
0100
0100
0000
1000
1000
,
0001
0100
0010
1000
0200
0000
0300
0000
;

//--------------- dance-single - about-blank ----------------
#NOTES:
     dance-single:
     about-blank:
     Hard:
     13:
     0,0,0,0,0:
0000
0000
0000
0000
,
0000
0000
0000
0000
,
0000
0000
0000
0000
,
0000
0000
0000
0000
,
0000
0000
0000
0000
,
0000
0000
0000
0000
,
0010
1100
0022
0033
,
0000
0010
0001
0100
1000
0100
0001
0010
,
0100
1010
0202
0303
,
1000
0000
0010
0000
0001
0000
0010
0000
1000
0000
0000
0000
0001
1000
0000
0000
,
0010
1100
0010
0101
,
0000
0001
0010
0100
0001
1000
0010
0000
,
1001
0000
0110
0000
0001
1000
0010
0000
,
0000
0100
0010
0001
1000
0100
0010
0100
,
0001
0011
1000
1010
,
0000
0001
0010
0100
0001
0100
0010
0100
,
1000
0000
1001
0000
0010
1000
0001
0000
,
0001
0010
0100
1000
0001
0000
0110
0000
,
2000
0100
3002
0100
,
0003
1000
0000
1000
0010
0000
0101
0000
,
0002
0010
2003
0010
,
3000
0001
0000
0100
0010
1000
0001
0000
,
2000
0100
3002
0010
,
0003
1000
0000
0001
0010
0000
0110
0000
,
1100
0000
0011
0000
1000
0010
0001
0000
,
1000
0100
0010
0100
0001
0000
1001
0000
,
2000
0000
3100
0100
0000
0010
0001
0000
,
0002
0000
0103
0100
0000
0010
1000
0000
,
0002
0000
1003
1000
0000
0010
0100
0000
,
0010
1000
0100
0001
0100
1000
0010
0000
,
0200
0000
0301
0001
0000
1000
0010
0000
,
2000
0000
3001
0001
0000
0010
0100
0000
,
0020
0000
0130
0100
0000
1000
0001
0000
,
0100
1000
0100
0010
0100
0001
0010
0000
,
0100
0010
0100
0010
0001
0100
0001
0000
,
1000
0010
1000
0010
0100
0001
0100
0000
,
0001
0010
0001
0010
0100
1000
0100
0000
,
1000
0002
0000
0103
0000
0100
0010
0000
,
0001
0010
0001
0010
1000
0100
1000
0000
,
0110
0000
0000
0000
1001
0000
0000
0000
1000
0000
0001
0000
0100
0010
0100
0000
,
0001
1001
0220
0330
,
0000
1000
0010
0100
0001
0001
1000
1000
,
0010
0110
2002
3003
,
1000
0100
0010
0010
0001
0000
1001
0000
,
0001
0010
0001
0010
0100
1000
0100
1000
,
0010
0100
0010
0100
0001
1000
0001
1000
,
0110
0000
1000
1000
0010
0000
0001
0001
,
0010
1000
0100
0010
0001
0000
1001
0000
,
1000
0010
2000
3000
1000
0010
0200
0300
,
1000
0100
0020
0030
1000
0100
0002
0003
,
0100
0010
0002
0003
0001
0100
0020
0030
,
0001
0010
0200
0300
0001
0010
2000
3000
,
0001
0100
2000
3100
0010
0100
2000
3100
,
0010
0001
0200
0301
0010
0001
0200
0301
,
1000
0001
0020
0031
1000
0001
0020
0031
,
1000
0011
0001
1100
,
0000
1010
0000
1010
0000
1100
0000
1100
,
0000
0101
0000
0101
0000
0011
0000
0011
,
0000
1010
0000
1010
0000
0011
0000
0011
,
0000
0101
0000
0101
0000
1100
0000
1100
,
0000
1010
0000
1010
0000
0101
0000
0101
,
0000
0011
0000
0011
0000
1100
0000
1100
,
0000
0110
0000
1001
0000
0110
0000
1001
,
0000
0110
0000
1001
0000
0001
1000
0001
,
1000
0000
0010
0000
0101
0000
0001
0010
,
0000
0010
0100
0000
1000
0001
0100
0010
,
1000
0000
0001
0000
0110
0000
1000
0010
,
0000
1000
0100
0000
0010
0000
1001
0000
,
0001
0000
0100
0000
0011
0000
0010
0100
,
0000
1000
0010
0000
0100
0001
0100
1000
,
0100
0000
0001
0000
0011
0000
0010
0100
,
0000
1000
0010
0000
0100
0000
0001
0001
,
2000
0000
3200
0000
0302
0000
1003
0010
,
0000
0010
0001
0010
0100
0000
1000
0000
,
0002
0000
0203
0000
2300
0000
3001
0010
,
0000
0010
1000
0010
0100
0000
0001
0000
,
2000
0000
3020
0000
0032
0000
1003
0100
,
0000
0100
0001
0100
0010
0000
1000
0000
,
0002
0000
0203
0000
2300
0000
3001
0010
,
0000
0000
0000
0010
0000
0000
1000
0000
0100
0000
0010
0000
0001
0000
0000
0000
0000
0000
0010
0000
0000
0100
0000
0000
,
0110
0000
0001
0100
1000
0000
1001
0000
,
0110
0000
1000
0100
0001
0000
1001
0000
,
0110
0000
0001
0010
1000
0000
1001
0001
,
0100
0100
0010
0010
0100
0000
0110
0000
,
1001
0000
0010
1000
0100
0000
0110
0000
,
1001
0000
0010
0001
0100
0000
0110
0000
,
1001
0000
0010
1000
0100
0000
0010
0001
,
1000
1000
0010
0010
0100
0100
0002
0000
,
0003
0000
0000
0000
;
