#TITLE:45 rotations;
#SUBTITLE:;
#ARTIST:Sampling Masters AYA;
#TITLETRANSLIT:;
#SUBTITLETRANSLIT:;
#ARTISTTRANSLIT:;
#GENRE:;
#CREDIT:;
#MUSIC:45 rotations.mp3;
#BANNER:;
#BACKGROUND:;
#CDTITLE:;
#SAMPLESTART:11.699;
#SAMPLELENGTH:15.000;
#SELECTABLE:YES;
#OFFSET:1.384;
#BPMS:0.000=165.000;
#STOPS:;
#BGCHANGES:;
#FGCHANGES:;

//--------------- dance-single - forcednature ----------------
#NOTES:
     dance-single:
     forcednature:
     Beginner:
     4:
     0,0,0,0,0:
0000
0000
0000
0000
,
0000
0000
0000
0000
,
0000
0000
0000
0000
,
0000
0000
0000
0000
,
0000
0000
0000
0000
,
0100
0000
0000
0010
,
0010
0000
0000
0010
,
0010
0000
0100
0000
,
0001
1000
0001
0000
,
1000
0000
1000
0000
,
0001
0000
0001
0000
,
0100
0000
0000
0000
,
0010
0000
0010
0000
,
1000
0000
0001
0000
,
1000
0000
0001
0000
,
0010
0000
0100
0000
,
0010
0010
0010
0000
,
0001
0000
0000
0000
,
0100
0000
0100
0000
,
1000
0000
0000
0000
,
0100
0000
0100
0000
,
0010
0000
0010
0000
,
0100
0000
0000
0000
,
0001
0000
1000
0000
,
0100
0000
0000
0000
,
0010
0000
0010
0000
,
0010
0000
0010
0000
,
0001
0000
0001
0000
,
0001
0000
0001
0000
,
1000
0000
1000
0000
,
1000
0000
1000
0000
,
0010
0000
0100
0000
,
0001
0000
0000
0000
,
1001
0000
0000
0100
,
0100
0000
0010
0000
,
1001
0000
0000
0010
,
0010
0100
0100
0100
,
1000
0000
0001
0000
,
0100
0000
0000
0000
,
0001
0000
1000
0000
,
0100
0000
0000
0000
,
0010
0000
0001
0000
,
0100
0000
0000
0000
,
0010
0000
1000
0000
,
0100
0000
0000
0000
,
0000
1000
0000
1000
,
0000
0001
0000
0001
,
0000
0100
0000
0100
,
0000
0010
0000
0010
,
0000
1000
0000
1000
,
0000
0001
0000
0001
,
0000
0010
0000
0010
,
0000
0100
0000
0100
,
0001
0000
1000
0000
,
1000
0000
0001
0000
,
0100
0100
0100
0100
,
0010
0010
0010
0010
,
0000
1000
0000
1000
,
0000
0001
0000
0001
,
0000
0010
0000
0010
,
0000
0100
0000
0100
,
0000
1000
0000
1000
,
0000
0001
0000
0001
,
0000
0100
0000
0100
,
0000
0010
0000
0010
,
0000
0100
0000
0100
,
0000
0010
0000
0010
,
1000
0000
0001
0000
,
0100
0000
0000
0010
,
0010
0000
0000
0100
,
0100
0000
0000
0001
,
0001
0000
1000
0000
,
1001
0000
0100
0100
,
0100
0000
0010
0010
,
0010
0000
0100
0000
,
1001
0000
0000
1001
;

//--------------- dance-single - forcednature ----------------
#NOTES:
     dance-single:
     forcednature:
     Easy:
     8:
     0,0,0,0,0:
0000
0000
0000
0000
,
0000
0000
0000
0000
,
0000
0000
0000
0000
,
0000
0000
0000
0000
,
0000
0000
0000
0000
,
1000
0000
1000
0000
0001
0100
0000
0000
,
0001
0001
1000
0010
,
1000
0000
0000
0100
0000
0000
1000
0000
0000
0000
0000
0000
0010
0000
0000
0000
,
0100
0100
0100
0000
0010
0000
0000
0000
,
1000
0000
0001
0000
0100
0001
0000
0000
,
0010
0100
1000
0010
,
1000
0000
0000
0001
0000
0000
1000
0000
0000
0000
0000
0000
0010
0000
0000
0000
,
0100
0001
0010
0100
,
1000
0000
0001
0000
0100
0001
0000
0000
,
0010
0100
0010
0001
,
0100
0000
0000
0010
0000
0000
0100
0000
0000
0000
0000
0000
0001
0000
0000
0000
,
1000
0001
1000
0000
1001
0000
0000
0000
,
1000
0100
0001
0100
,
1000
0010
0001
0010
,
0100
0001
0010
0001
,
0100
0010
1000
0100
,
1000
1000
1000
0000
0001
0000
0100
0000
,
0001
0001
0001
0000
1000
0000
0100
0000
,
0010
0100
1000
0001
,
2002
0000
0000
3003
,
1000
0100
0000
0100
0000
0010
0000
0001
,
0100
0010
0000
0010
0000
1000
0000
0001
,
1000
0100
0000
0100
0000
0010
0000
0001
,
1000
0010
0000
0010
0000
0100
0000
0001
,
0010
0001
0000
0001
0000
1000
0000
1000
,
0010
1000
0000
1000
0000
0001
0000
0001
,
0010
0100
0000
0100
1000
0010
0000
0010
,
0100
0000
0000
0010
0100
0000
0000
0010
0100
0000
0000
0000
0110
0000
0000
0000
,
1001
0100
0010
1001
,
2000
0000
3002
0000
0103
0100
0100
0000
,
0110
0001
1000
0110
,
1001
0000
0110
0000
0001
1000
0001
1000
,
0010
0010
1000
0001
,
0010
0000
0000
0001
0000
0000
0010
0000
0100
0000
0000
0000
1000
0000
0000
0000
,
0010
0010
1000
0001
,
0100
0000
0100
0000
0001
1000
0001
0000
,
0010
0010
0100
1000
,
0010
0000
0000
0100
0000
0000
0001
0000
1000
0000
0000
0000
0001
0000
0000
0000
,
0010
0010
0100
0100
,
1000
0000
0001
0000
0100
0100
0100
0000
,
0010
0101
0000
1001
,
0000
1100
0000
1001
,
0000
0110
0000
1001
,
0000
1010
0000
0011
,
0100
1001
0000
0110
,
0000
1100
0000
1010
,
0000
0101
0000
0011
,
0200
0000
0010
0000
0010
0010
0310
0000
,
0110
0000
0001
0000
1000
0001
1000
0000
,
1001
0000
0100
0000
0010
0100
0010
0000
,
1001
0100
1001
0010
,
1001
1001
0110
0110
,
1001
0001
0100
1000
,
0100
0001
0100
1000
,
0100
0010
0001
0010
,
1000
0010
0001
0010
,
1000
1000
1000
0000
0001
0000
0010
0000
,
0001
0001
0001
0000
1000
0000
0010
0000
,
0110
0100
0001
1000
,
0100
0000
0000
0010
0100
0000
0000
0010
0100
0000
0000
0000
0110
0000
0000
0000
,
1001
0100
0001
1000
,
1001
0100
1000
0001
,
0200
0000
0010
0010
0010
0010
0310
0000
,
1001
0000
0100
0000
0001
1000
0000
0000
,
0010
1000
0001
0010
,
0100
0000
0000
1000
0000
0000
0100
0000
0000
0000
0000
0000
0010
0000
0000
0000
,
0001
0001
1000
1000
,
1001
0000
0100
0000
0010
0010
0010
0000
,
1001
0000
0010
0000
0100
0100
0100
0000
,
1001
0100
1001
0010
,
1000
0001
0100
0010
1000
0000
2002
0000
,
3003
0000
0000
0000
;

//--------------- dance-single - forcednature ----------------
#NOTES:
     dance-single:
     forcednature:
     Medium:
     13:
     0,0,0,0,0:
0000
0000
0000
0000
,
0000
0000
0000
0000
,
0000
0000
0000
0000
,
0000
0000
0000
0000
,
0000
0000
0000
0000
,
0001
1000
0100
1000
0001
0100
0000
0010
,
1000
0001
0010
0001
0100
0010
1000
0100
,
0010
0000
0000
0001
0000
0000
0100
0000
0000
0000
0010
0000
1000
0000
0001
0000
,
0100
0100
0100
0000
1001
0000
0000
0000
,
0001
0100
0001
0010
0100
0010
0000
0001
,
1000
0010
1000
0001
0010
0001
0100
0010
,
1000
0000
0000
0100
0000
0000
0010
0000
0000
0000
0100
0000
1000
0000
0001
0000
,
0101
1001
1100
1001
,
0001
0100
0001
1000
0010
0100
0000
0001
,
0010
0100
1000
0100
0010
0001
1000
0010
,
0100
0000
0000
0001
0000
0000
0100
0000
0000
0000
0010
0000
1000
0000
0100
0000
,
0010
0100
0010
0000
1001
0000
0001
1000
,
0001
0000
0000
0100
0000
0000
0010
0000
1000
0000
0000
0001
0000
0000
1000
0000
,
0100
0000
0000
0010
0000
0000
0100
0000
1000
0000
0000
0010
0000
0000
0100
0000
,
0001
0000
0000
0010
0000
0000
0001
0000
0100
0000
0000
0010
0000
0000
0100
0000
,
0001
0000
0000
0010
0000
0000
0100
0000
1000
0000
0000
0001
0000
0000
0100
0000
,
0010
0000
0010
0000
1000
0001
0100
0000
,
0010
0000
0000
1000
0000
0000
0100
0000
0010
0000
0000
0001
0000
0000
0100
0000
,
0010
0000
0000
1000
0000
0000
0001
0000
0010
0000
0000
0100
0000
0000
1000
0000
,
0002
1000
1000
1003
,
0001
0100
1000
0100
0010
0100
0001
0000
,
1000
0100
0010
0100
0001
0100
1000
0000
,
0010
0100
0001
1000
0100
0001
0100
0000
,
0010
0001
1000
0010
0001
0010
0100
0000
,
0001
0010
0100
1000
0010
0001
0010
0000
,
1000
0100
0001
0100
1000
0010
1000
0000
,
0001
0000
0100
1000
0100
0001
0100
0000
,
0001
0000
0000
0010
0000
0000
0100
0000
1000
0000
0000
0100
0000
0000
0010
0000
0001
0000
0000
0000
0000
0000
0000
0000
1001
0000
0000
0000
0000
0000
0000
0000
,
0110
0000
0001
0000
1000
0010
1000
0000
,
1001
0000
0101
0000
1000
1000
0001
0001
,
0100
0000
0001
0000
1000
0100
0010
0000
,
0110
0000
1001
0000
0001
0100
1000
0100
,
0010
1000
0001
0010
0100
0001
0100
1000
,
0010
0000
0000
0100
0000
0000
0001
0000
1000
0000
0100
0000
1000
0000
0010
0000
,
0100
0010
1000
0001
0010
0100
0001
0100
,
1000
0010
0100
0001
1000
1000
0001
0000
,
0100
1000
0100
0001
0010
0100
1000
0010
,
1000
0000
0000
0001
0000
0000
0010
0000
0100
0000
0001
0000
0100
0000
1000
0000
,
0010
0100
0001
1000
0100
0010
0100
1000
,
0010
0100
0001
0001
0010
1000
0010
0000
,
0110
0000
1001
0000
0001
0100
0101
0000
,
1000
0000
0000
0100
0000
0000
1000
0000
0010
0000
0100
0000
0110
0000
0000
0000
,
0001
0000
0011
0000
1000
0100
0110
0000
,
0001
0100
1000
0100
0010
0010
0110
0000
,
0001
0000
1100
0000
1000
0010
0110
0000
,
0001
0000
0000
1000
0000
0000
0100
0000
0010
0000
0001
0000
0101
0000
0000
0000
,
0001
1000
1001
0000
0010
0000
0110
0000
,
0001
0100
0010
1000
0100
0100
0100
0000
,
0110
0000
0001
0100
1000
0100
0001
0000
,
0110
0000
1000
0100
0001
0100
1000
0000
,
0110
1100
0110
0101
,
1000
0001
1000
0001
0100
0010
0100
0010
,
1000
0000
0000
0100
0000
0000
0010
0000
0100
0000
0000
1000
0000
0000
0001
0000
,
0100
0000
0000
0010
0000
0000
1000
0000
0001
0000
0000
0010
0000
0000
0001
0000
,
0100
0000
0000
0010
0000
0000
0100
0000
0001
0000
0000
0010
0000
0000
0100
0000
,
1000
0000
0000
0010
0000
0000
1000
0000
0001
0000
0000
0010
0000
0000
0001
0000
,
0100
0000
0100
0000
0010
1000
0001
0000
,
0010
0000
0000
0100
0000
0000
1000
0000
0001
0000
0000
0100
0000
0000
0010
0000
,
1001
0000
1000
0001
1000
0001
0100
0000
,
0010
0000
0000
1000
0000
0000
0100
0000
0010
0000
0000
0001
0000
0000
0100
0000
0010
0000
0000
0000
0000
0000
0000
0000
1001
0000
0000
0000
0000
0000
0000
0000
,
0110
0000
0001
1000
0001
1000
0001
0000
,
0110
0000
0000
0000
0000
0000
0001
0000
0000
0000
0000
0000
1000
0000
0000
0000
0100
0000
0000
1000
0000
0000
0010
0000
0100
0000
0000
0001
0000
0000
0010
0000
,
0100
0100
0010
0010
0001
0001
1000
1000
,
0001
0100
1000
0100
0010
0100
0000
0001
,
1000
0100
0010
0001
1000
0010
1000
0001
,
0010
0000
0000
0100
0000
0000
1000
0000
0000
0000
0010
0000
0100
0000
0001
0000
,
0100
0110
1001
0110
,
0011
0000
0001
0100
0010
0100
1000
0100
,
0010
0000
1000
0100
0001
0100
0010
0001
,
1000
0000
0010
0000
0100
0000
0001
0000
1000
0100
1000
0000
0001
0000
0010
0000
,
0100
0000
1000
0001
0000
1000
0001
0000
0100
0000
0000
0000
2002
0000
0000
0000
,
3003
0000
0000
0000
;

//--------------- dance-single - forcednature ----------------
#NOTES:
     dance-single:
     forcednature:
     Hard:
     15:
     0,0,0,0,0:
0000
0000
0000
0000
,
0000
0000
0000
0000
,
0000
0000
0000
0000
,
0000
0000
0000
0000
,
0000
0000
0000
0000
,
1001
0001
0100
0100
0010
2000
0000
3001
,
1001
1000
0100
0100
0010
0001
0100
0010
,
1010
0000
0000
0001
0000
0000
0010
0000
0100
0000
1000
0000
0010
0000
1000
0000
,
0100
0000
0110
0000
0110
0000
0000
0000
1001
0000
0000
0001
0100
0000
0100
0000
,
1000
0100
0001
0010
0100
0002
0000
0103
,
1000
0010
0100
0001
1000
0010
0001
0010
,
0100
0000
0000
1000
0000
0000
0200
0000
0000
0000
0301
0000
1000
0000
0100
0000
,
1100
1010
0101
0011
,
0001
0100
1000
0001
0010
0200
0000
0301
,
0010
1000
0010
0100
1000
0010
0001
0010
,
0100
0000
0000
0001
0000
0000
0010
0000
0100
0000
1000
0000
0010
0000
0100
0000
,
0101
0000
0000
0000
1001
0000
0000
0000
1100
0000
0000
0000
1000
0001
1000
0000
,
0010
0000
0000
0010
0100
0000
0001
0000
0010
0000
0000
0010
0100
0000
1000
0000
,
0001
0000
0000
0100
0000
0000
1000
0000
0100
0000
0000
0001
0000
0000
0010
0000
,
0100
0000
0000
0100
1000
0000
0010
0000
0100
0000
0000
0100
0001
0000
0010
0000
,
0100
0000
0000
0001
0000
0000
0100
0000
1000
0000
0000
0010
0000
0000
1000
0000
,
0100
1000
0000
1000
0001
0000
0100
0000
0001
1000
0000
1000
0100
0000
0010
0000
,
0001
0000
0100
0010
0000
1000
0000
0000
0001
0000
0010
0100
0000
1000
0000
0000
,
0010
0000
0100
0001
0000
1000
0000
0000
0100
0000
0010
0100
0000
1000
0000
0000
,
0020
0100
0130
1001
,
1000
0000
0001
0010
0000
0000
0010
0100
0000
0000
0100
1000
0000
0000
1000
0010
,
0000
0000
0010
0100
0000
0000
0100
0001
0000
0000
0001
1000
0000
0000
1000
0100
,
0000
0000
0100
0001
0000
0000
0001
0100
0000
0000
0100
1000
0000
0000
1000
0010
,
0000
0000
0010
0001
0000
0000
0001
0010
0000
0000
0010
1000
0000
0000
1000
0100
,
0000
0000
0010
0001
0000
0000
0100
0010
0000
0000
1000
0001
0000
0000
1000
0010
,
0000
0000
0100
0001
0000
0000
1000
0100
0000
0000
0010
0001
0000
0000
1000
0001
,
1000
0000
0000
0010
0100
0000
0001
0000
0010
0001
0000
1000
0100
0000
1000
0000
,
0001
0000
0000
0100
0000
0000
0010
0000
1000
0000
0000
0100
0000
0000
0010
0000
0001
0000
0000
0000
0000
0000
0000
0000
1001
0000
0000
0000
0000
0000
0000
0000
,
0110
0000
0000
0001
1000
0000
0010
0000
1000
0000
0001
0000
0010
0000
0100
0000
,
0020
0000
0000
0000
0032
0000
0000
0000
0103
0000
0010
0000
1000
0001
1000
0000
,
0010
0000
0000
0100
0001
0000
1000
0000
0100
0000
1000
0000
0010
0000
0010
0000
,
1001
0000
0000
0000
0110
0000
0000
0000
1001
0000
0000
1000
0001
1000
0001
1000
,
0001
0010
0001
0100
1000
0100
0010
1000
,
0001
0000
0000
0010
0100
0000
1000
0000
0001
0010
0001
0000
0100
0000
0010
0000
,
1000
0000
0100
0010
0100
0000
0001
0000
0100
0000
1000
0000
0010
0000
0001
0000
,
0010
0000
0100
0000
0001
0000
1000
0000
0001
0010
0100
1000
0001
0000
0000
0000
,
0100
1000
0100
0001
0010
1000
0010
0001
,
0100
0000
0000
0010
1000
0000
0001
0000
0010
0001
0010
0000
0100
0000
1000
0000
,
0010
0100
0001
0010
0100
1000
0001
1000
,
0010
0000
0010
0000
0100
0001
1000
0010
0100
0000
0001
0100
0001
0000
0000
0000
,
1000
0100
1000
0010
0100
1000
0100
0001
,
0010
0000
0000
0100
1000
0000
0010
0000
0100
0001
0010
0000
0001
0000
0100
0000
,
1000
0000
0100
0010
0100
0000
0001
0000
1000
0000
0100
0000
0001
0000
0100
0000
,
0010
0000
0001
0000
0100
0000
1000
0000
0100
0010
1000
0001
0100
0000
0000
0000
,
0010
0001
0010
1000
0100
0010
0001
1000
,
0010
0000
0000
0100
0001
0000
0010
0000
0100
1000
0001
0000
0100
0000
1000
0000
,
0100
0010
1000
0001
0010
1000
0001
0100
,
1000
0000
0001
0000
0100
0000
0010
0000
1000
0100
1000
0100
0010
0001
0010
0001
,
0100
0000
0000
0100
0010
0000
1000
0000
1001
0000
0100
0000
1001
0000
0000
0000
,
0001
0000
0000
0001
0010
0000
0001
0000
1001
0000
0100
0000
1001
0000
0000
0000
,
1100
1010
0101
0011
,
0001
0000
0001
0000
1000
0000
1000
0000
0001
0100
0001
0000
0010
0000
0010
0000
,
0100
0000
0000
0100
1000
0000
0001
0000
0100
0000
0000
0100
0010
0000
1000
0000
,
0100
0000
0000
0010
0000
0000
0001
0000
0100
0000
0000
1000
0000
0000
0100
0000
,
0001
0000
0000
0001
1000
0000
0100
0000
0001
0000
0000
0001
0100
0000
0010
0000
,
0001
0000
0000
0100
0000
0000
1000
0000
0100
0000
0000
0010
0000
0000
1000
0000
,
0100
0010
0000
0010
0001
0000
0100
0000
0010
1000
0000
1000
0001
0000
0010
0000
,
1000
0000
0010
0100
0000
1000
0000
0000
0010
0000
0100
1000
0000
0100
0000
0000
,
0110
0000
0000
1000
0001
0000
0100
0000
0010
1000
0100
0010
0001
0000
0100
0000
,
0010
0000
0000
1000
0000
0000
0100
0000
0010
0000
0000
0001
0000
0000
0100
0000
0010
0000
0000
0000
0000
0000
0000
0000
1001
0000
0000
0000
0000
0000
0000
0000
,
0110
0000
0000
0001
1000
0000
0100
0000
0010
0001
0100
0010
0100
0000
0001
0000
,
1000
0000
0000
0000
0100
0000
0001
0000
0000
0000
0100
0000
1000
0000
0000
0000
0010
0000
0000
0100
0000
0000
0001
0000
1000
0000
0000
0100
0000
0000
0010
0000
,
0001
0100
0001
0100
0010
1000
0010
0000
1000
0100
1000
0100
0010
0001
0010
0000
,
0110
1000
0001
0100
1000
0200
0000
0310
,
1010
1000
0001
0010
1000
0001
0100
1000
,
1010
0000
0000
0001
0000
0000
0200
0000
0000
0000
0310
0000
1000
0000
0001
0000
,
1001
0011
1100
1001
,
1001
0000
0001
0100
0001
0000
0010
0000
0110
0000
0100
0000
1001
0000
0000
0000
,
1001
0000
1000
0100
1000
0000
0010
0000
0110
0000
0100
0000
1001
0000
0000
0000
,
0001
0000
0100
0000
1000
0000
0100
0000
0001
0010
0001
0000
0100
0000
0010
0000
,
1000
0100
0010
0001
0100
0010
1000
0001
0010
0000
0000
0000
2002
0000
0000
0000
,
3003
0000
0000
0000
;
