#TITLE:11th Dimension;
#SUBTITLE:;
#ARTIST:Julian Casablancas;
#TITLETRANSLIT:;
#SUBTITLETRANSLIT:;
#ARTISTTRANSLIT:;
#GENRE:;
#CREDIT:;
#MUSIC:11th Dimension.mp3;
#BANNER:;
#BACKGROUND:;
#CDTITLE:;
#SAMPLESTART:0.000;
#SAMPLELENGTH:0.000;
#SELECTABLE:YES;
#OFFSET:0.932;
#BPMS:0.000=125.492;
#STOPS:;
#BGCHANGES:0.932=11th Dimension.avi=1.000=1=0=0,
99999=-nosongbg-=1.000=0=0=0 // don't automatically add -songbackground-
;
#FGCHANGES:;

//--------------- dance-single - ----------------
#NOTES:
     dance-single:
     :
     Beginner:
     2:
     0,0,0,0,0:
0000
0000
0000
0000
,
0000
0000
0000
0000
,
0000
0000
0000
0000
,
0000
0000
0000
0000
,
0000
0000
0000
0000
,
0001
0000
0000
0000
0000
0000
0000
1000
,
0000
0000
0000
0000
,
0001
0000
0000
0000
0000
0000
0000
0100
,
0000
0000
0000
0000
,
0010
0000
0000
0000
0000
0000
0000
1000
,
0000
0000
0000
0000
,
0001
0000
0000
0000
0000
0000
0000
0010
,
0000
0000
0000
0000
,
0100
0000
0000
0000
0000
0000
0000
1000
,
0000
0000
0000
0000
,
0001
0000
0000
0000
0000
0000
0000
0001
,
0000
0000
0000
0000
,
1000
0000
0000
0000
0000
0000
0000
1000
,
0000
0000
0000
0000
,
0010
0000
0000
0000
0000
0000
0000
0010
,
0000
0000
0000
0000
,
0100
0000
0000
0000
0000
0000
0000
0100
,
0000
0000
0000
0000
,
0001
0000
0000
0000
0000
0000
0000
0010
,
0000
0000
0000
0000
,
0100
0000
0000
0000
0000
0000
0000
1000
,
0000
0000
0000
0000
,
0001
0000
0000
0000
,
1001
0000
0000
0000
,
0110
0000
0000
0000
,
1001
0000
0000
0000
,
1000
0000
0000
0000
,
1001
0000
0000
0000
,
0110
0000
0000
0000
,
1001
0000
0000
0000
,
0001
0000
0000
0000
0000
0000
0000
0010
,
0000
0000
0000
0000
,
1000
0000
0000
0000
0000
0000
0000
0100
,
0000
0000
0000
0000
,
0001
0000
0000
0000
0000
0000
0000
0100
,
0000
0000
0000
0000
,
1000
0000
0000
0000
0000
0000
0000
0010
,
0000
0000
0000
0000
,
0001
0000
0000
0000
0000
0000
0000
1000
,
0000
0000
0000
0000
,
0110
0000
0000
0000
0000
0000
0000
1001
;

//--------------- dance-single - ----------------
#NOTES:
     dance-single:
     :
     Easy:
     5:
     0,0,0,0,0:
0000
0000
0000
0000
,
0000
0000
0000
0000
,
0000
0000
0000
0000
,
0000
0000
0000
0000
,
0000
0000
0000
0000
,
0000
0000
0000
0000
0000
0000
0000
0001
,
0000
0001
0000
1000
0000
0000
0010
0000
,
0100
0000
0100
0000
0001
0000
0000
0010
,
0000
0010
0000
0010
0000
0000
0100
0000
,
1000
0000
1000
0000
0100
0000
0000
0010
,
0000
0010
0000
0010
0000
0000
0001
0000
,
1000
0000
1000
0000
0010
0000
0000
0100
,
0000
0100
0000
0100
0000
0000
0001
0000
,
0010
0000
0100
0000
1000
0000
0000
0001
,
0000
0100
0000
0010
0000
0000
1000
0000
,
0001
0000
1000
0000
0100
0000
0000
0010
,
0000
0010
0000
0100
0000
0000
1000
0000
,
0010
0000
0100
0000
0001
0000
0000
0010
,
0000
0010
0000
0100
0000
0000
1000
0000
,
0001
0000
1000
0000
0100
0000
0000
0010
,
0000
0010
0000
0001
0000
0000
1000
0000
,
0010
0000
0010
0000
0100
0000
0000
0001
,
0000
0010
0000
0010
0100
0000
1000
0000
,
0001
0000
0100
0000
0001
0000
0000
1000
,
0000
0010
0000
0010
1000
0000
0001
0000
,
0100
0000
0010
0000
1000
0000
0000
0100
,
0000
0100
0000
1000
0100
0000
0010
0000
,
0001
1000
0001
1000
,
0010
0100
0010
0100
,
0001
0010
0100
1000
,
0100
0010
0001
1000
,
0010
0000
0010
0000
0100
0010
0100
0000
,
0001
0000
0001
0000
1000
0001
1000
0000
,
0001
0010
0100
1000
,
0001
0000
0100
0000
0010
0100
0010
0000
,
1001
0000
1100
0000
1000
0000
0000
0100
,
0000
0100
0000
0010
0001
0000
1000
0000
,
1001
0000
0101
0000
0011
0000
0000
0001
,
0000
0001
0000
0010
0100
0000
1000
0000
,
1001
0000
0110
0000
0101
0000
0000
0001
,
0000
0001
0000
1000
0010
0000
0100
0000
,
1010
0000
0011
0000
1100
0000
0000
1000
,
0000
0100
0000
0010
0001
0000
1000
0000
,
0101
0000
1010
0000
0011
0000
0000
0010
,
0000
0100
0000
1000
0001
0000
0100
0000
,
1010
0000
0011
0000
1001
0000
0000
0001
,
1000
0001
0000
0001
1000
0000
0000
0000
;

//--------------- dance-single - ----------------
#NOTES:
     dance-single:
     :
     Medium:
     6:
     0,0,0,0,0:
0000
0000
0000
0000
,
0000
0000
0000
0000
,
0000
0000
0000
0000
,
0000
0000
0000
0000
,
0000
0000
0000
0000
,
0001
0000
0001
0000
0100
0000
0000
0010
,
0000
0010
0000
1000
0001
0000
1000
0000
,
0100
0010
0001
0100
,
0010
0000
0100
0000
0001
1000
0001
0000
,
0010
0100
0010
0001
,
1000
0000
0010
0000
0100
0010
0100
0000
,
0001
0010
0001
0100
,
0010
0000
1000
0000
0100
1000
0100
1000
,
0001
0010
0100
1000
,
0100
0000
0010
0000
0001
0100
0001
0000
,
1000
0010
0100
0001
,
0010
0000
1000
0000
0010
0100
0010
0000
,
0001
1000
0001
0100
,
0010
0000
1000
0000
0100
1000
0100
0000
,
0001
0100
0010
0001
,
1000
0000
0010
0000
0100
0001
0100
0010
,
1000
0100
0001
1000
,
0010
0000
0001
0000
1000
0001
1000
0000
,
0101
1100
0001
1000
,
1010
0011
0001
1000
,
0011
0101
1000
0001
,
1010
1100
0001
1000
,
0100
0010
0100
0000
0010
0000
0010
0000
,
0001
0010
0001
0000
0001
0000
0001
0000
,
1000
0010
1000
0000
1000
0000
1000
0000
,
0100
0010
0100
0000
1000
0000
1000
0000
,
0001
1000
0001
1000
0001
1000
0001
0000
,
0100
0010
0100
0010
0100
0010
0100
0000
,
0001
0010
0001
0010
0001
0010
0001
0000
,
1000
0100
1000
0100
1000
0100
1000
0000
,
0001
0010
1000
0100
,
0001
0000
0010
0000
1000
0001
1000
0000
,
1000
0100
0001
0010
,
1000
0000
0100
0000
0001
1000
0001
0000
,
0001
0010
0100
1000
,
0100
0000
0010
0000
0100
1000
0010
0000
,
1000
0010
0100
0001
,
0010
0000
0100
0000
0010
0001
0100
0000
,
1001
0000
0101
0000
1000
0001
1000
0000
,
0010
0000
0100
0000
0001
0010
0001
0000
,
1001
0000
1100
0000
0001
0010
0100
1000
,
0000
0010
0000
0100
0001
0000
0000
0000
;

//--------------- dance-single - ----------------
#NOTES:
     dance-single:
     :
     Hard:
     10:
     0,0,0,0,0:
0000
0000
0000
0000
,
0000
0000
0000
0000
,
0000
0000
0000
0000
,
0000
0000
0000
0000
,
0000
0000
0000
0000
,
0001
0000
0101
0000
1100
0000
0000
0001
,
0000
0001
0000
1000
0100
1000
0001
0000
,
0011
0000
0110
0000
1100
0000
1000
0010
,
0000
0010
0000
0100
0001
0100
0010
1000
,
0100
0000
1100
0000
0101
0000
0001
1000
,
0000
1000
0000
0001
0100
0010
1000
0001
,
0100
0000
0101
0000
1010
0000
0001
0010
,
0000
0010
0000
1000
0001
0100
1000
0100
,
0010
0000
0101
0000
1100
0000
0001
1000
,
0000
1000
0000
0100
0010
0001
1000
0010
,
0100
0100
0001
0001
,
1000
0001
1000
0001
0010
0001
0010
0001
,
0100
0100
0010
0010
,
1000
0001
0010
0100
1000
0001
0100
0010
,
1000
0000
1100
0000
0101
0000
0001
1000
,
0001
0100
0010
1000
0010
0100
0001
0010
,
0110
0000
1100
0000
0011
0000
0010
0001
,
0010
0100
1000
0010
0100
0001
1000
0001
,
0101
0000
0001
0010
0001
0000
0001
1000
,
0001
0000
1000
0100
1000
0010
0100
0001
,
0010
0000
0010
0100
0010
0000
0010
0001
,
1000
0000
1000
0001
0100
0010
1000
0100
,
0020
0000
1000
0000
0001
0000
1000
0030
,
0200
1000
0001
1000
,
0310
0000
1001
0000
0001
0100
1000
0000
,
0010
0000
1001
0000
1000
0100
0001
0000
,
2000
0100
0010
3001
,
0002
0100
0010
1003
,
0001
0000
0101
0000
0001
0001
1000
0000
,
0010
0000
1010
0000
1000
1000
0001
0000
,
0100
0010
1000
0000
0001
0010
0100
0010
,
0000
0010
0001
1000
0001
0100
0010
1000
,
0100
0000
0100
0010
0001
0000
0001
1000
,
0000
1000
0010
0100
0001
0010
0100
1000
,
0001
0000
0001
1000
0100
0000
0100
0010
,
0000
0010
0001
1000
0010
0100
0001
0100
,
0010
0000
0010
1000
0100
0000
0100
0010
,
0000
0010
0100
1000
0010
0100
0001
0010
,
0001
0000
0001
1000
0001
0000
0001
1000
,
0010
0000
0010
1000
0010
0000
1000
0100
,
1000
0000
1000
0100
0010
0000
0001
1000
,
0000
1000
0000
0010
0100
0000
0000
0000
;
